osu file format v14

[General]
AudioFilename: 01 StarRingChild.mp3
AudioLeadIn: 0
PreviewTime: 189168
Countdown: 0
SampleSet: Soft
StackLeniency: 0.7
Mode: 0
LetterboxInBreaks: 0
WidescreenStoryboard: 0

[Editor]
DistanceSpacing: 1.6
BeatDivisor: 4
GridSize: 4
TimelineZoom: 1.3

[Metadata]
Title:StarRingChild
TitleUnicode:StarRingChild
Artist:Aimer
ArtistUnicode:Aimer
Creator:TabemonoDaisuki
Version:Innocence
Source:
Tags:
BeatmapID:1362978
BeatmapSetID:642929

[Difficulty]
HPDrainRate:6
CircleSize:4
OverallDifficulty:8
ApproachRate:9.2
SliderMultiplier:1.4
SliderTickRate:1

[Events]
//Background and Video events
0,0,"yum.jpg",0,0
//Break Periods
2,117660,119817
2,215709,216402
//Storyboard Layer 0 (Background)
//Storyboard Layer 1 (Fail)
//Storyboard Layer 2 (Pass)
//Storyboard Layer 3 (Foreground)
//Storyboard Sound Samples

[TimingPoints]
26729,365.853658536585,4,2,0,30,1,0
35509,-86.9565217391305,4,2,0,30,0,0
38436,-76.9230769230769,4,2,0,80,0,0
38802,-76.9230769230769,4,2,0,70,0,0
38985,-76.9230769230769,4,2,0,60,0,0
39533,-76.9230769230769,4,2,0,50,0,0
49411,-133.333333333333,4,2,0,40,0,0
50326,-86.9565217391305,4,2,0,40,0,0
66972,-76.9230769230769,4,2,0,40,0,0
67338,-86.9565217391305,4,2,0,40,0,0
74838,-133.333333333333,4,2,0,40,0,0
75296,-66.6666666666667,4,2,0,40,0,0
76302,-76.9230769230769,4,2,0,40,0,0
80692,-100,4,2,0,40,0,0
84533,-76.9230769230769,4,2,0,40,0,0
90021,-133.333333333333,4,2,0,40,0,0
91119,-76.9230769230769,4,2,0,40,0,1
92399,-76.9230769230769,4,2,0,40,0,1
95326,-71.4285714285714,4,2,0,40,0,1
107033,-83.3333333333333,4,2,0,40,0,1
114533,-83.3333333333333,4,2,0,40,0,0
120387,-71.4285714285714,4,2,0,40,0,0
135570,-90.9090909090909,4,2,0,40,0,0
138497,-86.9565217391305,4,2,0,40,0,0
140235,-86.9565217391305,4,2,0,5,0,0
140326,-86.9565217391305,4,2,0,40,0,0
156789,-100,4,2,0,40,0,0
157155,-80,4,2,0,40,0,0
157521,-66.6666666666667,4,2,0,40,0,0
158070,-86.9565217391305,4,2,0,40,0,0
166119,-200,4,2,0,40,0,0
171241,-86.9565217391305,4,2,0,40,0,0
174350,-133.333333333333,4,2,0,40,0,0
177460,-83.3333333333333,4,2,0,40,0,0
182399,-125,4,2,0,40,0,0
184137,-133.333333333333,4,2,0,5,0,0
184228,-125,4,2,0,40,0,0
184503,-125,4,2,0,5,0,0
184594,-125,4,2,0,40,0,0
189533,-76.9230769230769,4,2,0,40,0,0
190631,-76.9230769230769,4,2,0,40,0,1
206546,-83.3333333333333,4,2,0,40,0,1
210936,-66.6666666666667,4,2,0,40,0,1
214046,-66.6666666666667,4,2,0,40,0,0
216972,-76.9230769230769,4,2,0,40,0,0
225113,-76.9230769230769,4,2,0,5,0,0
225204,-76.9230769230769,4,2,0,40,0,0
225296,-76.9230769230769,4,2,0,5,0,0
225387,-76.9230769230769,4,2,0,40,0,0
235997,-133.333333333333,4,2,0,40,0,0
238924,-100,4,2,0,40,0,0
244594,-83.3333333333333,4,2,0,40,0,0
245509,-86.9565217391305,4,2,0,40,0,0
246515,-86.9565217391305,4,2,0,5,0,0
246607,-86.9565217391305,4,2,0,40,0,0
246881,-86.9565217391305,4,2,0,5,0,0
246972,-86.9565217391305,4,2,0,40,0,0
255387,-80,4,2,0,40,0,0
255661,-80,4,2,0,5,0,0
255753,-71.4285714285714,4,2,0,40,0,0
256027,-71.4285714285714,4,2,0,5,0,0
256119,-71.4285714285714,4,2,0,40,0,0
257582,-83.3333333333333,4,2,0,40,0,0
258222,-83.3333333333333,4,2,0,5,0,0
258314,-83.3333333333333,4,2,0,40,0,0
259411,-83.3333333333333,4,2,0,80,0,0
259777,-83.3333333333333,4,2,0,70,0,0
259960,-83.3333333333333,4,2,0,60,0,0
260692,-76.9230769230769,4,2,0,50,0,0
260875,-76.9230769230769,4,2,0,50,0,1
262338,-66.6666666666667,4,2,0,50,0,1
264899,-76.9230769230769,4,2,0,50,0,1
268009,-66.6666666666667,4,2,0,50,0,1
268924,-76.9230769230769,4,2,0,50,0,1
269930,-76.9230769230769,4,2,0,5,0,1
270021,-76.9230769230769,4,2,0,50,0,1
270296,-76.9230769230769,4,2,0,5,0,1
270387,-76.9230769230769,4,2,0,50,0,1
279076,-76.9230769230769,4,2,0,5,0,1
279168,-76.9230769230769,4,2,0,50,0,1
280997,-90.9090909090909,4,2,0,50,0,1
287216,-100,4,2,0,30,0,0
295997,-100,4,2,0,25,0,0
302674,-100,4,2,0,5,0,0
302765,-100,4,2,0,25,0,0

[HitObjects]
256,192,20875,12,0,23436,0:0:0:0:
162,234,26363,6,0,P|128:225|96:212,1,70
192,120,26729,5,0,0:0:0:0:
192,120,26911,1,0,0:0:0:0:
264,244,27094,1,0,0:0:0:0:
352,96,27277,5,0,0:0:0:0:
352,96,27460,1,0,0:0:0:0:
196,268,27643,1,0,0:0:0:0:
408,204,27826,5,0,0:0:0:0:
408,204,28009,1,0,0:0:0:0:
196,268,28192,2,0,P|128:288|112:304,1,70
120,296,28558,1,0,0:0:0:0:
288,328,28741,2,0,P|360:340|384:336,1,70
400,240,29107,1,0,0:0:0:0:
364,156,29289,2,0,P|340:104|308:80,1,70
248,156,29655,5,0,0:0:0:0:
112,136,29838,1,0,0:0:0:0:
196,264,30021,1,0,0:0:0:0:
192,80,30204,5,0,0:0:0:0:
96,224,30387,1,0,0:0:0:0:
280,208,30570,1,0,0:0:0:0:
84,308,30753,5,0,0:0:0:0:
84,308,30936,1,0,0:0:0:0:
240,160,31119,2,0,P|296:144|320:136,1,70
307,140,31485,1,0,0:0:0:0:
280,256,31668,2,0,L|208:280,1,70
213,278,32033,1,0,0:0:0:0:
200,144,32216,2,0,P|132:140|100:144,1,70
52,216,32582,5,0,0:0:0:0:
200,312,32765,1,0,0:0:0:0:
316,248,32948,2,0,P|360:280|392:316,1,70
376,296,33314,1,0,0:0:0:0:
456,204,33497,2,0,P|464:152|468:104,1,70
465,134,33863,1,0,0:0:0:0:
352,152,34046,2,0,P|320:104|288:72,1,70
208,136,34411,2,0,L|132:140,1,70
80,240,34777,5,0,0:0:0:0:
264,232,34960,1,0,0:0:0:0:
264,232,35052,1,0,0:0:0:0:
264,232,35143,1,0,0:0:0:0:
160,348,35326,1,0,0:0:0:0:
144,180,35509,6,0,P|160:136|208:96,1,80.5000015354157
276,56,35875,1,0,0:0:0:0:
248,272,36058,1,0,0:0:0:0:
248,272,36241,1,0,0:0:0:0:
400,136,36424,1,0,0:0:0:0:
248,272,36607,1,0,0:0:0:0:
400,136,36789,1,0,0:0:0:0:
408,256,36972,6,0,P|392:320|356:352,1,80.5000015354157
248,272,37338,1,0,0:0:0:0:
312,168,37521,2,0,P|252:148|196:144,1,80.5000015354157
120,136,37887,1,0,0:0:0:0:
48,256,38070,2,0,P|72:296|112:328,1,80.5000015354157
204,248,38436,6,0,L|292:212,1,90.9999958343508
440,144,38802,1,0,0:0:0:0:
272,76,38985,2,0,L|168:52,1,90.9999958343508
80,192,39350,1,0,0:0:0:0:
80,192,39533,2,0,L|-12:248,1,90.9999958343508
228,296,39899,2,0,L|312:352,2,90.9999958343508
344,232,40448,1,0,0:0:0:0:
344,232,40631,2,0,L|456:252,1,90.9999958343508
328,116,40997,2,0,L|232:80,1,90.9999958343508
120,148,41363,6,0,L|72:232,1,90.9999958343508
224,336,41729,1,0,0:0:0:0:
360,180,41911,1,0,0:0:0:0:
112,180,42094,1,0,0:0:0:0:
336,308,42277,1,0,0:0:0:0:
244,112,42460,1,0,0:0:0:0:
136,320,42643,1,0,0:0:0:0:
360,180,42826,6,0,L|472:140,2,90.9999958343508
156,136,43375,1,0,0:0:0:0:
148,136,43466,1,0,0:0:0:0:
140,136,43558,2,0,L|32:128,1,90.9999958343508
84,268,43924,1,0,0:0:0:0:
268,72,44107,1,0,0:0:0:0:
224,288,44289,6,0,L|324:348,1,90.9999958343508
428,260,44655,1,0,0:0:0:0:
346,118,44838,2,0,L|268:72,1,90.9999958343508
248,164,45204,1,0,0:0:0:0:
240,168,45296,1,0,0:0:0:0:
232,172,45387,2,0,L|140:216,1,90.9999958343508
68,196,45753,2,0,P|40:244|32:284,2,90.9999958343508
160,160,46302,5,0,0:0:0:0:
392,152,46485,1,0,0:0:0:0:
192,308,46668,1,0,0:0:0:0:
272,72,46850,1,0,0:0:0:0:
360,312,47033,1,0,0:0:0:0:
160,160,47216,6,0,P|192:188|244:208,1,90.9999958343508
264,108,47582,1,0,0:0:0:0:
376,200,47765,2,0,P|364:264|336:308,1,90.9999958343508
192,288,48131,1,0,0:0:0:0:
260,108,48314,1,0,0:0:0:0:
192,288,48497,1,0,0:0:0:0:
76,144,48680,5,0,0:0:0:0:
192,288,48863,1,0,0:0:0:0:
260,108,49046,1,0,0:0:0:0:
72,144,49229,1,0,0:0:0:0:
192,288,49411,6,0,B|292:344|292:240|400:288,1,210.000008010865
152,140,50509,5,0,0:0:0:0:
316,192,50875,2,0,P|376:200|412:196,2,80.5000015354157
344,72,51424,1,0,0:0:0:0:
184,72,51607,1,0,0:0:0:0:
264,224,51789,1,0,0:0:0:0:
344,72,51972,1,0,0:0:0:0:
184,72,52155,6,0,P|136:96|112:120,1,80.5000015354157
248,152,52521,2,0,P|304:188|324:208,1,80.5000015354157
172,232,52887,2,0,P|136:272|80:368,1,161.000003070831
240,320,53436,1,0,0:0:0:0:
340,216,53619,5,0,0:0:0:0:
340,216,53710,1,0,0:0:0:0:
340,216,53802,1,0,0:0:0:0:
420,104,53985,2,0,P|340:84|312:80,1,80.5000015354157
176,160,54350,2,0,P|112:200|84:224,2,80.5000015354157
176,160,54899,1,0,0:0:0:0:
224,312,55082,1,0,0:0:0:0:
224,312,55174,1,0,0:0:0:0:
224,312,55265,1,0,0:0:0:0:
360,196,55448,5,0,0:0:0:0:
224,312,55631,1,0,0:0:0:0:
360,196,55814,1,0,0:0:0:0:
388,348,55997,1,0,0:0:0:0:
200,184,56363,5,0,0:0:0:0:
272,96,56729,2,0,P|220:72|172:56,2,80.5000015354157
364,192,57277,2,0,L|452:212,1,80.5000015354157
496,304,57643,1,0,0:0:0:0:
440,112,57826,1,0,0:0:0:0:
364,192,58009,2,0,P|328:256|316:272,1,80.5000015354157
240,196,58375,2,0,P|184:216|160:232,1,80.5000015354157
224,288,58741,2,0,P|152:312|92:224,1,161.000003070831
156,112,59289,5,0,0:0:0:0:
280,80,59472,2,0,L|384:100,1,80.5000015354157
452,200,59838,2,0,L|396:276,1,80.5000015354157
312,220,60204,1,0,0:0:0:0:
296,216,60296,1,0,0:0:0:0:
280,212,60387,2,0,L|196:188,1,80.5000015354157
68,208,60753,1,0,0:0:0:0:
124,288,60936,2,0,P|184:324|228:320,2,80.5000015354157
200,184,61485,5,0,0:0:0:0:
200,160,61576,1,0,0:0:0:0:
200,140,61668,1,0,0:0:0:0:
200,116,61759,1,0,0:0:0:0:
200,96,61850,1,0,0:0:0:0:
384,76,62399,5,0,0:0:0:0:
292,128,62582,2,0,P|352:184|368:188,2,80.5000015354157
464,168,63131,2,0,P|440:240|420:272,1,80.5000015354157
304,300,63497,1,0,0:0:0:0:
300,96,63680,1,0,0:0:0:0:
192,144,63863,2,0,P|116:172|88:188,1,80.5000015354157
184,260,64228,2,0,P|152:308|112:352,1,80.5000015354157
56,260,64594,1,0,0:0:0:0:
52,120,64777,6,0,P|88:56|112:36,1,80.5000015354157
200,36,65143,1,0,0:0:0:0:
304,164,65326,1,0,0:0:0:0:
304,164,65509,1,0,0:0:0:0:
200,36,65692,1,0,0:0:0:0:
192,168,65875,2,0,P|220:208|252:228,1,80.5000015354157
320,268,66241,1,0,0:0:0:0:
400,296,66424,2,0,P|456:324|488:360,1,80.5000015354157
368,376,66789,1,0,0:0:0:0:
276,304,66972,6,0,L|180:336,1,90.9999958343508
152,128,67704,6,0,P|88:180|92:252,1,161.000003070831
160,208,68253,2,0,P|248:244|388:216,1,241.500004606247
328,160,68985,2,0,P|408:136|472:256,1,241.500004606247
404,292,69716,2,0,B|332:288|336:360|232:340,1,161.000003070831
243,348,70265,1,0,0:0:0:0:
68,172,70448,5,0,0:0:0:0:
68,172,70539,1,0,0:0:0:0:
68,172,70631,1,0,0:0:0:0:
288,192,70814,1,0,0:0:0:0:
96,308,70997,1,0,0:0:0:0:
220,96,71180,1,0,0:0:0:0:
100,308,71363,1,0,0:0:0:0:
224,100,71546,1,0,0:0:0:0:
328,260,71728,5,0,0:0:0:0:
328,260,71820,1,0,0:0:0:0:
328,260,71911,1,0,0:0:0:0:
232,112,72094,1,0,0:0:0:0:
440,100,72277,1,0,0:0:0:0:
232,112,72460,1,0,0:0:0:0:
400,260,72643,1,0,0:0:0:0:
352,68,72826,5,0,0:0:0:0:
236,264,73009,1,0,0:0:0:0:
444,172,73192,1,0,0:0:0:0:
216,76,73375,1,0,0:0:0:0:
128,172,73558,6,0,L|68:248,1,80.5000015354157
208,232,73924,2,0,L|192:324,1,80.5000015354157
324,216,74289,2,0,L|344:320,1,80.5000015354157
432,160,74655,1,0,0:0:0:0:
332,88,74838,2,0,L|224:140,1,105.000004005432
212,142,75296,2,0,L|180:186,1,52.5000020027161
284,224,75570,2,0,P|216:288|184:292,2,105.000004005432
284,224,76119,1,0,0:0:0:0:
128,208,76302,6,0,P|76:216|32:252,3,90.9999958343508
132,304,77033,2,0,P|192:356|240:364,1,90.9999958343508
392,264,77399,1,0,0:0:0:0:
292,188,77582,2,0,P|316:136|344:112,1,90.9999958343508
168,88,77948,2,0,L|64:56,1,90.9999958343508
168,252,78314,2,0,L|284:296,1,90.9999958343508
320,56,78680,5,0,0:0:0:0:
180,159,78863,1,0,0:0:0:0:
368,216,79046,1,0,0:0:0:0:
208,84,79228,2,0,L|100:72,1,90.9999958343508
260,196,79594,1,0,0:0:0:0:
260,196,79777,1,0,0:0:0:0:
312,288,79960,2,0,L|432:312,1,90.9999958343508
388,168,80326,2,0,L|276:144,1,90.9999958343508
204,256,80692,6,0,P|144:240|104:240,1,70
60,312,81058,2,0,P|112:348|144:356,1,70
117,350,81424,2,0,P|204:360|284:348,1,140
368,288,81972,5,0,0:0:0:0:
372,256,82064,1,0,0:0:0:0:
344,268,82155,2,0,P|309:267|216:216,1,140
152,184,82704,2,0,P|212:148|236:152,1,70
352,168,83070,1,0,0:0:0:0:
216,56,83253,1,0,0:0:0:0:
216,56,83344,1,0,0:0:0:0:
216,56,83436,1,0,0:0:0:0:
352,168,83619,5,0,0:0:0:0:
488,32,83802,1,0,0:0:0:0:
216,56,83985,1,0,0:0:0:0:
352,168,84168,1,0,0:0:0:0:
220,60,84350,1,0,0:0:0:0:
484,32,84533,6,0,P|472:88|448:132,2,90.9999958343508
168,100,85082,2,0,P|84:80|64:80,1,90.9999958343508
344,284,85448,2,0,P|428:304|448:304,1,90.9999958343508
144,80,85814,2,0,P|60:60|40:60,1,90.9999958343508
376,320,86180,2,0,P|460:340|480:340,1,90.9999958343508
328,104,86546,6,0,L|424:76,1,90.9999958343508
204,296,86911,2,0,L|108:324,1,90.9999958343508
356,80,87277,2,0,L|452:52,1,90.9999958343508
176,324,87643,2,0,L|80:352,1,90.9999958343508
360,84,88009,5,0,0:0:0:0:
360,84,88192,1,0,0:0:0:0:
180,316,88375,1,0,0:0:0:0:
168,60,88558,5,0,0:0:0:0:
292,324,88741,1,0,0:0:0:0:
112,140,88924,1,0,0:0:0:0:
380,268,89107,1,0,0:0:0:0:
268,40,89289,1,0,0:0:0:0:
116,236,89472,1,0,0:0:0:0:
404,168,89655,5,0,0:0:0:0:
268,40,89838,1,0,0:0:0:0:
160,268,90021,6,0,P|248:304|172:252,1,262.500010013581
196,252,91119,1,0,0:0:0:0:
196,252,91210,1,0,0:0:0:0:
196,252,91302,1,0,0:0:0:0:
280,152,91485,2,0,L|360:92,1,90.9999958343508
476,60,91850,1,0,0:0:0:0:
388,204,92033,1,0,0:0:0:0:
288,64,92216,1,0,0:0:0:0:
192,60,92399,6,0,P|112:76|80:88,1,90.9999958343508
164,288,92765,1,0,0:0:0:0:
40,212,92948,1,0,0:0:0:0:
200,176,93131,2,0,P|280:159|311:148,1,90.9999958343508,0|0,0:3|0:3,0:3:0:0:
360,256,93497,1,0,0:3:0:0:
204,120,93680,1,0,0:0:0:0:
128,320,93863,5,0,0:0:0:0:
124,332,93954,1,0,0:0:0:0:
120,344,94046,1,0,0:0:0:0:
204,120,94228,1,0,0:0:0:0:
288,324,94411,1,0,0:0:0:0:
288,324,94594,1,0,0:0:0:0:
92,228,94777,1,0,0:0:0:0:
280,204,94960,1,0,0:0:0:0:
124,336,95143,1,0,0:0:0:0:
252,216,95326,5,0,0:0:0:0:
264,204,95418,1,0,0:0:0:0:
272,192,95509,2,0,L|344:112,1,97.9999970092774
196,80,95875,1,0,0:0:0:0:
368,228,96058,1,0,0:0:0:0:
368,228,96149,1,0,0:0:0:0:
368,228,96241,1,0,0:0:0:0:
288,56,96424,1,0,0:0:0:0:
188,288,96607,1,0,0:0:0:0:
56,168,96789,5,0,0:0:0:0:
32,292,96972,1,0,0:0:0:0:
172,76,97155,1,0,0:0:0:0:
192,308,97338,1,0,0:0:0:0:
172,76,97521,1,0,0:0:0:0:
68,208,97704,1,0,0:0:0:0:
304,116,97887,1,0,0:0:0:0:
220,272,98070,1,0,0:0:0:0:
156,108,98253,5,0,0:0:0:0:
156,108,98344,1,0,0:0:0:0:
156,108,98436,2,0,L|64:168,1,97.9999970092774
212,280,98802,2,0,L|308:300,1,97.9999970092774
428,232,99168,1,0,0:0:0:0:
320,152,99350,2,0,P|244:112|200:104,1,97.9999970092774
152,64,99716,5,0,0:0:0:0:
400,112,99899,1,0,0:0:0:0:
108,176,100082,1,0,0:0:0:0:
424,192,100265,1,0,0:0:0:0:
48,304,100448,1,0,0:0:0:0:
460,308,100631,5,0,0:0:0:0:
48,304,100814,1,0,0:0:0:0:
424,192,100997,1,0,0:0:0:0:
108,176,101180,1,0,0:0:0:0:
384,68,101363,1,0,0:0:0:0:
152,64,101546,1,0,0:0:0:0:
112,144,101728,5,0,0:0:0:0:
104,156,101820,1,0,0:0:0:0:
96,168,101911,1,0,0:0:0:0:
88,180,102003,1,0,0:0:0:0:
188,216,102094,5,0,0:0:0:0:
196,236,102186,1,0,0:0:0:0:
208,256,102277,1,0,0:0:0:0:
224,276,102369,1,0,0:0:0:0:
240,292,102460,1,0,0:0:0:0:
264,308,102552,1,0,0:0:0:0:
292,320,102643,1,0,0:0:0:0:
324,328,102735,1,0,0:0:0:0:
356,340,102826,6,0,P|412:352|472:352,1,97.9999970092774
432,232,103192,2,0,P|372:184|328:160,1,97.9999970092774
160,92,103558,2,0,P|88:152|64:176,1,97.9999970092774
36,264,103924,1,0,0:0:0:0:
216,236,104107,6,0,P|280:256|320:280,1,97.9999970092774
384,352,104472,1,0,0:0:0:0:
440,172,104655,1,0,0:0:0:0:
304,176,104838,2,0,P|306:110|334:55,1,97.9999970092774
372,4,105204,1,0,0:0:0:0:
440,172,105387,1,0,0:0:0:0:
164,176,105570,5,0,0:0:0:0:
164,176,105661,1,0,0:0:0:0:
164,176,105753,1,0,0:0:0:0:
88,340,105936,1,0,0:0:0:0:
300,252,106119,1,0,0:0:0:0:
168,180,106302,1,0,0:0:0:0:
272,332,106485,6,0,P|340:344|376:340,2,97.9999970092774
108,164,107033,2,0,P|156:108|188:88,1,83.9999974365235
400,32,107399,2,0,P|440:64|468:96,1,83.9999974365235
380,216,107765,2,0,P|360:268|352:320,1,83.9999974365235
164,300,108131,2,0,P|68:284|52:272,1,83.9999974365235
128,176,108497,1,0,0:0:0:0:
128,176,108588,1,0,0:0:0:0:
128,176,108680,1,0,0:0:0:0:
296,244,108863,5,0,0:0:0:0:
232,84,109046,1,0,0:0:0:0:
296,244,109228,1,0,0:0:0:0:
408,100,109411,1,0,0:0:0:0:
116,212,109594,1,0,0:0:0:0:
408,100,109777,1,0,0:0:0:0:
176,272,109960,6,0,P|84:296|72:304,1,83.9999974365235
16,336,110326,1,0,0:0:0:0:
56,144,110509,1,0,0:0:0:0:
16,336,110692,1,0,0:0:0:0:
264,128,110875,1,0,0:0:0:0:
264,128,110966,1,0,0:0:0:0:
264,128,111058,1,0,0:0:0:0:
400,248,111241,1,0,0:0:0:0:
276,248,111424,6,0,P|220:276|188:300,1,83.9999974365235
132,88,111789,2,0,P|188:60|220:36,1,83.9999974365235
288,112,112155,2,0,P|316:167|340:199,1,83.9999974365235
128,255,112520,2,0,P|100:199|75:167,1,83.9999974365235
208,180,112887,1,0,0:0:0:0:
400,96,113070,1,0,0:0:0:0:
400,96,113161,1,0,0:0:0:0:
400,96,113253,1,0,0:0:0:0:
360,328,113436,5,0,0:0:0:0:
256,40,113619,1,0,0:0:0:0:
164,336,113802,1,0,0:0:0:0:
428,192,113985,1,0,0:0:0:0:
96,192,114168,1,0,0:0:0:0:
96,192,114259,1,0,0:0:0:0:
96,192,114350,1,0,0:0:0:0:
256,192,114533,5,0,0:0:0:0:
256,192,114716,12,0,117460,0:0:0:0:
328,112,120387,5,0,0:0:0:0:
216,304,120570,1,0,0:0:0:0:
328,112,120753,1,0,0:0:0:0:
88,116,120936,5,0,0:0:0:0:
328,112,121119,1,0,0:0:0:0:
92,120,121302,1,0,0:0:0:0:
216,304,121485,1,0,0:0:0:0:
92,120,121668,1,0,0:0:0:0:
280,176,121850,6,0,P|372:172|400:176,1,97.9999970092774
464,208,122216,1,0,0:0:0:0:
240,340,122399,2,0,P|148:344|120:340,1,97.9999970092774
60,304,122765,1,0,0:0:0:0:
188,156,122948,1,0,0:0:0:0:
60,304,123131,1,0,0:0:0:0:
252,248,123314,5,0,0:0:0:0:
324,64,123497,1,0,0:0:0:0:
112,108,123680,1,0,0:0:0:0:
252,248,123863,5,0,0:0:0:0:
212,40,124046,1,0,0:0:0:0:
160,244,124228,1,0,0:0:0:0:
356,192,124411,1,0,0:0:0:0:
160,244,124594,1,0,0:0:0:0:
376,124,124777,5,0,0:0:0:0:
72,128,124960,1,0,0:0:0:0:
304,332,125143,1,0,0:0:0:0:
72,128,125326,1,0,0:0:0:0:
464,264,125509,5,0,0:0:0:0:
468,268,125692,1,0,0:0:0:0:
344,152,125875,5,0,0:0:0:0:
340,164,125966,1,0,0:0:0:0:
336,176,126058,1,0,0:0:0:0:
332,188,126149,1,0,0:0:0:0:
328,200,126241,1,0,0:0:0:0:
132,248,126607,5,0,0:0:0:0:
56,148,126972,6,0,P|104:104|140:76,2,97.9999970092774
252,172,127521,2,0,P|324:164|372:172,1,97.9999970092774
440,256,127887,1,0,0:0:0:0:
352,168,128070,1,0,0:0:0:0:
232,304,128253,2,0,P|144:284|112:272,1,97.9999970092774
192,176,128619,2,0,P|164:128|128:92,1,97.9999970092774
76,172,128985,2,0,P|16:216|-76:324,1,195.999994018555
72,328,129533,1,0,0:0:0:0:
256,192,129716,5,0,0:0:0:0:
256,192,129808,1,0,0:0:0:0:
256,192,129899,1,0,0:0:0:0:
336,88,130082,2,0,L|436:104,1,97.9999970092774
384,252,130448,1,0,0:0:0:0:
436,104,130631,1,0,0:0:0:0:
360,328,130814,1,0,0:0:0:0:
440,104,130997,1,0,0:0:0:0:
240,160,131180,5,0,0:0:0:0:
240,160,131271,1,0,0:0:0:0:
240,160,131363,1,0,0:0:0:0:
84,268,131546,1,0,0:0:0:0:
40,132,131728,5,0,0:0:0:0:
56,128,131820,1,0,0:0:0:0:
68,124,131911,1,0,0:0:0:0:
80,120,132003,1,0,0:0:0:0:
92,120,132094,2,0,P|160:112|196:112,1,97.9999970092774
160,216,132460,2,0,P|256:248|292:252,1,97.9999970092774
292,148,132826,5,0,0:0:0:0:
488,152,133009,1,0,0:0:0:0:
340,264,133192,1,0,0:0:0:0:
388,68,133375,1,0,0:0:0:0:
484,264,133558,1,0,0:0:0:0:
292,148,133741,1,0,0:0:0:0:
488,148,133924,1,0,0:0:0:0:
340,264,134107,6,0,P|292:296|240:316,1,97.9999970092774
208,176,134472,2,0,P|159:173|110:179,1,97.9999970092774
96,320,134838,1,0,0:0:0:0:
208,176,135021,1,0,0:0:0:0:
260,328,135204,1,0,0:0:0:0:
84,180,135387,1,0,0:0:0:0:
424,88,135570,6,0,P|352:56|328:52,1,77.0000023498536
240,132,135936,2,0,P|224:172|220:208,1,77.0000023498536
384,244,136302,2,0,P|460:276|484:280,2,77.0000023498536
240,132,136850,1,0,0:0:0:0:
164,52,137033,2,0,L|100:96,1,77.0000023498536
32,168,137399,1,0,0:0:0:0:
216,308,137582,5,0,0:0:0:0:
254,304,137673,1,0,0:0:0:0:
292,300,137764,1,0,0:0:0:0:
330,296,137856,1,0,0:0:0:0:
369,292,137947,1,0,0:0:0:0:
372,292,138497,5,0,0:0:0:0:
355,157,138680,2,0,P|267:109|218:172,1,161.000003070831
288,176,139228,2,0,B|272:232|280:336|224:336|188:288|188:248|244:232,1,241.500004606247
234,235,139960,2,0,B|294:203|322:270|382:226,1,120.750002303124
363,279,140326,2,0,P|418:314|440:239,1,161.000003070831
373,128,140875,6,0,P|309:87|278:74,2,80.5000015354157
256,182,141424,2,0,B|188:146|166:207|95:162,1,161.000003070831
187,90,141972,2,0,B|144:157|222:162|178:243,1,161.000003070831
178,242,142521,1,0,0:0:0:0:
348,179,142704,1,0,0:0:0:0:
276,336,142887,1,0,0:0:0:0:
352,184,143070,5,0,0:0:0:0:
352,184,143161,1,0,0:0:0:0:
352,184,143253,1,0,0:0:0:0:
276,336,143436,1,0,0:0:0:0:
168,200,143619,1,0,0:0:0:0:
124,280,143802,6,0,P|72:268|40:256,1,80.5000015354157
120,88,144168,1,0,0:0:0:0:
248,208,144350,1,0,0:0:0:0:
248,208,144533,1,0,0:0:0:0:
304,48,144716,1,0,0:0:0:0:
120,88,144899,1,0,0:0:0:0:
252,204,145082,6,0,P|304:228|336:236,1,80.5000015354157
456,164,145448,1,0,0:0:0:0:
288,72,145631,2,0,P|212:72|176:80,1,80.5000015354157
180,244,145997,2,0,P|144:272|104:288,1,80.5000015354157
84,128,146363,1,0,0:0:0:0:
268,156,146546,1,0,0:0:0:0:
268,156,146728,1,0,0:0:0:0:
424,244,146911,1,0,0:0:0:0:
296,272,147094,6,0,P|232:304|200:328,1,80.5000015354157
120,352,147460,1,0,0:0:0:0:
92,152,147643,2,0,P|88:84|80:48,1,80.5000015354157
80,64,148009,1,0,0:0:0:0:
4,208,148192,5,0,0:0:0:0:
4,208,148283,1,0,0:0:0:0:
4,208,148375,1,0,0:0:0:0:
348,184,148558,1,0,0:0:0:0:
128,224,148741,1,0,0:0:0:0:
340,320,148924,1,0,0:0:0:0:
220,136,149107,1,0,0:0:0:0:
200,336,149289,1,0,0:0:0:0:
352,184,149472,5,0,0:0:0:0:
344,80,149655,2,0,P|308:56|252:48,1,80.5000015354157
160,52,150021,1,0,0:0:0:0:
112,168,150204,2,0,P|64:136|40:104,2,80.5000015354157
220,224,150753,1,0,0:0:0:0:
360,136,150936,1,0,0:0:0:0:
360,136,151027,1,0,0:0:0:0:
360,136,151119,1,0,0:0:0:0:
376,312,151302,5,0,0:0:0:0:
220,224,151485,1,0,0:0:0:0:
376,312,151668,1,0,0:0:0:0:
360,136,151850,1,0,0:0:0:0:
224,88,152033,2,0,L|160:120|136:132,1,80.5000015354157
64,236,152399,2,0,P|88:296|112:320,2,80.5000015354157
56,132,152948,1,0,0:0:0:0:
204,156,153131,2,0,P|312:176|320:176,1,80.5000015354157
400,104,153497,1,0,0:0:0:0:
408,240,153680,6,0,L|412:328,1,80.5000015354157
196,268,154046,6,0,P|128:292|112:304,1,80.5000015354157
164,160,154411,2,0,P|112:132|92:124,1,80.5000015354157
396,200,154777,1,0,0:0:0:0:
400,48,154960,1,0,0:0:0:0:
252,104,155143,1,0,0:0:0:0:
396,204,155326,6,0,P|384:284|380:292,1,80.5000015354157
264,224,155692,2,0,P|224:232|168:248,1,80.5000015354157
100,156,156058,2,0,P|28:208|16:232,2,80.5000015354157
216,140,156607,1,0,0:0:0:0:
84,40,156789,6,0,L|-8:56,1,70
384,184,157155,6,0,L|492:200,1,87.5
124,312,157521,6,0,B|60:388|-24:344|0:312|28:240|76:328,1,210.000008010865
136,224,158070,5,0,0:0:0:0:
152,208,158161,1,0,0:0:0:0:
168,192,158253,2,0,P|248:140|316:132,1,161.000003070831
288,236,158802,2,0,P|340:280|356:288,1,80.5000015354157
424,176,159168,1,0,0:0:0:0:
216,112,159350,1,0,0:0:0:0:
216,112,159442,1,0,0:0:0:0:
216,112,159533,1,0,0:0:0:0:
424,176,159716,1,0,0:0:0:0:
364,0,159899,5,0,0:0:0:0:
424,176,160082,1,0,0:0:0:0:
364,0,160265,1,0,0:0:0:0:
220,116,160448,1,0,0:0:0:0:
424,176,160631,6,0,P|384:244|368:264,1,80.5000015354157
376,252,160997,1,0,0:0:0:0:
136,64,161180,6,0,L|32:68,1,80.5000015354157
376,320,161546,2,0,L|480:316,1,80.5000015354157
112,48,161911,2,0,L|8:52,1,80.5000015354157
408,344,162277,2,0,L|512:340,1,80.5000015354157
444,140,162643,6,0,P|404:72|376:52,1,80.5000015354157
72,240,163009,2,0,P|112:308|140:328,1,80.5000015354157
208,16,163375,2,0,P|171:23|140:48,1,80.5000015354157
312,348,163741,2,0,P|349:333|380:308,1,80.5000015354157
348,76,164107,5,0,0:0:0:0:
92,188,164289,5,0,0:0:0:0:
420,200,164472,1,0,0:0:0:0:
132,72,164655,5,0,0:0:0:0:
392,312,164838,1,0,0:0:0:0:
260,32,165021,5,0,0:0:0:0:
264,352,165204,1,0,0:0:0:0:
392,76,165387,5,0,0:0:0:0:
124,308,165570,1,0,0:0:0:0:
316,320,166119,6,0,B|386:307|467:281|444:252|364:192|372:282,1,210
132,148,167948,5,0,0:0:0:0:
376,252,168680,5,0,0:0:0:0:
352,56,169411,5,0,0:0:0:0:
160,280,170143,5,0,0:0:0:0:
396,216,170875,5,0,0:0:0:0:
80,88,171241,5,0,0:0:0:0:
48,168,171424,2,0,P|72:212|92:240,1,80.5000015354157
89,236,171698,1,0,0:0:0:0:
96,244,171789,1,0,0:0:0:0:
224,188,171972,1,0,0:0:0:0:
328,344,172155,5,0,0:0:0:0:
136,232,172338,1,0,0:0:0:0:
352,216,172521,5,0,0:0:0:0:
184,352,172704,1,0,0:0:0:0:
240,156,172887,5,0,0:0:0:0:
332,344,173070,1,0,0:0:0:0:
380,124,173802,5,0,0:0:0:0:
88,136,174168,5,0,0:0:0:0:
88,136,174350,2,0,P|128:184|220:216,1,157.500006008148
220,184,175082,2,0,B|264:184|284:144|284:144|296:240|384:312,1,262.500010013581
436,160,176728,5,0,0:0:0:0:
196,68,177094,5,0,0:0:0:0:
88,176,177277,5,0,0:0:0:0:
88,176,177460,2,0,P|140:232|248:228,1,167.999994873047
224,160,178009,2,0,B|248:168|272:176|316:196|356:164|360:72,1,167.999994873047
204,64,178558,2,0,L|308:108,1,83.9999974365235
372,208,178924,5,0,0:0:0:0:
76,296,179289,1,0,0:0:0:0:
354,255,179655,5,0,0:0:0:0:
48,210,180020,1,0,0:0:0:0:
318,291,180387,5,0,0:3:0:0:
60,120,180752,1,0,0:3:0:0:
270,307,181119,5,0,0:3:0:0:
108,43,181302,1,0,0:3:0:0:
416,120,181485,1,0,0:0:0:0:
88,264,181668,1,0,0:0:0:0:
436,280,181850,5,0,0:0:0:0:
288,108,182399,5,0,0:0:0:0:
288,108,182582,2,0,P|232:156|180:176,1,112
140,128,183131,2,0,P|132:140|216:236,1,168
228,240,183863,2,0,P|308:268|328:268,1,84
336,280,184228,2,0,P|420:276|440:288,1,84
440,240,184594,1,0,0:0:0:0:
436,228,184686,1,0,0:0:0:0:
432,216,184777,2,0,P|396:176|384:168,1,56
252,168,185143,2,0,P|260:124|276:104,1,56
412,72,185509,6,0,L|484:96,2,56
136,208,186058,1,0,0:0:0:0:
224,48,186241,1,0,0:0:0:0:
344,204,186424,1,0,0:0:0:0:
116,96,186607,1,0,0:0:0:0:
324,88,186789,1,0,0:0:0:0:
224,212,186972,2,0,P|184:236|160:256,1,56
64,304,187338,1,0,0:0:0:0:
248,296,187521,5,0,0:0:0:0:
264,300,187613,1,0,0:0:0:0:
288,304,187704,2,0,P|348:304|456:264,1,168
372,192,188436,2,0,B|352:110|267:67,1,168
252,60,189076,1,0,0:0:0:0:
236,56,189168,1,0,0:0:0:0:
12,344,189350,5,0,0:0:0:0:
76,136,189533,6,0,P|148:88|140:140,1,181.999991668702
172,248,190082,2,0,P|240:288|344:248,1,181.999991668702
468,136,190631,1,0,0:0:0:0:
472,128,190722,1,0,0:0:0:0:
476,120,190814,1,0,0:0:0:0:
328,76,190997,2,0,P|256:52|236:48,1,90.9999958343508
64,160,191363,1,0,0:0:0:0:
241,48,191546,1,0,0:0:0:0:
224,224,191728,5,0,0:0:0:0:
100,284,191911,2,0,P|68:340|40:372,2,90.9999958343508
192,104,192460,1,0,0:0:0:0:
375,143,192643,2,0,P|408:88|436:56,2,90.9999958343508
320,280,193192,1,0,0:0:0:0:
236,140,193375,5,0,0:0:0:0:
240,128,193466,1,0,0:0:0:0:
244,116,193558,1,0,0:0:0:0:
360,12,193741,1,0,0:0:0:0:
420,220,193924,1,0,0:0:0:0:
420,220,194107,1,0,0:0:0:0:
244,48,194289,1,0,0:0:0:0:
420,220,194472,1,0,0:0:0:0:
96,104,194655,5,0,0:0:0:0:
44,224,194838,2,0,P|24:292|16:348,1,90.9999958343508
16,324,195113,1,0,0:0:0:0:
12,336,195204,1,0,0:0:0:0:
224,272,195387,1,0,0:0:0:0:
304,336,195570,2,0,P|348:328|376:264,1,90.9999958343508
380,280,195844,1,0,0:0:0:0:
384,264,195936,1,0,0:0:0:0:
264,148,196119,5,0,0:0:0:0:
136,92,196302,5,0,0:0:0:0:
124,104,196393,1,0,0:0:0:0:
112,116,196485,2,0,P|52:172|32:192,1,90.9999958343508
188,288,196850,2,0,P|236:332|280:348,1,90.9999958343508
428,280,197216,1,0,0:0:0:0:
244,128,197399,1,0,0:0:0:0:
259,342,197582,1,0,0:0:0:0:
456,96,197765,6,0,L|368:152,1,90.9999958343508
296,196,198131,1,0,0:0:0:0:
64,136,198314,1,0,0:0:0:0:
64,136,198497,2,0,L|152:204,1,90.9999958343508
232,252,198863,1,0,0:0:0:0:
296,196,199046,2,0,P|348:220|384:252,1,90.9999958343508
444,284,199411,1,0,0:0:0:0:
420,116,199594,1,0,0:0:0:0:
324,312,199777,5,0,0:0:0:0:
412,96,199960,1,0,0:0:0:0:
456,300,200143,5,0,0:0:0:0:
404,80,200326,1,0,0:0:0:0:
312,320,200509,5,0,0:0:0:0:
392,60,200692,1,0,0:0:0:0:
472,336,200875,5,0,0:0:0:0:
468,320,200966,1,0,0:0:0:0:
452,300,201058,1,0,0:0:0:0:
436,292,201149,1,0,0:0:0:0:
416,304,201241,1,0,0:0:0:0:
408,332,201332,1,0,0:0:0:0:
436,352,201424,5,0,0:0:0:0:
472,336,201515,1,0,0:0:0:0:
476,284,201607,1,0,0:0:0:0:
448,240,201698,1,0,0:0:0:0:
404,216,201789,1,0,0:0:0:0:
360,208,201881,1,0,0:0:0:0:
300,208,201972,1,0,0:0:0:0:
244,216,202064,1,0,0:0:0:0:
148,236,202155,5,0,0:0:0:0:
116,244,202247,1,0,0:0:0:0:
88,256,202338,1,0,0:0:0:0:
8,320,202521,1,0,0:0:0:0:
8,320,202704,1,0,0:0:0:0:
180,76,202887,1,0,0:0:0:0:
220,344,203070,1,0,0:0:0:0:
220,344,203253,1,0,0:0:0:0:
180,76,203436,1,0,0:0:0:0:
92,204,203619,5,0,0:0:0:0:
92,204,203802,2,0,P|40:260|24:280,1,90.9999958343508
184,288,204168,2,0,P|292:304|300:300,1,90.9999958343508
412,224,204533,1,0,0:0:0:0:
220,152,204716,1,0,0:0:0:0:
428,80,204899,5,0,0:0:0:0:
256,264,205082,1,0,0:0:0:0:
304,48,205265,5,0,0:0:0:0:
408,264,205448,1,0,0:0:0:0:
220,152,205631,5,0,0:0:0:0:
220,152,205722,1,0,0:0:0:0:
220,152,205814,1,0,0:0:0:0:
440,160,205997,2,0,P|424:228|412:260,1,90.9999958343508
360,328,206363,1,0,0:0:0:0:
232,336,206546,6,0,P|132:332|112:328,1,83.9999974365235
280,48,206911,2,0,P|380:52|400:56,1,83.9999974365235
400,216,207277,2,0,P|400:261|396:300,1,83.9999974365235
112,167,207643,2,0,P|108:120|112:80,1,83.9999974365235
400,216,208009,1,0,0:0:0:0:
400,216,208100,1,0,0:0:0:0:
400,216,208192,1,0,0:0:0:0:
200,64,208375,5,0,0:0:0:0:
136,168,208558,2,0,P|100:224|80:268,1,83.9999974365235
392,156,208924,1,0,0:0:0:0:
96,240,209107,1,0,0:0:0:0:
452,128,209289,1,0,0:0:0:0:
264,328,209472,5,0,0:0:0:0:
264,328,209655,1,0,0:0:0:0:
348,52,209838,5,0,0:0:0:0:
92,320,210021,1,0,0:0:0:0:
432,180,210204,1,0,0:0:0:0:
92,184,210387,1,0,0:0:0:0:
92,184,210478,1,0,0:0:0:0:
92,184,210570,1,0,0:0:0:0:
428,180,210753,1,0,0:0:0:0:
464,272,210936,6,0,P|432:332|388:356,1,105.000004005432
98,349,211302,2,0,P|56:295|52:245,1,105.000004005432
48,112,211668,2,0,P|80:52|124:28,1,105.000004005432
413,34,212034,2,0,P|455:88|459:138,1,105.000004005432
92,220,212399,5,0,0:0:0:0:
408,192,212582,1,0,0:0:0:0:
408,192,212674,1,0,0:0:0:0:
408,192,212765,1,0,0:0:0:0:
96,224,212948,1,0,0:0:0:0:
204,76,213131,5,0,0:0:0:0:
204,76,213222,1,0,0:0:0:0:
204,76,213314,1,0,0:0:0:0:
280,348,213497,1,0,0:0:0:0:
256,192,213680,1,0,0:0:0:0:
256,192,213863,1,0,0:0:0:0:
256,192,214046,12,0,215509,0:0:0:0:
104,144,216972,5,0,0:0:0:0:
296,296,217155,1,0,0:0:0:0:
228,76,217338,5,0,0:0:0:0:
140,292,217521,1,0,0:0:0:0:
356,168,217704,5,0,0:0:0:0:
104,144,217887,1,0,0:0:0:0:
296,296,218070,5,0,0:0:0:0:
228,76,218253,1,0,0:0:0:0:
140,292,218436,5,0,0:0:0:0:
140,292,218619,2,0,P|68:324|40:328,1,90.9999958343508
56,156,218985,2,0,P|84:104|108:64,1,90.9999958343508
260,124,219350,1,0,0:0:0:0:
384,196,219533,2,0,P|440:224|480:236,1,90.9999958343508
412,68,219899,5,0,0:0:0:0:
412,68,220082,1,0,0:0:0:0:
292,288,220265,1,0,0:0:0:0:
292,60,220448,5,0,0:0:0:0:
292,60,220631,1,0,0:0:0:0:
408,288,220814,1,0,0:0:0:0:
208,176,220997,5,0,0:0:0:0:
208,176,221180,1,0,0:0:0:0:
68,232,221363,2,0,P|56:288|52:332,1,90.9999958343508
52,332,221637,1,0,0:0:0:0:
52,344,221728,1,0,0:0:0:0:
212,288,221911,2,0,P|296:320|328:324,1,90.9999958343508
336,200,222277,1,0,0:0:0:0:
424,96,222460,6,0,L|516:64,1,90.9999958343508
228,48,222826,2,0,P|164:68|132:88,1,90.9999958343508
143,79,223192,1,0,0:0:0:0:
332,300,223375,2,0,P|400:336|424:344,1,90.9999958343508
413,340,223741,1,0,0:0:0:0:
336,68,223924,1,0,0:0:0:0:
252,268,224107,1,0,0:0:0:0:
376,168,224289,2,0,L|256:196,1,90.9999958343508
160,224,224655,5,0,0:0:0:0:
160,224,224838,1,0,0:0:0:0:
88,104,225021,6,0,L|48:168,1,45.4999979171754
424,280,225204,6,0,L|464:216,1,45.4999979171754
360,112,225387,1,0,0:0:0:0:
314,112,225478,1,0,0:0:0:0:
270,124,225569,1,0,0:0:0:0:
230,146,225661,1,0,0:0:0:0:
197,176,225752,1,0,0:0:0:0:
124,256,225936,6,0,P|84:304|56:368,1,90.9999958343508
220,312,226302,1,0,0:0:0:0:
328,308,226485,2,0,P|392:308|428:304,1,90.9999958343508
376,76,226850,2,0,P|432:128|448:148,1,90.9999958343508
332,240,227216,2,0,L|224:216,1,90.9999958343508
236,220,227491,1,0,0:0:0:0:
228,220,227582,1,0,0:0:0:0:
132,284,227765,6,0,P|72:252|52:236,1,90.9999958343508
236,56,228131,1,0,0:0:0:0:
244,56,228314,2,0,L|356:52,1,90.9999958343508
420,160,228680,5,0,0:0:0:0:
244,232,228863,1,0,0:0:0:0:
444,232,229046,1,0,0:0:0:0:
284,320,229228,1,0,0:0:0:0:
300,124,229411,1,0,0:0:0:0:
424,312,229594,1,0,0:0:0:0:
356,88,229777,1,0,0:0:0:0:
112,240,229960,1,0,0:0:0:0:
276,172,230143,6,0,P|324:204|356:232,1,90.9999958343508
356,232,230418,1,0,0:0:0:0:
364,240,230509,1,0,0:0:0:0:
240,276,230692,2,0,P|168:300|144:304,1,90.9999958343508
48,204,231058,1,0,0:0:0:0:
176,128,231241,2,0,P|216:100|260:76,1,90.9999958343508
368,68,231607,5,0,0:0:0:0:
456,112,231789,1,0,0:0:0:0:
276,168,231972,1,0,0:0:0:0:
452,188,232155,1,0,0:0:0:0:
304,56,232338,1,0,0:0:0:0:
368,216,232521,1,0,0:0:0:0:
368,216,232704,2,0,L|392:332,1,90.9999958343508
248,356,233070,1,0,0:0:0:0:
180,208,233253,5,0,0:0:0:0:
128,320,233436,1,0,0:0:0:0:
64,164,233619,1,0,0:0:0:0:
160,120,233802,2,0,P|228:100|264:96,1,90.9999958343508
360,92,234168,1,0,0:0:0:0:
292,256,234350,1,0,0:0:0:0:
436,192,234533,5,0,0:0:0:0:
212,188,234716,1,0,0:0:0:0:
412,316,234899,1,0,0:0:0:0:
324,100,235082,1,0,0:0:0:0:
236,324,235265,1,0,0:0:0:0:
436,192,235448,1,0,0:0:0:0:
212,188,235631,1,0,0:0:0:0:
412,316,235814,1,0,0:0:0:0:
185,110,235997,6,0,P|143:141|120:188,1,105.000004005432
208,184,236546,2,0,B|314:125|370:249|474:169,1,262.500010013581
424,264,237826,1,0,0:0:0:0:
144,304,238009,1,0,0:0:0:0:
144,304,238192,1,0,0:0:0:0:
420,332,238558,5,0,0:0:0:0:
148,208,238741,1,0,0:0:0:0:
276,136,238924,2,0,P|320:132|364:136,2,70
48,264,239472,1,0,0:0:0:0:
388,348,239655,1,0,0:0:0:0:
240,108,239838,1,0,0:0:0:0:
120,352,240021,5,0,0:0:0:0:
412,204,240204,1,0,0:0:0:0:
104,160,240387,1,0,0:0:0:0:
388,348,240753,5,0,0:0:0:0:
332,104,240936,1,0,0:0:0:0:
332,104,241119,1,0,0:0:0:0:
244,360,241302,5,0,0:0:0:0:
332,104,241485,1,0,0:0:0:0:
332,104,241668,1,0,0:0:0:0:
168,328,241850,2,0,P|112:300|92:280,1,70
28,176,242216,1,0,0:0:0:0:
144,184,242399,2,0,P|200:184|232:172,1,70
180,80,242765,1,0,0:0:0:0:
316,80,242948,5,0,0:0:0:0:
351,80,243039,1,0,0:0:0:0:
386,80,243130,1,0,0:0:0:0:
421,80,243222,1,0,0:0:0:0:
456,80,243313,1,0,0:0:0:0:
432,188,243863,6,0,L|348:240,1,70
272,288,244228,1,0,0:0:0:0:
200,120,244411,1,0,0:0:0:0:
114,277,244594,2,0,P|52:285|100:244,1,167.999994873047
240,124,245143,1,0,0:0:0:0:
240,124,245326,1,0,0:0:0:0:
336,184,245509,2,0,L|440:164,1,80.5000015354157
404,264,245875,2,0,L|488:272,1,80.5000015354157
252,292,246241,6,0,B|200:332|200:332|128:304,1,120.750002303124
108,328,246607,2,0,B|60:196,1,120.750002303124
80,160,246972,2,0,B|96:124|80:88|80:88|144:120|188:108,1,161.000003070831
344,176,247521,1,0,0:0:0:0:
424,32,247704,1,0,0:0:0:0:
348,176,248070,5,0,0:0:0:0:
424,32,248253,1,0,0:0:0:0:
344,176,248619,5,0,0:0:0:0:
424,32,248802,1,0,0:0:0:0:
272,320,248985,1,0,0:0:0:0:
148,320,249168,6,0,B|120:320|96:328|96:328|100:272|76:208,1,161.000003070831
60,116,249716,1,0,0:0:0:0:
296,140,249899,5,0,0:0:0:0:
192,68,250265,1,0,0:0:0:0:
288,216,250448,1,0,0:0:0:0:
460,60,250631,1,0,0:0:0:0:
160,188,250997,5,0,0:0:0:0:
428,152,251180,1,0,0:0:0:0:
160,188,251546,1,0,0:0:0:0:
340,312,251728,1,0,0:0:0:0:
288,108,251911,1,0,0:0:0:0:
284,96,252003,1,0,0:0:0:0:
280,84,252094,1,0,0:0:0:0:
192,316,252460,5,0,0:0:0:0:
436,204,252643,1,0,0:0:0:0:
436,204,252826,1,0,0:0:0:0:
192,316,253009,1,0,0:0:0:0:
288,96,253192,1,0,0:0:0:0:
356,352,253375,1,0,0:0:0:0:
188,224,253558,6,0,P|132:232|120:260,1,80.5000015354157
72,328,253924,1,0,0:0:0:0:
56,128,254107,1,0,0:0:0:0:
56,128,254198,1,0,0:0:0:0:
56,128,254289,1,0,0:0:0:0:
216,184,254472,5,0,0:0:0:0:
136,60,254655,1,0,0:0:0:0:
136,236,254838,1,0,0:0:0:0:
272,88,255021,1,0,0:0:0:0:
420,220,255387,6,0,B|348:184|284:260,1,131.25
287,257,255753,2,0,P|285:315|248:272,1,146.999995513916
216,260,256119,2,0,P|196:192|192:52,1,195.999994018555
308,36,256850,5,0,0:0:0:0:
304,280,257033,1,0,0:0:0:0:
480,148,257216,1,0,0:0:0:0:
184,124,257399,1,0,0:0:0:0:
436,204,257582,2,0,P|444:272|268:348,1,293.999991027832
172,300,258314,2,0,L|16:184,1,167.999994873047
320,56,258863,5,0,0:0:0:0:
156,144,259046,1,0,0:0:0:0:
380,356,259228,1,0,0:0:0:0:
360,180,259411,5,0,0:0:0:0:
104,272,259777,1,0,0:0:0:0:
328,144,259960,1,0,0:0:0:0:
32,188,260509,5,0,0:0:0:0:
292,296,260692,5,0,0:0:0:0:
312,304,260783,1,0,0:0:0:0:
332,312,260875,2,0,P|384:332|444:340,1,90.9999958343508
456,192,261241,2,0,L|464:88,1,90.9999958343508
248,56,261607,1,0,0:0:0:0:
344,224,261789,1,0,0:0:0:0:
404,48,261972,5,0,0:0:0:0:
56,136,262155,1,0,0:0:0:0:
200,116,262338,2,0,B|272:100|272:100|264:136|300:168,1,105.000004005432
272,140,262613,1,0,0:0:0:0:
272,148,262704,1,0,0:0:0:0:
140,252,262887,2,0,B|88:281|88:281|172:292|275:324,1,210.000008010865
388,352,263436,1,0,0:0:0:0:
432,184,263619,5,0,0:0:0:0:
424,172,263710,1,0,0:0:0:0:
416,160,263802,1,0,0:0:0:0:
128,216,263985,1,0,0:0:0:0:
312,108,264168,2,0,P|363:96|415:92,1,105.000004005432
92,128,264533,1,0,0:0:0:0:
404,288,264716,1,0,0:0:0:0:
184,80,264899,6,0,L|208:192,1,90.9999958343508
112,268,265265,2,0,B|92:292|84:320|84:320|124:340|212:316,1,181.999991668702
248,212,265814,2,0,B|320:168|340:268|440:200,1,181.999991668702
480,128,266363,1,0,0:0:0:0:
272,92,266546,5,0,0:0:0:0:
256,92,266637,1,0,0:0:0:0:
240,92,266728,1,0,0:0:0:0:
8,208,266911,1,0,0:0:0:0:
168,312,267094,1,0,0:0:0:0:
100,88,267277,1,0,0:0:0:0:
220,160,267460,2,0,P|264:200|280:232,1,90.9999958343508
160,344,267826,1,0,0:0:0:0:
464,160,268009,6,0,B|412:36|412:36|364:140,1,210.000008010865
372,132,268466,1,0,0:0:0:0:
364,156,268558,1,0,0:0:0:0:
312,296,268741,1,0,0:0:0:0:
220,216,268924,2,0,P|176:228|216:232,1,90.9999958343508
48,72,269289,2,0,P|16:116|-4:84,1,90.9999958343508
176,112,269655,6,0,P|232:88|316:92,1,136.499993751526
316,108,270021,2,0,B|284:192|284:192|340:240,1,136.499993751526
360,200,270387,2,0,B|405:232|405:232|346:259|296:307,1,181.999991668702
192,356,270936,1,0,0:0:0:0:
36,244,271119,5,0,0:0:0:0:
320,212,271302,1,0,0:0:0:0:
48,136,271485,5,0,0:0:0:0:
308,168,271668,1,0,0:0:0:0:
100,40,271850,5,0,0:0:0:0:
316,144,272033,1,0,0:0:0:0:
232,36,272216,5,0,0:0:0:0:
277,34,272307,1,0,0:0:0:0:
322,38,272398,1,0,0:0:0:0:
366,49,272490,1,0,0:0:0:0:
404,72,272582,2,0,P|452:104|488:156,1,90.9999958343508
392,220,272948,2,0,P|352:264|332:296,1,90.9999958343508
200,300,273314,5,0,0:0:0:0:
76,176,273497,1,0,0:0:0:0:
100,308,273680,1,0,0:0:0:0:
252,140,273863,1,0,0:0:0:0:
76,176,274046,2,0,B|116:116|152:96,1,90.9999958343508
144,96,274320,1,0,0:0:0:0:
160,88,274411,1,0,0:0:0:0:
328,68,274594,1,0,0:0:0:0:
432,204,274777,5,0,0:0:0:0:
272,164,274960,1,0,0:0:0:0:
432,84,275143,1,0,0:0:0:0:
372,264,275326,5,0,0:0:0:0:
224,124,275509,1,0,0:0:0:0:
120,312,275692,1,0,0:0:0:0:
120,312,275875,1,0,0:0:0:0:
224,128,276058,5,0,0:0:0:0:
292,312,276241,1,0,0:0:0:0:
80,176,276424,5,0,0:0:0:0:
236,336,276607,1,0,0:0:0:0:
376,148,276789,1,0,0:0:0:0:
200,36,276972,2,0,P|156:72|120:104,1,90.9999958343508
80,176,277338,1,0,0:0:0:0:
264,212,277521,5,0,0:0:0:0:
264,212,277613,1,0,0:0:0:0:
264,212,277704,1,0,0:0:0:0:
336,56,277887,5,0,0:0:0:0:
400,220,278070,1,0,0:0:0:0:
192,100,278253,1,0,0:0:0:0:
192,100,278436,1,0,0:0:0:0:
444,128,278619,5,0,0:0:0:0:
264,232,278802,6,0,P|172:256|128:264,1,136.499993751526
128,284,279168,2,0,B|104:332|104:332|20:192,1,181.999991668702
172,96,279716,1,0,0:0:0:0:
172,96,279808,1,0,0:0:0:0:
172,96,279899,1,0,0:0:0:0:
388,160,280082,5,0,0:0:0:0:
260,48,280265,1,0,0:0:0:0:
316,232,280448,1,0,0:0:0:0:
356,36,280631,5,0,0:0:0:0:
248,232,280814,1,0,0:0:0:0:
192,148,280997,6,0,B|120:124|120:196|32:152,1,154.000004699707
44,157,281454,1,0,0:0:0:0:
44,157,281546,1,0,0:0:0:0:
92,68,281728,1,0,0:0:0:0:
92,68,281911,1,0,0:0:0:0:
108,304,282094,5,0,0:0:0:0:
108,304,282186,1,0,0:0:0:0:
108,304,282277,1,0,0:0:0:0:
408,192,282460,1,0,0:0:0:0:
152,352,282643,1,0,0:0:0:0:
432,300,282826,1,0,0:0:0:0:
172,236,283009,1,0,0:0:0:0:
316,336,283192,5,0,0:0:0:0:
336,96,283375,1,0,0:0:0:0:
104,264,283558,1,0,0:0:0:0:
440,256,283741,1,0,0:0:0:0:
36,28,283924,5,0,0:0:0:0:
256,192,284107,5,0,0:0:0:0:
256,192,284198,1,0,0:0:0:0:
256,192,284289,1,0,0:0:0:0:
256,192,284381,12,0,287033,0:0:0:0:
396,148,287216,6,0,P|328:128|308:124,1,70
200,112,287582,1,0,0:0:0:0:
120,180,287765,2,0,P|84:232|76:252,1,70
296,240,288131,1,0,0:0:0:0:
200,112,288314,1,0,0:0:0:0:
81,237,288497,1,0,0:0:0:0:
296,240,288680,6,0,P|336:276|368:300,1,70
456,336,289046,1,0,0:0:0:0:
267,70,289228,2,0,P|292:93|320:116,1,70
416,244,289594,1,0,0:0:0:0:
396,240,289777,2,0,L|304:224,1,70
160,152,290143,5,0,0:0:0:0:
248,276,290326,1,0,0:0:0:0:
272,108,290509,1,0,0:0:0:0:
76,248,290692,1,0,0:0:0:0:
140,324,290875,2,0,P|208:344|236:344,1,70
328,352,291241,2,0,L|404:360,1,70
408,188,291607,6,0,P|396:124|380:104,1,70
304,48,291972,1,0,0:0:0:0:
268,180,292155,2,0,B|224:184|168:168,1,70
184,52,292521,1,0,0:0:0:0:
92,128,292704,2,0,L|60:192,1,70
196,272,293070,5,0,0:0:0:0:
356,336,293253,1,0,0:0:0:0:
308,176,293436,1,0,0:0:0:0:
224,360,293619,1,0,0:0:0:0:
180,168,293802,5,0,0:0:0:0:
404,232,293985,1,0,0:0:0:0:
256,80,294168,1,0,0:0:0:0:
296,288,294350,1,0,0:0:0:0:
112,204,294533,5,0,0:0:0:0:
400,204,294716,1,0,0:0:0:0:
48,212,294899,1,0,0:0:0:0:
464,196,295082,1,0,0:0:0:0:
456,184,295174,1,0,0:0:0:0:
448,172,295265,1,0,0:0:0:0:
440,164,295357,1,0,0:0:0:0:
432,152,295448,1,0,0:0:0:0:
304,96,295631,6,0,L|224:120,1,70
120,304,295997,1,0,0:0:0:0:
80,84,296180,5,0,0:0:0:0:
236,116,296363,2,0,L|316:164,1,70
448,224,296728,1,0,0:0:0:0:
240,280,296911,1,0,0:0:0:0:
336,84,297094,1,0,0:0:0:0:
388,320,297277,1,0,0:0:0:0:
200,128,297460,5,0,0:0:0:0:
200,128,297643,1,0,0:0:0:0:
248,224,297826,2,0,P|192:252|160:256,1,70
40,248,298192,1,0,0:0:0:0:
40,248,298375,1,0,0:0:0:0:
4,324,298558,2,0,P|64:352|88:356,1,70
308,332,298924,6,0,L|384:312,1,70
208,236,299289,2,0,L|132:216,1,70
360,172,299655,1,0,0:0:0:0:
168,92,299838,1,0,0:0:0:0:
240,264,300021,1,0,0:0:0:0:
352,68,300204,1,0,0:0:0:0:
132,216,300387,5,0,0:0:0:0:
132,216,300570,1,0,0:0:0:0:
392,148,300753,5,0,0:0:0:0:
392,148,300936,1,0,0:0:0:0:
432,248,301119,2,0,P|392:292|352:308,1,70
296,344,301485,2,0,L|220:368,1,70
80,264,301850,5,0,0:0:0:0:
300,216,302033,1,0,0:0:0:0:
76,180,302216,5,0,0:0:0:0:
280,296,302399,1,0,0:0:0:0:
152,112,302582,6,0,L|120:80,1,35
120,80,302765,1,0,0:0:0:0:
144,296,302948,5,0,0:0:0:0:
272,72,303131,1,0,0:0:0:0:
376,300,303314,5,0,0:0:0:0:
180,168,303497,1,0,0:0:0:0:
240,328,303680,5,0,0:0:0:0:
72,244,303863,1,0,0:0:0:0:
316,76,304046,5,0,0:0:0:0:
324,336,304228,1,0,0:0:0:0:
244,68,304411,5,0,0:0:0:0:
324,332,304594,1,0,0:0:0:0:
176,168,304777,6,0,P|120:164|76:152,1,70
32,88,305143,1,0,0:0:0:0:
372,136,305326,5,0,0:0:0:0:
48,52,305509,1,0,0:0:0:0:
316,160,305692,5,0,0:0:0:0:
324,168,305783,1,0,0:0:0:0:
332,176,305875,1,0,0:0:0:0:
108,336,306058,1,0,0:0:0:0:
340,184,306241,5,0,0:0:0:0:
56,176,306424,1,0,0:0:0:0:
284,336,306607,1,0,0:0:0:0:
192,68,306789,1,0,0:0:0:0:
108,336,306972,1,0,0:0:0:0:
332,176,307155,5,0,0:0:0:0:
56,176,307338,1,0,0:0:0:0:
284,336,307521,1,0,0:0:0:0:
192,68,307704,1,0,0:0:0:0:
380,248,308436,5,0,0:0:0:0:
88,228,309168,5,0,0:0:0:0:
304,112,309899,5,0,0:0:0:0:
220,312,310631,5,0,0:0:0:0:
368,308,311363,6,0,P|412:304|488:244,1,140
368,224,312094,2,0,P|412:192|432:108,1,140
308,140,312826,2,0,P|236:136|168:148,1,140
84,276,313558,5,0,0:0:0:0:
420,252,313924,1,0,0:0:0:0:
112,168,314289,5,0,0:0:0:0:
328,320,314655,1,0,0:0:0:0:
312,112,315021,5,0,0:0:0:0:
176,320,315387,1,0,0:0:0:0:
256,112,315753,5,0,0:0:0:0:
324,288,315936,1,0,0:0:0:0:
164,192,316119,1,0,0:0:0:0:
352,188,316302,1,0,0:0:0:0:
208,288,316485,5,0,0:0:0:0:
400,272,316850,5,0,0:0:0:0:
64,336,317216,1,0,0:0:0:0:
136,140,317582,5,0,0:0:0:0:
272,272,317765,1,0,0:0:0:0:
244,112,317948,1,0,0:0:0:0:
220,296,318131,1,0,0:0:0:0:
368,192,318314,5,0,0:0:0:0:
184,208,318497,1,0,0:0:0:0:
368,192,318680,1,0,0:0:0:0:
12,240,318863,5,0,0:0:0:0:
20,104,319046,1,0,0:0:0:0:
32,352,319228,1,0,0:0:0:0:
24,100,319411,1,0,0:0:0:0:
256,192,319594,12,0,322338,0:0:0:0:
