osu file format v9

[General]
AudioFilename: 19 (TV Size).mp3
AudioLeadIn: 2000
PreviewTime: 56208
Countdown: 0
SampleSet: Soft
StackLeniency: 0.4
Mode: 0
LetterboxInBreaks: 0

[Editor]
DistanceSpacing: 0.9
BeatDivisor: 2
GridSize: 4

[Metadata]
Title:Rokutousei no Yoru (TV Size)
Artist:Aimer
Creator:S h i o n
Version:Insane
Source:No.6
Tags:boys love yaoi ending husky voice original soundtrack OST bones Kiiwa

[Difficulty]
HPDrainRate:6
CircleSize:5
OverallDifficulty:6
ApproachRate:7
SliderMultiplier:1.3
SliderTickRate:1

[Events]
//Background and Video events
0,0,"2.jpg"
Video,7550,"No6ED.flv"
//Break Periods
//Storyboard Layer 0 (Background)
//Storyboard Layer 1 (Fail)
//Storyboard Layer 2 (Pass)
//Storyboard Layer 3 (Foreground)
//Storyboard Sound Samples
//Background Colour Transformations
3,100,163,162,255

[TimingPoints]
795,416.666666666667,4,2,1,25,1,0
8920,-100,4,2,1,30,0,0
9545,-100,4,2,1,35,0,0
10586,-100,4,2,1,40,0,0
12253,-133.333333333333,4,2,1,30,0,0
13086,-100,4,2,1,30,0,0
14024,-100,4,2,1,20,0,0
14336,-100,4,2,1,30,0,0
26003,-100,4,2,1,20,0,0
26420,-100,4,2,1,25,0,0
27253,-100,4,2,1,20,0,0
29753,-100,4,2,1,30,0,0
32149,-100,4,2,1,25,0,0
35170,-100,4,2,1,15,0,0
35586,-100,4,2,1,25,0,0
36003,-100,4,2,1,15,0,0
36420,-100,4,2,1,30,0,0
36836,-100,4,2,1,15,0,0
37253,-100,4,2,1,30,0,0
38086,-100,4,2,1,20,0,0
38503,-100,4,2,1,15,0,0
38920,-100,4,2,1,20,0,0
39336,-100,4,2,1,15,0,0
39649,-100,4,2,1,20,0,0
39822,-100,4,2,1,25,0,0
40170,-100,4,2,1,30,0,0
42357,-100,4,2,1,15,0,0
42878,-100,4,2,1,20,0,0
43399,-100,4,2,1,25,0,0
44440,-100,4,2,1,30,0,0
45170,-100,4,2,1,20,0,0
46420,-100,4,2,1,25,0,0
47357,-100,4,2,1,30,0,0
47774,-100,4,2,1,35,0,0
47982,-100,4,2,1,40,0,0
50586,-100,4,2,1,35,0,0
51003,-100,4,2,1,20,0,0
51420,-100,4,2,1,30,0,0
51732,-100,4,2,1,35,0,0
51940,-100,4,2,1,40,0,0
52357,-100,4,2,1,45,0,0
52739,-100,4,2,1,50,0,0
53989,-100,4,1,1,40,0,0
54406,-100,4,1,0,55,0,0
56420,-100,4,1,0,45,0,0
56628,-100,4,1,0,40,0,0
56836,-100,4,1,0,35,0,0
57461,-100,4,2,1,70,0,1
59232,-100,4,2,1,60,0,1
59753,-100,4,2,1,70,0,1
61940,-100,4,2,1,65,0,1
63190,-100,4,2,1,70,0,1
77357,-100,4,2,1,55,0,1
77774,-100,4,2,1,70,0,1
78190,-100,4,2,1,60,0,1
78607,-100,4,2,1,70,0,1
79024,-100,4,2,1,65,0,1
79440,-100,4,2,1,70,0,1
80482,-100,4,2,1,80,0,1
81003,-100,4,2,1,85,0,1
81420,-100,4,2,1,90,0,1
84128,-100,4,2,1,5,0,0

[Colours]
Combo1 : 255,159,113
Combo2 : 240,193,249
Combo3 : 218,218,254
SliderBorder : 191,191,191

[HitObjects]
168,128,795,1,2
320,104,1628,2,0,B|376:96|392:48,2,65,0|0|2
240,120,2461,1,2
88,168,2878,2,0,B|88:218|120:250,1,65,2|0
328,320,3711,2,0,B|280:272|272:200,1,130,0|2
136,272,4961,6,0,B|160:296|208:304,2,65,0|0|2
80,216,5795,1,2
232,208,6211,2,0,B|272:192|320:192,1,65,0|2
472,48,7045,2,0,B|376:72|352:128,1,130,0|2
288,248,8295,6,0,B|268:280|232:288,2,65,0|0|2
408,152,9128,1,2
192,56,9753,1,2
192,272,10378,1,0
56,192,10795,5,2
280,128,11420,1,2
232,360,12045,1,0
304,296,12461,6,0,B|352:256|348:188,1,97.4999970942737
360,136,13295,1,2
336,104,13503,1,0
312,72,13711,2,0,B|296:32|328:8,2,65,2|0|4
256,192,14544,5,2
256,192,14961,2,0,B|288:260|256:328,1,130,0|2
216,322,15586,2,0,B|168:248|79:286|48:202,1,195,2|0
56,219,16419,2,0,B|113:194|145:114|221:114,1,195,2|2
256,108,17253,1,0
292,120,17461,1,2
472,112,18295,5,0
400,216,18711,1,2
280,176,19128,2,0,B|208:200|184:280,1,130
232,312,19753,2,0,B|168:264|96:280,1,130,2|0
72,280,20378,1,0
36,292,20586,1,0
56,352,20795,6,0,B|136:344|192:280,1,130,2|0
200,272,21420,1,0
224,240,21628,1,0
344,108,22045,2,0,B|412:141|411:245,1,130,2|0
236,52,22878,2,0,B|167:85|168:189,1,130,2|0
132,268,23711,5,2
96,248,23920,1,0
72,216,24128,2,0,B|20:164|44:84,1,130
136,168,24961,2,0,B|188:204|268:208,1,130,0|0
464,296,25795,5,0
380,216,26211,1,2
480,156,26628,1,0
460,124,26836,1,0
432,96,27045,1,2
324,52,27461,6,0,B|256:28|196:52,1,130,4|0
80,72,28295,2,0,B|112:140|212:152,1,130,2|0
240,152,28920,1,2
416,220,29545,2,0,B|336:234|288:276,1,130,2|0
420,68,30378,2,0,B|344:68|288:36,1,130,2|2
356,140,31211,2,0,B|352:224|404:308,1,130,0|2
452,172,32045,5,2
440,136,32253,1,0
424,100,32461,2,0,B|380:72|380:72|332:84|288:60,1,130,2|2
304,68,33086,2,0,B|202:144|162:8|226:0|255:25|255:32,1,195,0|2
255,32,33920,1,0
255,32,34128,1,2
404,212,34545,5,0
316,292,34961,2,0,B|260:272|208:208,1,130,2|0
160,320,35795,2,0,B|124:256|120:184,1,130,2|0
44,284,36628,2,0,B|12:220|44:148,1,130,2|0
264,92,37461,6,0,B|344:96|408:164,1,130,2|0
320,40,38295,2,0,B|248:20|192:56,1,130,0|0
76,56,39128,2,0,B|116:108|188:120,1,130
220,168,39753,1,0
272,192,39961,2,0,B|224:236|124:232,1,130
68,20,40794,6,0,B|88:104|168:120,1,130,4|0
169,60,41419,2,0,B|237:108|305:100,1,130,2|0
320,56,42045,2,0,B|368:96|368:96|360:136|344:160,1,130,2|0
296,268,43086,5,0
320,300,43294,1,2
356,312,43503,1,0
393,299,43711,1,0
428,268,43919,1,0
452,240,44128,2,0,B|508:200|456:108,1,130,4|0
444,88,44753,2,0,B|362:-54|293:114|392:103|390:67,1,195,0|2
340,300,46211,5,2
272,80,46628,2,0,B|336:72|424:28,1,130,2|0
432,28,47253,1,2
428,68,47461,2,0,B|416:136|356:180,1,130,4|2
392,200,48086,2,0,B|340:240|264:244,1,130,0|2
232,244,48711,2,0,B|193:246|164:228,2,65,0|0|2
40,104,49544,6,0,B|168:132,1,130,2|0
144,80,50169,1,0
128,24,50378,2,0,B|231:111,1,130,2|4
296,28,51211,2,0,B|336:84|336:84|316:124|336:152,1,130,2|0
330,181,51836,1,0
354,213,52044,1,2
390,225,52253,1,0
424,208,52461,1,4
472,68,52878,6,0,B|412:24|352:72,1,130,2|0
352,110,53503,2,0,B|272:120|260:41,1,130
260,42,54128,1,4
52,140,54544,6,0,B|136:140|136:228,1,130,0|0
177,259,55169,1,0
218,300,55378,2,0,B|258:332|258:332|336:320|354:332,1,130,0|0
396,324,56003,1,0
444,224,56211,6,0,B|456:256|480:264,2,43.3333333333333
428,188,56628,1,0
420,152,56767,1,0
420,112,56906,1,0
428,72,57045,1,0
256,40,57461,6,0,B|196:40|196:40|164:60|128:64,1,130,4|0
88,21,58086,1,2
172,100,58294,2,0,B|236:152|296:152,1,130,8|0
347,151,58919,1,2
320,204,59128,2,0,B|293:248|304:280,1,65,0|8
344,312,59544,1,0
404,144,59961,6,0,B|370:105|297:67,1,130,8|0
180,272,60794,2,0,B|213:233|286:195,1,130,2|0
340,180,61419,1,0
308,68,61628,2,0,B|384:104|404:176,1,130,8|4
336,272,62461,6,0,B|304:296|256:296,1,65,2|0
208,296,62878,1,0
336,273,63295,1,8
296,232,63503,1,8
292,172,63711,1,2
200,56,64128,6,0,B|151:118|104:140,1,130,4|0
256,316,64961,2,0,B|249:236|161:220,1,130,8|0
120,212,65586,1,0
60,204,65794,1,2
256,76,66211,6,0,B|303:60|325:27,1,65,0|0
392,132,66628,2,0,B|440:156|456:176,1,65,8|0
332,196,67044,2,0,B|296:168|248:168,1,65,0|2
160,200,67461,6,0,B|240:208|280:248,1,130,4|0
212,332,68086,2,0,B|284:328|356:276,1,130,4|2
392,272,68711,2,0,B|432:280|448:312,2,65,8|0|0
348,84,69544,6,0,B|368:128|420:136,1,65
488,200,69961,2,0,B|468:252|424:252,1,65,8|8
392,268,70378,2,0,B|348:272,2,43.3333333333333
412,164,70794,6,0,B|372:104|288:104,1,130,4|2
76,36,71628,2,0,B|116:100|192:108,1,130,8|0
240,104,72253,1,0
296,96,72461,2,0,B|356:64|436:104,1,130,2|2
340,316,73294,6,0,B|308:288|264:320,1,65,8|0
216,312,73711,2,0,B|160:280|160:176,1,130,0|0
152,136,74336,1,2
176,72,74545,2,0,B|216:56|248:16,1,65
360,88,74961,2,0,B|328:52|284:36,1,65,12|2
252,152,75378,6,0,B|280:216|356:240,1,130,8|0
460,264,76003,1,8
384,324,76211,1,0
345,236,76420,1,0
368,120,76628,6,0,B|320:67|240:96,1,130,10|0
196,116,77253,1,0
80,112,77461,2,0,B|116:168|204:180,1,130,12|2
408,260,78294,2,0,B|352:228|380:128,1,130,4|0
400,88,78920,1,0
296,40,79128,6,0,B|328:120|248:160,1,130,12|2
444,300,79961,2,0,B|368:256|280:288,1,130,4|0
204,296,80586,2,0,B|160:292|144:264,1,65,0|4
44,60,81211,5,8
147,268,81628,1,8
200,168,82045,5,2
240,128,82253,1,0
256,184,82461,2,0,B|264:236|297:271|344:260,1,130,4|0
400,248,83086,1,0
440,208,83295,2,0,B|509:128|426:94|409:165|437:130|438:164,1,130,0|0
256,192,84128,12,0,87461
