osu file format v14

[General]
AudioFilename: Aimer - Brave Shine.mp3
AudioLeadIn: 2000
PreviewTime: 55376
Countdown: 0
SampleSet: Soft
StackLeniency: 0.7
Mode: 0
LetterboxInBreaks: 0
WidescreenStoryboard: 0

[Editor]
DistanceSpacing: 0.9
BeatDivisor: 4
GridSize: 4
TimelineZoom: 1.7

[Metadata]
Title:Brave Shine (TV size)
TitleUnicode:Brave Shine (TV size)
Artist:Aimer
ArtistUnicode:Aimer
Creator:Saut
Version:Normal
Source:Fate/stay night [Unlimited Blade Works]
Tags:エメ eme aimerrhythm 2nd Season opening type-moon フェイト/ステイナイト DefSTAR RECORDS notes aniplex saber ufotable Hisashi Koyama Kenji Tamai Shogo Ohnishi
BeatmapID:675136
BeatmapSetID:300858

[Difficulty]
HPDrainRate:4
CircleSize:3.5
OverallDifficulty:4
ApproachRate:5
SliderMultiplier:2.4
SliderTickRate:1

[Events]
//Background and Video events
0,0,"bg.jpg",0,0
Video,-670,"vid.flv"
//Break Periods
//Storyboard Layer 0 (Background)
//Storyboard Layer 1 (Fail)
//Storyboard Layer 2 (Pass)
//Storyboard Layer 3 (Foreground)
//Storyboard Sound Samples

[TimingPoints]
26,701.754385964912,4,2,1,25,1,0
26,-111.111111111111,4,2,1,25,0,0
1429,-111.111111111111,4,2,1,30,0,0
1780,-111.111111111111,4,2,1,35,0,0
2131,-111.111111111111,4,2,1,40,0,0
2833,-111.111111111111,4,2,1,35,0,0
3183,-111.111111111111,4,2,1,40,0,0
4938,-111.111111111111,4,2,1,50,0,0
6166,-100,4,2,1,50,0,0
16517,-100,4,2,1,45,0,0
16868,-100,4,2,1,40,0,0
28096,-100,4,2,1,45,0,0
39324,-100,4,2,1,35,0,0
40376,-100,4,2,0,35,0,0
42131,-100,4,2,1,35,0,0
42306,-100,4,2,0,35,0,0
44938,-100,4,2,1,35,0,0
45113,-100,4,2,0,35,0,0
47745,-100,4,2,1,35,0,0
47920,-100,4,2,0,35,0,0
50552,-100,4,2,1,40,0,0
53359,-100,4,2,99,60,0,0
55464,-100,4,2,1,75,0,0
56166,-100,4,2,1,90,0,1
56341,-100,4,2,1,85,0,1
58973,-100,4,2,1,90,0,1
59148,-100,4,2,1,85,0,1
61780,-100,4,2,1,90,0,1
61955,-100,4,2,1,85,0,1
65815,-100,4,2,1,75,0,0
67394,-100,4,2,1,90,0,1
67569,-100,4,2,1,85,0,1
70201,-100,4,2,1,90,0,1
70376,-100,4,2,1,85,0,1
73008,-100,4,2,1,90,0,1
73183,-100,4,2,1,85,0,1
75815,-100,4,2,1,90,0,1
75990,-100,4,2,1,85,0,1
76868,-100,4,2,1,90,0,1
77043,-100,4,2,1,85,0,1
78622,-100,4,2,1,90,0,0
78797,-100,4,2,1,75,0,0
88447,-100,4,2,1,35,0,0

[Colours]
Combo1 : 169,67,85
Combo2 : 173,188,179
Combo3 : 117,146,189
Combo4 : 248,248,120

[HitObjects]
87,42,26,6,0,L|75:175,1,107.999996704102,2|0,0:0|0:0,0:0:0:0:
110,241,727,1,8,0:0:0:0:
181,307,1078,2,0,L|241:299,1,53.9999983520508,2|2,0:0|0:0,0:0:0:0:
282,294,1429,2,0,L|344:302,1,53.9999983520508,0|8,0:0|0:0,0:0:0:0:
381,315,1780,2,0,P|401:252|383:191,1,107.999996704102,2|8,0:0|0:0,0:0:0:0:
334,134,2482,1,0,0:0:0:0:
247,89,2833,6,0,P|287:47|337:36,1,107.999996704102,4|0,3:0|0:0,0:0:0:0:
417,84,3534,1,8,0:0:0:0:
353,157,3885,2,0,L|365:228,1,53.9999983520508,0|2,0:0|0:0,0:0:0:0:
352,258,4236,2,0,P|317:217|251:218,1,107.999996704102,8|0,0:0|0:0,0:0:0:0:
180,259,4938,2,0,B|210:178|118:123|118:123|143:46,1,215.999993408203,0|6,0:0|0:0,0:0:0:0:
150,28,5815,5,2,0:0:0:0:
230,99,6166,1,2,0:0:0:0:
269,135,6341,2,0,P|329:143|391:140,1,120,8|0,0:0|0:0,0:0:0:0:
440,125,6868,1,2,0:0:0:0:
427,231,7218,2,0,P|368:298|282:318,1,180,8|8,0:0|0:0,0:0:0:0:
187,304,8096,1,0,0:0:0:0:
116,238,8447,6,0,B|102:165|121:51|121:51|64:108,1,240,6|8,0:0|0:0,0:0:0:0:
33,169,9499,1,0,0:0:0:0:
42,264,9850,1,0,0:0:0:0:
58,308,10025,2,0,P|119:329|179:300,1,120,8|2,0:0|0:0,0:0:0:0:
204,277,10552,2,0,P|319:289|398:263,1,180,8|8,0:0|0:0,0:0:0:0:
418,243,11254,5,6,0:0:0:0:
471,109,11780,1,2,0:0:0:0:
427,77,11955,2,0,L|343:71,1,60,8|2,0:0|0:0,0:0:0:0:
269,119,12482,2,0,L|111:105,1,120,2|8,0:0|0:0,0:0:0:0:
44,134,13183,1,2,0:0:0:0:
28,186,13359,2,0,L|42:315,1,120,8|2,0:0|0:0,0:0:0:0:
131,271,14061,6,0,P|178:241|299:275,1,180,6|2,0:0|0:0,0:0:0:0:
336,287,14762,2,0,P|309:235|323:135,1,120,8|0,0:0|0:0,0:0:0:0:
330,133,15289,2,0,P|388:142|482:127,2,120,8|8|2,0:0|0:0|0:0,0:0:0:0:
284,117,16166,1,2,0:0:0:0:
201,68,16517,1,4,3:0:0:0:
113,111,16868,5,6,0:0:0:0:
90,204,17218,2,0,L|102:317,1,60,0|2,0:0|0:0,0:0:0:0:
86,310,17569,2,0,P|144:296|250:307,1,120,8|0,0:0|0:0,0:0:0:0:
250,310,18096,1,2,0:0:0:0:
340,277,18447,1,8,0:0:0:0:
377,246,18622,2,0,P|382:187|359:120,1,120,2|8,0:0|0:0,0:0:0:0:
276,91,19324,2,0,L|182:107,1,60,0|8,0:0|0:0,0:0:0:0:
187,139,19675,6,0,L|116:131,1,60,2|8,0:0|0:0,0:0:0:0:
75,213,20201,2,0,L|156:222,1,60,2|8,0:0|0:0,0:0:0:0:
175,245,20552,2,0,P|181:323|201:371,1,120,0|2,0:0|0:0,0:0:0:0:
292,356,21254,1,8,0:0:0:0:
338,343,21429,2,0,L|347:219,1,120,2|8,0:0|0:0,0:0:0:0:
365,178,21955,2,0,P|311:203|252:201,1,120,2|8,0:0|0:0,0:0:0:0:
209,177,22482,5,2,0:0:0:0:
171,88,22833,2,0,L|86:99,1,60,0|2,0:0|0:0,0:0:0:0:
64,87,23184,2,0,P|91:150|78:216,1,120,8|0,0:0|0:0,0:0:0:0:
59,240,23711,1,2,0:0:0:0:
75,334,24062,1,8,0:0:0:0:
105,370,24237,2,0,L|229:374,1,120,2|8,0:0|0:0,0:0:0:0:
305,321,24938,2,0,P|312:285|334:252,1,60,0|8,0:0|0:0,0:0:0:0:
358,231,25289,6,0,L|346:167,1,60,2|0,0:0|0:0,0:0:0:0:
290,94,25815,2,0,L|278:30,2,60,2|8|0,0:0|0:0|0:0,0:0:0:0:
265,187,26517,2,0,P|205:191|176:142,1,120,2|8,0:0|0:0,0:0:0:0:
164,98,27043,1,2,0:0:0:0:
73,66,27394,1,8,0:0:0:0:
11,139,27745,2,0,L|27:209,1,60,2|2,0:0|0:0,0:0:0:0:
30,245,28096,6,0,P|91:268|130:310,1,120,6|0,0:0|0:0,0:0:0:0:
141,353,28622,2,0,L|77:361,2,60,2|8|2,0:0|0:0|0:0,0:0:0:0:
216,292,29324,2,0,B|211:266|198:250|198:250|217:215|202:161,1,120,2|8,0:0|0:0,0:0:0:0:
194,131,29850,2,0,P|207:86|275:57,1,120,2|8,0:0|0:0,0:0:0:0:
366,39,30552,2,0,L|360:111,1,60,0|8,0:0|0:0,0:0:0:0:
348,145,30903,6,0,P|352:206|369:266,1,120,2|0,0:0|0:0,0:0:0:0:
390,305,31429,2,0,L|331:313,1,60,2|8,0:0|0:0,0:0:0:0:
282,306,31780,1,2,0:0:0:0:
202,360,32131,2,0,L|78:340,1,120,2|2,0:0|0:0,0:0:0:0:
29,260,32833,2,0,L|105:244,1,60,8|8,0:0|0:0,0:0:0:0:
126,219,33183,2,0,P|178:239|250:235,1,120,2|8,0:0|0:0,0:0:0:0:
283,212,33710,5,2,0:0:0:0:
349,142,34061,2,0,L|349:82,1,60,0|2,0:0|0:0,0:0:0:0:
369,38,34411,2,0,P|313:58|253:42,1,120,8|0,0:0|0:0,0:0:0:0:
212,22,34938,1,2,0:0:0:0:
123,58,35289,2,0,L|127:130,1,60,8|2,0:0|0:0,0:0:0:0:
52,179,35815,2,0,L|58:301,1,120,8|0,0:0|0:0,0:0:0:0:
96,327,36341,1,8,0:0:0:0:
139,348,36517,6,0,P|196:343|258:340,1,120,2|0,0:0|0:0,0:0:0:0:
298,312,37043,2,0,L|366:322,1,60,2|8,0:0|0:0,0:0:0:0:
400,341,37394,2,0,P|388:281|392:221,1,120,2|2,0:0|0:0,0:0:0:0:
256,192,37920,12,4,39324,0:0:0:0:
200,320,40376,6,0,P|129:308|72:312,1,120,2|0,0:0|0:0,0:0:0:0:
33,316,40903,2,0,P|75:264|97:197,1,120,0|2,0:0|0:0,0:0:0:0:
80,119,41604,1,2,0:0:0:0:
123,33,41955,1,0,0:0:0:0:
170,28,42131,6,0,L|309:39,1,120,4|0,0:0|0:0,0:0:0:0:
305,132,42833,1,2,0:0:0:0:
316,227,43183,2,0,L|455:238,1,120,2|0,0:0|0:0,0:0:0:0:
479,217,43710,1,0,0:0:0:0:
493,171,43885,2,0,L|484:99,1,60,0|2,0:0|0:0,0:0:0:0:
424,37,44411,2,0,P|397:84|316:120,1,120,2|0,0:0|0:0,0:0:0:0:
292,116,44938,6,0,B|212:111|212:111|150:121,2,120,4|0|2,0:0|0:0|0:0,0:0:0:0:
319,207,45990,2,0,L|237:202,1,60,2|0,0:0|0:0,0:0:0:0:
210,204,46341,2,0,P|195:277|152:308,1,120,0|0,0:0|0:0,0:0:0:0:
114,306,46868,1,2,0:0:0:0:
67,222,47218,2,0,B|53:96,1,120,2|0,0:0|0:0,0:0:0:0:
81,60,47745,6,0,P|123:87|201:96,1,120,4|0,0:0|0:0,0:0:0:0:
238,86,48271,2,0,P|297:92|348:123,1,120,2|0,0:0|0:0,0:0:0:0:
368,166,48797,2,0,P|389:206|435:115,1,180,2|2,0:0|0:0,0:0:0:0:
448,100,49499,1,0,0:0:0:0:
370,43,49850,1,2,0:0:0:0:
293,100,50201,2,0,L|215:89,1,60,2|0,0:0|0:0,0:0:0:0:
188,108,50552,5,6,0:0:0:0:
142,192,50902,2,0,L|231:207,1,60,0|2,0:0|0:0,0:0:0:0:
238,233,51253,2,0,P|296:219|378:226,1,120,8|0,0:0|0:0,0:0:0:0:
401,237,51780,2,0,P|426:189|423:120,1,120,2|8,0:0|0:0,0:0:0:0:
396,85,52306,1,2,0:0:0:0:
300,75,52657,2,0,L|312:15,2,60,8|8|2,0:0|3:0|0:0,0:0:0:0:
238,149,53359,6,0,L|255:211,1,60,10|10,0:0|0:0,0:0:0:0:
84,120,55464,6,0,L|75:242,1,120,0|8,0:0|0:0,0:0:0:0:
67,336,56166,6,0,P|126:305|245:326,1,180,6|2,0:0|0:0,0:0:0:0:
276,344,56868,1,8,0:0:0:0:
367,316,57218,1,2,0:0:0:0:
397,278,57394,2,0,L|379:143,1,120,2|8,0:0|0:0,0:0:0:0:
387,111,57920,1,0,0:0:0:0:
330,33,58271,1,8,0:0:0:0:
289,59,58447,2,0,P|222:77|149:58,1,120,2|8,0:0|0:0,0:0:0:0:
131,44,58973,5,6,0:0:0:0:
86,61,59148,2,0,P|102:135|86:198,1,120,8|2,0:0|0:0,0:0:0:0:
75,222,59675,1,8,0:0:0:0:
120,306,60025,1,2,0:0:0:0:
168,304,60201,2,0,P|240:281|313:299,1,120,2|8,0:0|0:0,0:0:0:0:
370,332,60903,2,0,L|379:264,1,60,2|8,0:0|0:0,0:0:0:0:
402,231,61254,2,0,P|393:172|418:119,1,120,2|8,0:0|0:0,0:0:0:0:
452,84,61780,6,0,B|384:107|318:50|318:50|279:67,1,180,6|2,0:0|0:0,0:0:0:0:
244,87,62482,1,8,0:0:0:0:
213,178,62833,1,2,0:0:0:0:
181,214,63009,2,0,P|99:220|48:203,1,120,2|8,0:0|0:0,0:0:0:0:
24,181,63535,1,0,0:0:0:0:
59,91,63885,2,0,P|128:106|180:90,1,120,8|0,0:0|0:0,0:0:0:0:
255,40,64587,5,2,0:0:0:0:
302,40,64762,2,0,P|369:66|432:57,1,120,8|2,0:0|0:0,0:0:0:0:
460,43,65289,2,0,B|445:106|445:106|459:166,1,120,8|2,0:0|0:0,0:0:0:0:
471,205,65815,1,8,0:0:0:0:
382,243,66166,2,0,B|362:156|362:156|313:150,1,120,8|2,0:0|0:0,0:0:0:0:
283,147,66692,1,8,0:0:0:0:
208,207,67043,2,0,L|225:282,1,60,8|8,0:0|0:0,0:0:0:0:
217,313,67394,6,0,P|174:269|38:286,1,180,6|2,0:0|0:0,0:0:0:0:
29,304,68096,1,8,0:0:0:0:
1,218,68446,1,2,0:0:0:0:
8,170,68622,2,0,L|19:37,1,120,2|8,0:0|0:0,0:0:0:0:
55,20,69148,1,0,0:0:0:0:
99,107,69499,1,8,0:0:0:0:
110,153,69675,2,0,P|178:177|230:176,1,120,2|8,0:0|0:0,0:0:0:0:
270,159,70201,6,0,P|329:154|399:174,1,120,6|0,0:0|0:0,0:0:0:0:
432,185,70727,2,0,L|426:119,2,60,2|8|0,0:0|0:0|0:0,0:0:0:0:
476,270,71429,2,0,B|428:293|382:267|382:267|334:283,1,120,2|8,0:0|0:0,0:0:0:0:
291,339,72131,2,0,L|225:332,1,60,2|8,0:0|0:0,0:0:0:0:
183,340,72482,2,0,P|202:283|173:225,1,120,2|8,0:0|0:0,0:0:0:0:
140,201,73008,6,0,P|107:129|139:32,1,180,6|2,0:0|0:0,0:0:0:0:
182,25,73710,2,0,B|268:34|268:34|319:29,1,120,8|2,0:0|0:0,0:0:0:0:
348,19,74236,1,2,0:0:0:0:
376,110,74587,2,0,B|280:126|280:126|243:123,1,120,8|2,0:0|0:0,0:0:0:0:
209,123,75113,2,0,P|230:189|240:251,1,120,8|0,0:0|0:0,0:0:0:0:
237,287,75640,1,0,0:0:0:0:
231,334,75815,5,6,0:0:0:0:
142,371,76166,2,0,L|135:294,1,60,0|2,0:0|0:0,0:0:0:0:
101,277,76517,2,0,P|109:228|92:157,1,120,8|6,0:0|0:0,0:0:0:0:
95,112,77043,2,0,P|134:168|163:43,1,300,0|8,0:0|0:0,0:0:0:0:
74,14,78271,1,4,3:0:0:0:
5,81,78622,5,6,0:0:0:0:
256,192,78797,12,2,82482,0:0:0:0:
95,108,83534,6,0,L|80:231,1,120,8|0,0:0|0:0,0:0:0:0:
127,311,84236,1,6,0:0:0:0:
256,192,84411,12,0,88447,0:0:0:0:
