osu file format v14

[General]
AudioFilename: Aimer - Brave Shine.mp3
AudioLeadIn: 2000
PreviewTime: 55376
Countdown: 0
SampleSet: Soft
StackLeniency: 0.7
Mode: 0
LetterboxInBreaks: 0
WidescreenStoryboard: 0

[Editor]
DistanceSpacing: 1.6
BeatDivisor: 4
GridSize: 4
TimelineZoom: 1.800006

[Metadata]
Title:Brave Shine (TV size)
TitleUnicode:Brave Shine (TV size)
Artist:Aimer
ArtistUnicode:Aimer
Creator:Saut
Version:Insane
Source:Fate/stay night [Unlimited Blade Works]
Tags:エメ eme aimerrhythm 2nd Season opening type-moon フェイト/ステイナイト DefSTAR RECORDS notes aniplex saber ufotable Hisashi Koyama Kenji Tamai Shogo Ohnishi
BeatmapID:674696
BeatmapSetID:300858

[Difficulty]
HPDrainRate:7
CircleSize:4
OverallDifficulty:8
ApproachRate:8.8
SliderMultiplier:3.2
SliderTickRate:1

[Events]
//Background and Video events
0,0,"bg.jpg",0,0
Video,-670,"vid.flv"
//Break Periods
//Storyboard Layer 0 (Background)
//Storyboard Layer 1 (Fail)
//Storyboard Layer 2 (Pass)
//Storyboard Layer 3 (Foreground)
//Storyboard Sound Samples

[TimingPoints]
26,701.754385964912,4,2,1,25,1,0
26,-125,4,2,1,25,0,0
1429,-125,4,2,1,30,0,0
1780,-125,4,2,1,35,0,0
2131,-125,4,2,1,40,0,0
2482,-125,4,2,1,45,0,0
2833,-125,4,2,1,35,0,0
3359,-125,4,2,1,50,0,0
4236,-111.111111111111,4,2,1,50,0,0
4762,-111.111111111111,4,2,1,35,0,0
4938,-166.666666666667,4,2,1,50,0,0
5640,-100,4,2,1,50,0,0
15815,-100,4,2,1,35,0,0
16341,-100,4,2,1,50,0,0
16517,-100,4,2,1,45,0,0
16692,-100,4,2,1,40,0,0
16868,-125,4,2,1,40,0,0
19499,-125,4,2,1,25,0,0
19675,-125,4,2,1,40,0,0
22306,-125,4,2,1,25,0,0
22482,-125,4,2,1,40,0,0
25113,-125,4,2,1,25,0,0
25289,-125,4,2,1,40,0,0
28096,-111.111111111111,4,2,1,45,0,0
30727,-111.111111111111,4,2,1,30,0,0
30903,-111.111111111111,4,2,1,45,0,0
32833,-111.111111111111,4,2,1,30,0,0
33008,-111.111111111111,4,2,1,45,0,0
33534,-111.111111111111,4,2,1,30,0,0
33710,-111.111111111111,4,2,1,45,0,0
36341,-111.111111111111,4,2,1,30,0,0
36517,-111.111111111111,4,2,1,45,0,0
38447,-111.111111111111,4,2,1,30,0,0
38622,-111.111111111111,4,2,1,45,0,0
39324,-142.857142857143,4,2,1,35,0,0
39499,-142.857142857143,4,2,0,35,0,0
42131,-142.857142857143,4,2,1,35,0,0
42306,-142.857142857143,4,2,0,35,0,0
44938,-142.857142857143,4,2,1,35,0,0
45113,-142.857142857143,4,2,0,35,0,0
47745,-142.857142857143,4,2,1,35,0,0
47920,-142.857142857143,4,2,0,35,0,0
50552,-125,4,2,1,40,0,0
53359,-100,4,2,99,60,0,0
55640,-100,4,2,1,75,0,0
56078,-100,4,2,1,45,0,0
56166,-90.9090909090909,4,2,1,90,0,1
56341,-90.9090909090909,4,2,1,85,0,1
58797,-90.9090909090909,4,2,1,70,0,1
58973,-90.9090909090909,4,2,1,90,0,1
59148,-90.9090909090909,4,2,1,85,0,1
61604,-90.9090909090909,4,2,1,70,0,1
61780,-90.9090909090909,4,2,1,90,0,1
61955,-90.9090909090909,4,2,1,85,0,1
64411,-90.9090909090909,4,2,1,70,0,1
64587,-90.9090909090909,4,2,1,85,0,1
65815,-90.9090909090909,4,2,1,75,0,0
66868,-90.9090909090909,4,2,1,50,0,0
66955,-90.9090909090909,4,2,1,75,0,0
67043,-90.9090909090909,4,2,1,50,0,0
67131,-90.9090909090909,4,2,1,75,0,0
67218,-90.9090909090909,4,2,1,50,0,0
67306,-90.9090909090909,4,2,1,75,0,0
67394,-90.9090909090909,4,2,1,90,0,1
67569,-90.9090909090909,4,2,1,85,0,1
70025,-90.9090909090909,4,2,1,70,0,1
70201,-90.9090909090909,4,2,1,90,0,1
70376,-90.9090909090909,4,2,1,85,0,1
72833,-90.9090909090909,4,2,1,70,0,1
73008,-90.9090909090909,4,2,1,90,0,1
73183,-90.9090909090909,4,2,1,85,0,1
75815,-90.9090909090909,4,2,1,90,0,1
75990,-90.9090909090909,4,2,1,85,0,1
76868,-90.9090909090909,4,2,1,90,0,1
77043,-90.9090909090909,4,2,1,85,0,1
78622,-100,4,2,1,90,0,0
78797,-100,4,2,1,75,0,0
84061,-100,4,2,1,60,0,0
84236,-100,4,2,1,75,0,0
87043,-100,4,2,1,50,0,0
87628,-100,4,2,1,75,0,0
88447,-100,4,2,1,35,0,0

[Colours]
Combo1 : 169,67,85
Combo2 : 173,188,179
Combo3 : 117,146,189
Combo4 : 248,248,120

[HitObjects]
45,87,26,6,0,P|74:91|123:93,1,64,2|2,0:0|0:0,0:0:0:0:
193,48,376,1,0,0:0:0:0:
289,62,552,1,2,0:0:0:0:
121,120,727,1,8,0:0:0:0:
365,184,1078,2,0,P|336:188|287:190,1,64,2|2,0:0|0:0,0:0:0:0:
210,157,1429,5,0,0:0:0:0:
260,314,1604,1,8,0:0:0:0:
177,263,1780,1,2,0:0:0:0:
85,292,1955,1,2,0:0:0:0:
241,332,2131,1,8,0:0:0:0:
199,242,2306,2,0,P|232:240|275:239,1,64,2|0,0:0|0:0,0:0:0:0:
368,297,2657,1,2,0:0:0:0:
363,108,2833,5,4,3:0:0:0:
391,311,3008,1,4,3:0:0:0:
470,146,3359,5,2,0:0:0:0:
295,167,3534,1,8,0:0:0:0:
386,202,3710,1,2,0:0:0:0:
386,202,4061,1,2,0:0:0:0:
263,76,4236,6,0,B|229:67|189:76|189:76|127:68|127:68|79:79|41:66,1,215.999993408203,8|0,0:0|0:0,0:0:0:0:
74,244,4938,6,0,P|162:217|139:142,1,167.999994873047
140,149,5640,5,6,0:0:0:0:
227,249,5815,2,0,P|270:264|327:279,1,80,2|0,0:0|0:0,0:0:0:0:
277,163,6166,1,2,0:0:0:0:
140,285,6341,2,0,P|177:311|229:340,1,80,8|2,0:0|0:0,0:0:0:0:
378,303,6692,2,0,P|377:260|365:214,1,80,0|2,0:0|0:0,0:0:0:0:
277,163,7043,1,0,0:0:0:0:
153,200,7218,6,0,P|88:139|101:60,1,160,8|2,0:0|0:0,0:0:0:0:
185,182,7745,1,8,0:0:0:0:
140,285,7920,2,0,P|98:274|66:250,2,80,2|0|2,0:0|0:0|0:0,0:0:0:0:
291,137,8447,5,6,0:0:0:0:
319,246,8622,2,0,P|358:245|409:238,1,80,2|0,0:0|0:0,0:0:0:0:
472,168,8973,1,2,0:0:0:0:
455,319,9148,1,8,0:0:0:0:
342,333,9324,2,0,P|303:326|254:309,1,80,2|0,0:0|0:0,0:0:0:0:
198,241,9675,1,2,0:0:0:0:
307,102,9850,5,0,0:0:0:0:
319,246,10025,1,8,0:0:0:0:
252,174,10201,1,0,0:0:0:0:
378,162,10376,1,2,0:0:0:0:
231,147,10552,2,0,P|186:150|142:157,1,80,8|2,0:0|0:0,0:0:0:0:
98,240,10903,1,0,0:0:0:0:
62,102,11078,1,8,0:0:0:0:
51,76,11166,1,8,0:0:0:0:
38,50,11254,6,0,P|98:68|189:28,1,160,6|0,0:0|0:0,0:0:0:0:
152,155,11780,1,2,0:0:0:0:
274,53,11955,1,8,0:0:0:0:
288,186,12131,1,2,0:0:0:0:
457,169,12306,1,0,0:0:0:0:
269,212,12483,2,0,B|282:338|282:338|313:310,1,160,2|8,0:0|0:0,0:0:0:0:
307,315,13183,5,2,0:0:0:0:
442,197,13359,1,8,0:0:0:0:
418,307,13534,1,2,0:0:0:0:
352,185,13710,2,0,L|350:139,1,40,2|0,0:0|0:0,0:0:0:0:
278,122,13885,2,0,L|276:76,1,40,2|0,0:0|0:0,0:0:0:0:
202,59,14061,5,6,0:0:0:0:
93,88,14236,2,0,L|94:167,1,80,2|0,2:0|2:0,2:0:0:0:
190,93,14587,1,2,0:0:0:0:
146,241,14762,2,0,L|147:320,1,80,8|2,2:0|2:0,2:0:0:0:
294,238,15113,1,0,0:0:0:0:
196,125,15289,1,8,0:0:0:0:
217,268,15464,1,2,0:0:0:0:
208,91,15640,1,8,0:0:0:0:
232,288,15815,5,2,0:0:0:0:
255,309,15903,1,2,0:0:0:0:
285,318,15990,1,2,0:0:0:0:
316,314,16078,1,2,0:0:0:0:
344,298,16166,1,2,0:0:0:0:
316,156,16341,1,8,0:0:0:0:
458,194,16517,1,4,3:0:0:0:
294,238,16692,1,8,3:0:0:0:
484,186,16868,5,6,0:0:0:0:
438,284,17043,2,0,L|431:361,1,64
318,367,17394,1,2,0:0:0:0:
415,262,17569,1,8,0:0:0:0:
294,238,17745,2,0,P|255:240|209:250,1,64
108,302,18096,6,0,P|120:281|132:241,1,64,2|0,0:0|0:0,0:0:0:0:
98,148,18447,1,8,0:0:0:0:
31,282,18622,2,0,P|40:346|105:381,1,128,2|8,0:0|0:0,0:0:0:0:
186,323,19148,1,2,0:0:0:0:
140,221,19324,1,0,0:0:0:0:
203,131,19499,1,8,0:0:0:0:
208,107,19587,1,8,0:0:0:0:
212,83,19675,5,2,0:0:0:0:
281,177,19850,2,0,P|319:192|349:197,1,64,8|0,0:0|0:0,0:0:0:0:
422,119,20201,1,2,0:0:0:0:
452,229,20376,1,8,0:0:0:0:
335,112,20552,2,0,P|346:74|371:46,1,64
438,176,20903,5,2,0:0:0:0:
475,53,21078,1,0,0:0:0:0:
335,112,21254,1,8,0:0:0:0:
375,254,21429,2,0,P|344:258|311:254,1,64,2|0,0:0|0:0,0:0:0:0:
227,156,21780,1,8,0:0:0:0:
232,315,21955,2,0,P|293:331|366:335,1,128,2|8,0:0|0:0,0:0:0:0:
380,332,22394,1,10,0:0:0:0:
404,328,22482,5,2,0:0:0:0:
376,224,22657,1,0,0:0:0:0:
312,137,22833,2,0,P|273:132|240:133,1,64,0|2,0:0|0:0,0:0:0:0:
153,236,23183,1,8,0:0:0:0:
99,151,23359,1,2,0:0:0:0:
172,81,23534,1,0,0:0:0:0:
153,236,23710,6,0,P|144:271|132:296,1,64,2|0,0:0|0:0,0:0:0:0:
54,237,24061,1,8,0:0:0:0:
244,212,24236,2,0,P|244:248|240:275,1,64,2|0,0:0|0:0,0:0:0:0:
153,236,24587,1,8,0:0:0:0:
194,108,24762,2,0,P|200:67|200:29,1,64,2|0,0:0|0:0,0:0:0:0:
62,101,25113,1,8,0:0:0:0:
63,122,25201,1,8,0:0:0:0:
65,143,25289,5,2,0:0:0:0:
32,275,25464,1,8,0:0:0:0:
128,232,25640,2,0,P|161:230|212:232,1,64,0|2,0:0|0:0,0:0:0:0:
317,184,25990,1,8,0:0:0:0:
262,312,26166,2,0,P|230:312|198:310,1,64,2|0,0:0|0:0,0:0:0:0:
317,184,26517,5,2,0:0:0:0:
353,263,26692,1,0,0:0:0:0:
381,122,26868,1,8,0:0:0:0:
237,144,27043,1,2,0:0:0:0:
403,200,27218,1,0,0:0:0:0:
304,98,27394,1,8,0:0:0:0:
403,200,27569,1,2,0:0:0:0:
271,261,27745,2,0,L|222:266,1,32,2|0,0:0|0:0,0:0:0:0:
173,229,27920,2,0,L|124:234,1,32,2|0,0:0|0:0,0:0:0:0:
67,208,28096,6,0,B|34:211|34:211|85:168|84:105,1,143.999995605469,6|0,0:0|0:0,0:0:0:0:
129,23,28622,1,2,0:0:0:0:
171,146,28797,1,8,0:0:0:0:
226,45,28973,2,0,P|262:41|308:37,1,71.9999978027344,2|0,0:0|0:0,0:0:0:0:
349,177,29324,6,0,P|325:142|313:102,1,71.9999978027344,2|0,0:0|0:0,0:0:0:0:
383,35,29675,1,8,0:0:0:0:
452,134,29850,2,0,P|460:191|434:249,1,107.999996704102,2|0,0:0|0:0,0:0:0:0:
422,252,30201,1,8,0:0:0:0:
349,177,30376,2,0,P|312:179|267:187,1,71.9999978027344,2|0,0:0|0:0,0:0:0:0:
188,285,30727,1,8,0:0:0:0:
184,309,30815,1,8,0:0:0:0:
179,333,30903,5,2,0:0:0:0:
311,297,31078,1,0,0:3:0:0:
194,259,31254,1,0,2:0:0:0:
345,204,31429,1,2,0:0:0:0:
160,166,31604,1,8,0:0:0:0:
298,128,31780,2,0,L|279:49,1,71.9999978027344,2|0,0:0|0:0,0:0:0:0:
180,211,32131,6,0,P|221:215|268:208,1,71.9999978027344,2|0,0:0|0:0,0:0:0:0:
392,128,32482,1,2,0:0:0:0:
326,271,32657,1,2,0:0:0:0:
298,128,32833,1,8,0:0:0:0:
291,104,32920,1,8,0:0:0:0:
285,79,33008,1,8,0:0:0:0:
392,128,33183,2,0,P|436:138|468:135,1,71.9999978027344,2|0,0:0|0:0,0:0:0:0:
475,255,33534,1,8,0:0:0:0:
468,280,33621,1,10,0:0:0:0:
460,304,33709,5,2,0:0:0:0:
357,247,33885,1,0,0:0:0:0:
304,348,34061,2,0,P|265:349|223:346,1,71.9999978027344,0|2,0:0|0:0,0:0:0:0:
178,237,34411,2,0,P|142:244|108:254,1,71.9999978027344,8|2,0:0|0:0,0:0:0:0:
65,350,34762,1,0,0:0:0:0:
259,268,34938,6,0,P|259:205|200:151,1,143.999995605469,2|8,0:0|0:0,0:0:0:0:
75,144,35464,2,0,P|129:175|205:151,1,143.999995605469,2|8,0:0|0:0,0:0:0:0:
252,60,35990,1,2,0:0:0:0:
366,122,36166,2,0,L|356:214,1,71.9999978027344,0|8,0:0|0:0,0:0:0:0:
370,215,36429,1,8,0:0:0:0:
385,235,36517,6,0,P|382:276|379:312,1,71.9999978027344,2|0,0:0|0:0,0:0:0:0:
259,360,36868,1,0,0:0:0:0:
281,240,37043,1,2,0:0:0:0:
376,331,37218,1,8,0:0:0:0:
210,286,37394,2,0,P|165:286|110:293,1,71.9999978027344,2|0,0:0|0:0,0:0:0:0:
36,333,37745,6,0,P|46:295|29:233,1,71.9999978027344,2|0,0:0|0:0,0:0:0:0:
2,151,38096,1,8,0:0:0:0:
109,60,38271,1,2,0:0:0:0:
127,202,38447,1,8,0:0:0:0:
132,228,38534,1,8,0:0:0:0:
136,252,38622,1,8,0:0:0:0:
221,120,38797,2,0,L|213:59,1,35.9999989013672,2|0,0:0|0:0,0:0:0:0:
307,158,38973,2,0,L|299:97,1,35.9999989013672,2|0,0:0|0:0,0:0:0:0:
394,196,39148,2,0,L|386:135,1,35.9999989013672,2|0,0:0|0:0,0:0:0:0:
478,229,39324,6,0,L|488:291,1,55.9999982910157,6|0,0:0|0:0,0:0:0:0:
394,196,39675,2,0,L|404:258,1,55.9999982910157
307,158,40025,2,0,L|317:220,1,55.9999982910157,2|0,0:0|0:0,0:0:0:0:
221,120,40376,1,2,0:0:0:0:
221,120,40552,1,0,0:0:0:0:
236,203,40727,5,0,0:0:0:0:
253,285,40903,2,0,P|221:285|198:277,1,55.9999982910157
138,217,41254,2,0,P|104:219|62:232,1,55.9999982910157,2|0,0:0|0:0,0:0:0:0:
60,304,41604,2,0,P|93:301|135:288,1,55.9999982910157,2|0,0:0|0:0,0:0:0:0:
198,277,41955,1,0,0:0:0:0:
342,312,42131,6,0,L|404:322,1,55.9999982910157,4|0,0:0|0:0,0:0:0:0:
313,228,42482,2,0,L|375:238,1,55.9999982910157
284,144,42833,2,0,L|346:154,1,55.9999982910157,2|0,0:0|0:0,0:0:0:0:
255,60,43183,1,2,0:0:0:0:
255,60,43359,1,0,0:0:0:0:
203,125,43534,5,0,0:0:0:0:
225,205,43709,1,0,0:0:0:0:
306,226,43885,1,0,0:0:0:0:
369,170,44061,2,0,P|385:196|389:233,1,55.9999982910157,2|0,0:0|0:0,0:0:0:0:
355,297,44411,2,0,P|408:302|463:259,1,111.999996582031,2|0,0:0|0:0,0:0:0:0:
451,144,44938,6,0,P|476:124|504:113,1,55.9999982910157,4|0,0:0|0:0,0:0:0:0:
369,125,45289,2,0,P|383:96|404:75,1,55.9999982910157
286,142,45640,2,0,P|287:110|297:81,1,55.9999982910157,2|0,0:0|0:0,0:0:0:0:
217,192,45990,1,2,0:0:0:0:
217,192,46166,1,0,0:0:0:0:
188,270,46341,6,0,P|132:286|75:268,1,111.999996582031
17,216,46868,2,0,L|14:147,1,55.9999982910157,2|0,0:0|0:0,0:0:0:0:
30,77,47218,2,0,P|76:110|149:106,1,111.999996582031,2|0,0:0|0:0,0:0:0:0:
241,62,47745,5,4,0:0:0:0:
241,62,48096,1,0,0:0:0:0:
277,137,48271,2,0,L|272:269,1,111.999996582031,2|0,0:0|0:0,0:0:0:0:
354,269,48797,2,0,L|359:141,1,111.999996582031,2|0,0:0|0:0,0:0:0:0:
277,137,49324,6,0,P|245:142|213:137,1,55.9999982910157,2|0,0:0|0:0,0:0:0:0:
145,103,49675,1,2,0:0:0:0:
76,151,49850,1,2,0:0:0:0:
84,235,50025,1,2,0:0:0:0:
160,270,50201,1,2,0:0:0:0:
229,222,50376,1,0,0:0:0:0:
362,136,50552,6,0,P|367:203|354:284,1,128,6|0,0:0|0:0,0:0:0:0:
328,361,51078,1,2,0:0:0:0:
440,281,51254,2,0,P|446:247|448:217,1,64,8|0,0:0|0:0,0:0:0:0:
438,115,51604,1,0,0:0:0:0:
331,150,51780,6,0,P|292:147|240:139,1,64,2|0,0:0|0:0,0:0:0:0:
175,65,52131,1,8,0:0:0:0:
202,185,52306,1,2,0:0:0:0:
146,54,52482,1,2,0:0:0:0:
146,54,52569,1,2,0:0:0:0:
146,54,52657,1,8,0:0:0:0:
158,260,52833,1,8,3:0:0:0:
241,111,53008,1,2,0:0:0:0:
20,150,53183,1,4,3:0:0:0:
198,52,53359,5,10,0:0:0:0:
186,274,53534,1,10,0:0:0:0:
122,34,55640,5,2,0:0:0:0:
55,118,55815,2,0,L|42:237,1,120,8|0,0:0|0:0,0:0:0:0:
37,266,56166,6,0,P|124:252|218:297,1,176.000005371094,6|0,0:0|0:0,0:0:0:0:
306,370,56692,1,2,0:0:0:0:
415,296,56868,2,0,P|423:245|423:195,1,88.000002685547,8|0,0:0|0:0,0:0:0:0:
306,370,57218,1,2,0:0:0:0:
264,267,57394,1,2,0:0:0:0:
264,267,57745,5,8,0:0:0:0:
199,176,57920,1,0,0:0:0:0:
291,282,58096,1,2,0:0:0:0:
154,306,58271,1,8,0:0:0:0:
293,177,58447,2,0,P|269:116|244:90,1,88.000002685547,2|0,0:0|0:0,0:0:0:0:
56,165,58797,1,8,0:0:0:0:
43,193,58885,1,8,0:0:0:0:
42,223,58973,5,2,0:0:0:0:
146,342,59148,2,0,L|195:342|243:342,1,88.000002685547,8|0,0:0|0:0,0:0:0:0:
307,204,59499,1,2,0:0:0:0:
136,250,59675,2,0,L|86:250|39:250,1,88.000002685547,8|0,0:0|0:0,0:0:0:0:
132,113,60025,1,2,0:0:0:0:
257,265,60201,6,0,B|318:318|371:228|435:294,1,176.000005371094,2|8,0:0|0:0,0:0:0:0:
496,350,60727,1,0,0:0:0:0:
425,201,60903,1,2,0:0:0:0:
375,349,61078,1,8,0:0:0:0:
498,165,61254,2,0,P|479:139|348:172,1,176.000005371094,2|8,0:0|0:0,0:0:0:0:
343,186,61692,1,8,0:0:0:0:
339,216,61780,6,0,P|290:187|150:205,1,176.000005371094,6|0,0:0|0:0,0:0:0:0:
239,317,62306,1,2,0:0:0:0:
280,104,62482,2,0,P|237:99|192:106,1,88.000002685547,8|0,0:0|0:0,0:0:0:0:
77,230,62832,1,2,0:0:0:0:
206,206,63008,1,2,0:0:0:0:
206,206,63359,5,8,0:0:0:0:
343,186,63534,1,0,0:0:0:0:
293,316,63710,1,2,0:0:0:0:
263,140,63885,2,0,P|291:107|351:94,1,88.000002685547,8|2,0:0|0:0,0:0:0:0:
361,267,64236,1,0,0:0:0:0:
188,295,64411,1,8,0:0:0:0:
156,299,64499,1,8,0:0:0:0:
125,304,64587,6,0,P|85:279|64:236,1,88.000002685547,2|8,0:0|0:0,0:0:0:0:
198,105,64938,1,0,0:0:0:0:
155,218,65113,1,0,0:0:0:0:
90,77,65289,1,8,0:0:0:0:
227,86,65464,1,0,0:0:0:0:
79,172,65640,1,2,0:0:0:0:
256,63,65815,6,0,L|364:54,1,88.000002685547,8|0,0:0|0:0,0:0:0:0:
325,234,66166,2,0,L|215:241,1,88.000002685547,8|0,0:0|0:0,0:0:0:0:
128,335,66517,1,2,0:0:0:0:
192,163,66692,1,8,0:0:0:0:
250,357,66868,1,2,0:0:0:0:
283,353,66955,1,0,0:0:0:0:
318,348,67043,1,8,0:0:0:0:
353,343,67131,1,0,0:0:0:0:
386,337,67218,1,8,0:0:0:0:
420,329,67306,1,0,0:0:0:0:
454,321,67394,6,0,P|424:260|448:138,1,176.000005371094,6|0,0:0|0:0,0:0:0:0:
486,57,67920,1,2,0:0:0:0:
342,198,68096,2,0,P|293:195|242:181,1,88.000002685547,8|0,0:0|0:0,0:0:0:0:
184,35,68446,1,2,0:0:0:0:
167,140,68622,1,2,0:0:0:0:
167,140,68973,6,0,P|160:187|169:244,1,88.000002685547,8|0,0:0|0:0,0:0:0:0:
240,317,69324,1,2,0:0:0:0:
86,271,69499,1,8,0:0:0:0:
254,198,69675,2,0,P|291:196|342:198,1,88.000002685547,2|0,0:0|0:0,0:0:0:0:
213,319,70025,1,8,0:0:0:0:
177,322,70113,1,8,0:0:0:0:
142,327,70201,5,6,0:0:0:0:
135,160,70376,2,0,P|144:110|163:70,1,88.000002685547,8|0,0:0|0:0,0:0:0:0:
278,222,70727,1,2,0:0:0:0:
50,200,70903,2,0,P|46:149|53:105,1,88.000002685547,8|0,0:0|0:0,0:0:0:0:
185,244,71253,1,2,0:0:0:0:
243,90,71429,6,0,P|328:82|430:111,1,176.000005371094,2|8,0:0|0:0,0:0:0:0:
461,259,71955,1,0,0:0:0:0:
341,213,72131,1,2,0:0:0:0:
512,121,72306,1,8,0:0:0:0:
323,237,72482,2,0,P|249:240|149:191,1,176.000005371094,2|8,0:0|0:0,0:0:0:0:
138,169,72920,1,8,0:0:0:0:
126,135,73008,6,0,P|128:209|40:280,1,176.000005371094,6|0,0:0|0:0,0:0:0:0:
31,176,73534,1,2,0:0:0:0:
173,285,73710,2,0,P|224:290|275:285,1,88.000002685547,8|0,0:0|0:0,0:0:0:0:
340,202,74060,1,2,0:0:0:0:
255,42,74236,6,0,P|246:89|249:150,1,88.000002685547,2|0,0:0|0:0,0:0:0:0:
467,190,74587,2,0,P|430:159|375:130,1,88.000002685547,8|0,0:0|0:0,0:0:0:0:
255,215,74938,1,2,0:0:0:0:
400,272,75113,1,8,0:0:0:0:
162,291,75289,2,0,P|159:231|265:227,1,176.000005371094,2|0,0:0|0:0,0:0:0:0:
160,377,75815,6,0,P|100:338|87:219,1,176.000005371094,6|0,0:0|0:0,0:0:0:0:
229,131,76341,1,2,0:0:0:0:
106,74,76517,1,8,0:0:0:0:
189,220,76692,1,2,0:0:0:0:
271,41,76868,5,6,0:0:0:0:
397,65,77043,2,0,L|384:258,1,176.000005371094,0|8,0:0|0:0,0:0:0:0:
458,366,77569,1,2,0:0:0:0:
475,204,77745,1,2,0:0:0:0:
477,168,77833,1,2,0:0:0:0:
479,133,77920,1,8,0:0:0:0:
281,173,78096,1,2,0:0:0:0:
472,241,78271,1,4,3:0:0:0:
424,50,78447,1,8,3:0:0:0:
366,268,78622,6,0,P|282:286|190:253,1,160,6|0,0:0|0:0,0:0:0:0:
101,198,79148,1,2,0:0:0:0:
174,336,79324,2,0,P|208:350|275:363,1,80,8|0,0:0|0:0,0:0:0:0:
372,237,79675,5,6,0:0:0:0:
294,147,79850,2,0,B|234:127|167:161|167:161|119:137,1,160,2|8,0:0|0:0,0:0:0:0:
48,90,80376,1,0,0:0:0:0:
78,241,80552,1,2,0:0:0:0:
174,77,80727,1,8,0:0:0:0:
216,239,80903,2,0,P|253:248|327:250,1,80,2|0,0:0|0:0,0:0:0:0:
379,166,81254,1,8,0:0:0:0:
327,339,81429,5,2,0:0:0:0:
403,144,81604,1,8,0:0:0:0:
403,144,81955,5,2,0:0:0:0:
251,261,82131,1,8,0:0:0:0:
165,168,82306,1,0,0:0:0:0:
270,104,82482,1,2,0:0:0:0:
247,295,82657,1,2,0:0:0:0:
205,173,82833,5,0,0:0:0:0:
147,314,83008,2,0,P|105:318|54:314,2,80,8|0|2,0:0|0:0|0:0,0:0:0:0:
282,181,83534,2,0,P|316:205|333:257,1,80,8|2,0:0|0:0,0:0:0:0:
429,368,83885,2,0,P|405:330|396:294,1,80,0|8,0:0|0:0,0:0:0:0:
410,267,84148,1,8,0:0:0:0:
427,240,84236,6,0,P|439:172|399:71,1,160,6|0,0:0|0:0,0:0:0:0:
243,192,84762,1,2,0:0:0:0:
211,198,84850,1,2,0:0:0:0:
179,205,84938,2,0,L|85:202,1,80,8|0,0:0|0:0,0:0:0:0:
142,355,85289,5,6,0:0:0:0:
230,282,85464,2,0,P|270:271|330:253,1,80,2|0,0:0|0:0,0:0:0:0:
391,149,85815,1,8,0:0:0:0:
276,183,85990,1,0,0:0:0:0:
420,135,86166,1,2,0:0:0:0:
462,298,86341,2,0,L|358:289,1,80,8|0,0:0|0:0,0:0:0:0:
252,158,86692,1,8,0:0:0:0:
297,305,86868,1,2,0:0:0:0:
330,106,87043,6,0,L|320:30,2,53.3333333333333,8|0|8,0:0|0:0|0:0,0:0:0:0:
409,157,87394,2,0,L|423:78,2,53.3333333333333,8|0|2,0:0|0:0|0:0,0:0:0:0:
361,233,87745,5,10,0:0:0:0:
185,215,87920,1,10,0:0:0:0:
301,91,88096,1,10,0:0:0:0:
266,313,88271,2,0,P|222:315|178:311,1,80,10|0,0:0|0:0,0:0:0:0:
