osu file format v14

[General]
AudioFilename: Aimer - Brave Shine.mp3
AudioLeadIn: 2000
PreviewTime: 55376
Countdown: 0
SampleSet: Soft
StackLeniency: 0.7
Mode: 0
LetterboxInBreaks: 0
WidescreenStoryboard: 0

[Editor]
DistanceSpacing: 1.4
BeatDivisor: 4
GridSize: 4
TimelineZoom: 1.7

[Metadata]
Title:Brave Shine (TV size)
TitleUnicode:Brave Shine (TV size)
Artist:Aimer
ArtistUnicode:Aimer
Creator:Saut
Version:Hard
Source:Fate/stay night [Unlimited Blade Works]
Tags:エメ eme aimerrhythm 2nd Season opening type-moon フェイト/ステイナイト DefSTAR RECORDS notes aniplex saber ufotable Hisashi Koyama Kenji Tamai Shogo Ohnishi
BeatmapID:674771
BeatmapSetID:300858

[Difficulty]
HPDrainRate:6
CircleSize:4
OverallDifficulty:6.5
ApproachRate:7.5
SliderMultiplier:2.8
SliderTickRate:1

[Events]
//Background and Video events
0,0,"bg.jpg",0,0
Video,-670,"vid.flv"
//Break Periods
//Storyboard Layer 0 (Background)
//Storyboard Layer 1 (Fail)
//Storyboard Layer 2 (Pass)
//Storyboard Layer 3 (Foreground)
//Storyboard Sound Samples

[TimingPoints]
26,701.754385964912,4,2,1,25,1,0
26,-125,4,2,1,25,0,0
1429,-125,4,2,1,30,0,0
1780,-125,4,2,1,35,0,0
2131,-125,4,2,1,40,0,0
2482,-125,4,2,1,45,0,0
2833,-125,4,2,1,35,0,0
3359,-125,4,2,1,50,0,0
4938,-166.666666666667,4,2,1,50,0,0
5640,-100,4,2,1,50,0,0
16517,-100,4,2,1,45,0,0
16692,-100,4,2,1,40,0,0
16868,-125,4,2,1,40,0,0
28096,-111.111111111111,4,2,1,45,0,0
32833,-111.111111111111,4,2,1,30,0,0
33008,-111.111111111111,4,2,1,45,0,0
38447,-111.111111111111,4,2,1,30,0,0
38622,-111.111111111111,4,2,1,45,0,0
39324,-142.857142857143,4,2,1,35,0,0
39499,-142.857142857143,4,2,0,35,0,0
42131,-142.857142857143,4,2,1,35,0,0
42306,-142.857142857143,4,2,0,35,0,0
44938,-142.857142857143,4,2,1,35,0,0
45113,-142.857142857143,4,2,0,35,0,0
47745,-142.857142857143,4,2,1,35,0,0
47920,-142.857142857143,4,2,0,35,0,0
50552,-125,4,2,1,40,0,0
53359,-100,4,2,99,60,0,0
55640,-100,4,2,1,75,0,0
56078,-100,4,2,1,45,0,0
56166,-90.9090909090909,4,2,1,90,0,1
56341,-90.9090909090909,4,2,1,85,0,1
58973,-90.9090909090909,4,2,1,90,0,1
59148,-90.9090909090909,4,2,1,85,0,1
61780,-90.9090909090909,4,2,1,90,0,1
61955,-90.9090909090909,4,2,1,85,0,1
65815,-90.9090909090909,4,2,1,75,0,0
67394,-90.9090909090909,4,2,1,90,0,1
67569,-90.9090909090909,4,2,1,85,0,1
70201,-90.9090909090909,4,2,1,90,0,1
70376,-90.9090909090909,4,2,1,85,0,1
73008,-90.9090909090909,4,2,1,90,0,1
73183,-90.9090909090909,4,2,1,85,0,1
75815,-90.9090909090909,4,2,1,90,0,1
75990,-90.9090909090909,4,2,1,85,0,1
76868,-90.9090909090909,4,2,1,90,0,1
77043,-90.9090909090909,4,2,1,85,0,1
78622,-100,4,2,1,90,0,0
78797,-100,4,2,1,75,0,0
87043,-100,4,2,1,50,0,0
87628,-100,4,2,1,75,0,0
88447,-100,4,2,1,35,0,0

[Colours]
Combo1 : 169,67,85
Combo2 : 173,188,179
Combo3 : 117,146,189
Combo4 : 248,248,120

[HitObjects]
442,149,26,6,0,L|445:72,1,56,2|2,0:0|0:0,0:0:0:0:
350,47,376,2,0,L|355:123,1,56,0|2,0:0|0:0,0:0:0:0:
365,190,727,1,8,0:0:0:0:
212,328,1078,2,0,L|202:254,1,56,2|2,0:0|0:0,0:0:0:0:
225,186,1429,5,0,0:0:0:0:
296,241,1604,2,0,L|292:327,1,56,8|2,0:0|0:0,0:0:0:0:
366,348,1955,1,2,0:0:0:0:
452,322,2131,1,8,0:0:0:0:
490,241,2306,2,0,P|490:210|485:186,1,56,2|0,0:0|0:0,0:0:0:0:
419,124,2657,1,2,0:0:0:0:
377,231,2833,5,4,3:0:0:0:
377,231,3008,1,4,3:0:0:0:
289,84,3359,1,2,0:0:0:0:
229,148,3534,1,8,0:0:0:0:
316,170,3710,1,2,0:0:0:0:
316,170,4061,5,2,0:0:0:0:
265,70,4236,2,0,P|222:61|145:160,1,168,8|0,0:0|0:0,0:0:0:0:
153,225,4938,6,0,B|139:255|116:264|116:264|142:325|99:368,1,167.999994873047,0|6,0:0|0:0,0:0:0:0:
42,305,5815,6,0,P|36:236|98:184,1,140,2|2,0:0|0:0,0:0:0:0:
153,225,6341,2,0,L|252:214,1,70,8|2,0:0|0:0,0:0:0:0:
295,252,6692,2,0,L|394:241,1,70,0|2,0:0|0:0,0:0:0:0:
429,189,7043,5,0,0:0:0:0:
489,246,7218,2,0,P|427:273|366:245,1,140,8|2,0:0|0:0,0:0:0:0:
323,169,7745,1,8,0:0:0:0:
323,85,7920,2,0,B|288:84|263:109|263:109|226:128|179:106,1,140,2|2,0:0|0:0,0:0:0:0:
97,45,8447,5,6,0:0:0:0:
69,123,8622,2,0,L|78:192,1,70,2|0,0:0|0:0,0:0:0:0:
149,238,8973,1,2,0:0:0:0:
171,318,9148,1,8,0:0:0:0:
100,364,9324,2,0,P|64:370|0:366,2,70,2|0|2,0:0|0:0|0:0,0:0:0:0:
199,302,9850,5,0,0:0:0:0:
262,247,10025,2,0,P|293:263|327:270,1,70,8|0,0:0|0:0,0:0:0:0:
409,253,10376,1,2,0:0:0:0:
327,349,10552,2,0,P|258:337|198:301,1,140,8|0,0:0|0:0,0:0:0:0:
185,218,11078,1,8,0:0:0:0:
248,108,11254,6,0,B|267:215|267:215|262:246,1,140,6|0,0:0|0:0,0:0:0:0:
199,302,11780,1,2,0:0:0:0:
121,333,11955,2,0,P|120:274|116:245,1,70,8|2,0:0|0:0,0:0:0:0:
43,224,12306,2,0,P|40:259|43:293,2,70,0|2|0,0:0|0:0|0:0,0:0:0:0:
84,134,12833,5,8,0:0:0:0:
84,134,13183,1,2,0:0:0:0:
160,170,13359,2,0,L|238:181,1,70,8|2,0:0|0:0,0:0:0:0:
311,161,13710,2,0,P|296:124|247:99,1,70,2|2,0:0|0:0,0:0:0:0:
213,211,14061,6,0,B|216:321|216:321|255:281,1,140,6|0,0:0|0:0,0:0:0:0:
294,237,14587,2,0,L|367:249,1,70,2|8,0:0|0:0,0:0:0:0:
447,248,14938,1,2,0:0:0:0:
403,175,15113,2,0,P|400:143|408:89,1,70,0|8,0:0|0:0,0:0:0:0:
435,27,15464,1,2,0:0:0:0:
352,41,15640,1,8,0:0:0:0:
320,118,15815,6,0,L|272:118,2,35,2|2|2,0:0|0:0|0:0,0:0:0:0:
376,180,16166,1,2,0:0:0:0:
433,240,16341,2,0,L|504:240,2,70,8|4|8,0:0|3:0|3:0,0:0:0:0:
338,335,16868,6,0,B|305:327|305:327|264:336|264:336|225:327,1,112,6|0,0:0|0:0,0:0:0:0:
149,299,17394,1,2,0:0:0:0:
124,218,17569,1,8,0:0:0:0:
206,237,17745,2,0,L|267:257,1,56
380,192,18096,6,0,P|351:199|323:196,1,56,2|0,0:0|0:0,0:0:0:0:
263,139,18447,1,8,0:0:0:0:
254,55,18622,2,0,P|307:68|342:111,1,112,2|8,0:0|0:0,0:0:0:0:
325,194,19148,1,2,0:0:0:0:
267,255,19324,2,0,P|296:273|336:277,1,56,0|8,0:0|0:0,0:0:0:0:
422,357,19675,6,0,P|364:348|308:358,1,112,2|0,0:0|0:0,0:0:0:0:
227,359,20201,2,0,P|200:360|166:352,1,56,2|8,0:0|0:0,0:0:0:0:
88,338,20552,2,0,P|81:304|68:273,1,56
24,174,20903,6,0,P|68:207|134:199,1,112,2|8,0:0|0:0,0:0:0:0:
156,128,21429,2,0,L|138:61,1,56,2|0,0:0|0:0,0:0:0:0:
190,6,21779,1,8,0:0:0:0:
232,79,21955,2,0,L|267:215,1,112,2|8,0:0|0:0,0:0:0:0:
362,237,22482,5,2,0:0:0:0:
338,156,22657,1,0,0:0:0:0:
317,74,22833,2,0,L|327:12,1,56,0|2,0:0|0:0,0:0:0:0:
409,16,23183,1,8,0:0:0:0:
434,96,23359,2,0,L|424:158,1,56,2|0,0:0|0:0,0:0:0:0:
332,239,23710,6,0,P|320:300|352:355,1,112,2|8,0:0|0:0,0:0:0:0:
423,334,24236,2,0,P|417:307|401:285,1,56,2|0,0:0|0:0,0:0:0:0:
328,234,24587,1,8,0:0:0:0:
247,255,24762,2,0,L|157:253,1,56,2|0,0:0|0:0,0:0:0:0:
114,219,25113,1,8,0:0:0:0:
153,328,25289,6,0,L|225:329,1,56,2|8,0:0|0:0,0:0:0:0:
252,251,25640,2,0,L|162:249,1,56,0|2,0:0|0:0,0:0:0:0:
119,216,25990,1,8,0:0:0:0:
44,176,26166,2,0,L|45:108,1,56
122,45,26517,6,0,B|122:129|122:129|158:116,1,112,2|8,0:0|0:0,0:0:0:0:
217,46,27043,2,0,B|243:36|243:36|243:120,1,112,2|8,0:0|0:0,0:0:0:0:
197,190,27569,1,2,0:0:0:0:
200,274,27745,2,0,P|241:276|264:272,1,56,2|2,0:0|0:0,0:0:0:0:
390,236,28096,6,0,B|489:248|489:248|511:271,1,125.999996154785,6|0,0:0|0:0,0:0:0:0:
438,332,28622,2,0,L|375:325,1,62.9999980773926,2|8,0:0|0:0,0:0:0:0:
309,256,28973,2,0,L|315:194,1,62.9999980773926,2|0,0:0|0:0,0:0:0:0:
401,85,29324,6,0,L|396:147,1,62.9999980773926,2|0,0:0|0:0,0:0:0:0:
311,188,29675,1,8,0:0:0:0:
247,118,29850,2,0,P|198:93|127:127,1,125.999996154785,2|8,0:0|0:0,0:0:0:0:
81,196,30376,2,0,P|78:229|68:257,1,62.9999980773926,2|0,0:0|0:0,0:0:0:0:
11,333,30727,1,8,0:0:0:0:
141,293,30903,6,0,L|211:301,1,62.9999980773926,2|0,0:0|0:3,0:0:0:0:
280,245,31254,2,0,L|350:253,1,62.9999980773926,0|2,0:0|0:0,0:0:0:0:
433,225,31604,1,8,0:0:0:0:
510,276,31780,2,0,P|489:299|462:314,1,62.9999980773926,2|0,0:0|0:0,0:0:0:0:
347,248,32131,6,0,L|284:240,1,62.9999980773926,2|0,0:0|0:0,0:0:0:0:
207,296,32482,2,0,L|145:289,1,62.9999980773926,2|2,0:0|0:0,0:0:0:0:
83,217,32833,2,0,L|31:227,2,31.4999990386963,8|8|8,0:0|0:0|0:0,0:0:0:0:
164,169,33183,2,0,P|208:179|238:178,1,62.9999980773926,2|0,0:0|0:0,0:0:0:0:
311,139,33534,1,8,0:0:0:0:
446,174,33710,6,0,L|433:247,1,62.9999980773926,2|0,0:0|0:0,0:0:0:0:
437,330,34061,2,0,P|389:300|318:307,1,125.999996154785,0|8,0:0|0:0,0:0:0:0:
240,354,34587,1,2,0:0:0:0:
172,287,34762,1,0,0:0:0:0:
230,161,34938,6,0,L|239:29,1,125.999996154785,2|8,0:0|0:0,0:0:0:0:
331,18,35464,2,0,L|342:155,1,125.999996154785,2|8,0:0|0:0,0:0:0:0:
347,238,35990,1,2,0:0:0:0:
316,327,36166,2,0,P|271:328|224:323,1,62.9999980773926,0|8,0:0|0:0,0:0:0:0:
117,307,36517,6,0,P|151:305|189:289,1,62.9999980773926,2|0,0:0|0:0,0:0:0:0:
228,214,36868,1,0,0:0:0:0:
240,120,37043,2,0,P|206:122|168:138,1,62.9999980773926,2|8,0:0|0:0,0:0:0:0:
228,214,37394,2,0,L|314:216,1,62.9999980773926,2|0,0:0|0:0,0:0:0:0:
442,164,37745,6,0,P|457:191|460:223,1,62.9999980773926,2|0,0:0|0:0,0:0:0:0:
416,306,38096,1,8,0:0:0:0:
321,301,38271,1,2,0:0:0:0:
278,216,38447,2,0,L|309:216,2,31.4999990386963,8|8|8,0:0|0:0|0:0,0:0:0:0:
288,122,38797,5,2,0:0:0:0:
217,58,38973,1,2,0:0:0:0:
125,78,39148,1,2,0:0:0:0:
82,166,39324,6,0,L|74:236,1,48.9999985046387,6|0,0:0|0:0,0:0:0:0:
155,218,39675,2,0,L|149:266,1,48.9999985046387
227,267,40025,2,0,L|219:337,1,48.9999985046387,2|0,0:0|0:0,0:0:0:0:
300,312,40376,5,2,0:0:0:0:
334,241,40552,1,0,0:0:0:0:
320,163,40727,1,0,0:0:0:0:
256,116,40903,2,0,P|292:88|343:88,1,97.9999970092774,0|2,0:0|0:0,0:0:0:0:
484,115,41604,2,0,P|448:143|397:143,1,97.9999970092774,2|0,0:0|0:0,0:0:0:0:
320,163,42131,6,0,L|269:204,1,48.9999985046387,4|0,0:0|0:0,0:0:0:0:
310,266,42482,2,0,L|361:225,1,48.9999985046387
410,283,42833,2,0,L|371:313,1,48.9999985046387,2|0,0:0|0:0,0:0:0:0:
300,345,43183,5,2,0:0:0:0:
237,297,43359,1,0,0:0:0:0:
244,219,43534,2,0,P|226:192|200:176,1,48.9999985046387
134,183,43885,1,0,0:0:0:0:
95,251,44061,2,0,P|98:278|94:311,1,48.9999985046387,2|0,0:0|0:0,0:0:0:0:
52,364,44411,2,0,P|28:338|27:261,1,97.9999970092774,2|0,0:0|0:0,0:0:0:0:
33,199,44938,6,0,L|25:141,1,48.9999985046387,4|0,0:0|0:0,0:0:0:0:
104,145,45289,2,0,L|96:87,1,48.9999985046387
175,99,45640,2,0,L|167:41,1,48.9999985046387,2|0,0:0|0:0,0:0:0:0:
246,58,45990,5,2,0:0:0:0:
313,98,46166,1,0,0:0:0:0:
381,135,46341,2,0,P|429:148|482:121,1,97.9999970092774
423,68,46868,1,2,0:0:0:0:
313,179,47218,2,0,L|300:286,1,97.9999970092774,2|0,0:0|0:0,0:0:0:0:
264,346,47745,6,0,P|313:320|369:336,1,97.9999970092774,4|0,0:0|0:0,0:0:0:0:
421,365,48271,2,0,L|432:267,1,97.9999970092774,2|0,0:0|0:0,0:0:0:0:
468,197,48797,2,0,P|419:223|363:207,1,97.9999970092774,2|0,0:0|0:0,0:0:0:0:
309,177,49324,6,0,L|249:182,1,48.9999985046387,2|0,0:0|0:0,0:0:0:0:
220,113,49675,2,0,L|268:109,2,48.9999985046387,2|2|2,0:0|0:0|0:0,0:0:0:0:
184,183,50201,2,0,L|136:187,1,48.9999985046387,2|2,0:0|0:0,0:0:0:0:
230,263,50552,6,0,P|286:288|353:285,1,112,6|0,0:0|0:0,0:0:0:0:
408,235,51078,1,2,0:0:0:0:
469,300,51254,2,0,P|445:315|418:322,1,56,8|0,0:0|0:0,0:0:0:0:
335,289,51604,1,0,0:0:0:0:
293,209,51780,6,0,L|311:88,1,112,2|8,0:0|0:0,0:0:0:0:
337,12,52306,1,2,0:0:0:0:
396,79,52482,2,0,L|387:139,1,56,2|8,0:0|0:0,0:0:0:0:
379,223,52833,1,8,3:0:0:0:
466,204,53008,1,2,0:0:0:0:
491,118,53183,1,4,3:0:0:0:
467,19,53359,5,10,0:0:0:0:
467,19,53534,1,10,0:0:0:0:
467,19,55640,5,2,0:0:0:0:
412,100,55815,2,0,L|427:232,1,105,8|0,0:0|0:0,0:0:0:0:
426,223,56166,6,0,P|361:198|276:238,1,154.000004699707,6|0,0:0|0:0,0:0:0:0:
260,325,56692,1,2,0:0:0:0:
358,302,56868,2,0,L|339:141,1,154.000004699707,8|2,0:0|0:0,0:0:0:0:
271,75,57394,1,2,0:0:0:0:
271,75,57745,5,8,0:0:0:0:
221,161,57920,2,0,P|182:169|145:171,1,77.0000023498536,0|2,0:0|0:0,0:0:0:0:
56,124,58271,1,8,0:0:0:0:
107,36,58447,2,0,P|153:96|145:171,1,154.000004699707,2|8,0:0|0:0,0:0:0:0:
43,280,58973,6,0,P|126:260|209:271,1,154.000004699707,6|0,0:0|0:0,0:0:0:0:
288,300,59499,1,2,0:0:0:0:
383,331,59675,2,0,P|420:330|472:324,1,77.0000023498536,8|0,0:0|0:0,0:0:0:0:
500,234,60025,1,2,0:0:0:0:
484,133,60201,6,0,P|419:170|400:243,1,154.000004699707,2|8,0:0|0:0,0:0:0:0:
459,325,60727,1,0,0:0:0:0:
359,337,60903,2,0,P|317:336|270:329,1,77.0000023498536,2|8,0:0|0:0,0:0:0:0:
185,304,61254,2,0,P|216:310|292:212,1,154.000004699707,2|8,0:0|0:0,0:0:0:0:
267,105,61780,6,0,P|245:162|305:236,1,154.000004699707,6|0,0:0|0:0,0:0:0:0:
393,246,62306,1,2,0:0:0:0:
477,300,62482,2,0,B|509:240|473:187|473:187|483:141,1,154.000004699707,8|2,0:0|0:0,0:0:0:0:
502,55,63008,1,2,0:0:0:0:
502,55,63359,5,8,0:0:0:0:
411,98,63534,2,0,P|362:91|312:77,1,77.0000023498536,0|2,0:0|0:0,0:0:0:0:
252,28,63885,2,0,L|150:40,1,77.0000023498536,8|2,0:0|0:0,0:0:0:0:
99,102,64236,1,0,0:0:0:0:
160,180,64411,6,0,B|148:287|148:287|106:249,1,154.000004699707,8|8,0:0|0:0,0:0:0:0:
41,184,64938,1,0,0:0:0:0:
25,282,65113,2,0,L|84:344,1,77.0000023498536,2|8,0:0|0:0,0:0:0:0:
176,358,65464,2,0,P|217:353|267:354,1,77.0000023498536,2|2,0:0|0:0,0:0:0:0:
353,352,65815,6,0,L|343:264,1,77.0000023498536,8|0,0:0|0:0,0:0:0:0:
251,237,66166,2,0,L|241:149,1,77.0000023498536,8|2,0:0|0:0,0:0:0:0:
148,124,66517,2,0,L|138:36,1,77.0000023498536,2|8,0:0|0:0,0:0:0:0:
238,61,66868,1,2,0:0:0:0:
242,160,67043,1,8,0:0:0:0:
167,226,67218,1,8,0:0:0:0:
292,310,67394,6,0,B|387:316|432:262,1,154.000004699707,6|0,0:0|0:0,0:0:0:0:
471,170,67920,1,2,0:0:0:0:
451,70,68096,2,0,P|388:110|371:184,1,154.000004699707,8|2,0:0|0:0,0:0:0:0:
432,263,68622,1,2,0:0:0:0:
432,263,68973,6,0,P|394:281|328:274,1,77.0000023498536,8|0,0:0|0:0,0:0:0:0:
285,214,69324,1,2,0:0:0:0:
270,312,69499,1,8,0:0:0:0:
191,250,69675,2,0,B|145:242|99:279|99:279|74:289|44:278,1,154.000004699707,2|8,0:0|0:0,0:0:0:0:
50,108,70201,6,0,B|79:147|68:209|68:209|87:196|112:187,1,154.000004699707,6|0,0:0|0:0,0:0:0:0:
210,168,70727,1,2,0:0:0:0:
309,153,70903,2,0,P|307:192|301:232,1,77.0000023498536,8|0,0:0|0:0,0:0:0:0:
272,325,71254,1,2,0:0:0:0:
369,303,71429,6,0,P|384:229|388:144,1,154.000004699707,2|8,0:0|0:0,0:0:0:0:
371,51,71955,1,0,0:0:0:0:
463,10,72131,2,0,P|472:47|465:85,1,77.0000023498536,2|8,0:0|0:0,0:0:0:0:
388,151,72482,2,0,L|207:159,1,154.000004699707,2|8,0:0|0:0,0:0:0:0:
113,251,73008,6,0,L|294:259,1,154.000004699707,6|0,0:0|0:0,0:0:0:0:
315,345,73534,1,2,0:0:0:0:
216,324,73710,2,0,P|185:246|242:178,1,154.000004699707,8|2,0:0|0:0,0:0:0:0:
306,143,74236,6,0,P|325:108|320:49,1,77.0000023498536,2|0,0:0|0:0,0:0:0:0:
248,8,74587,2,0,P|240:45|247:82,1,77.0000023498536,8|0,0:0|0:0,0:0:0:0:
288,174,74938,2,0,L|375:175,1,77.0000023498536,2|8,0:0|0:0,0:0:0:0:
464,164,75289,2,0,B|469:206|443:238|443:238|459:278|436:325,1,154.000004699707,2|0,0:0|0:0,0:0:0:0:
287,356,75815,6,0,P|280:286|349:272,1,154.000004699707,6|0,0:0|0:0,0:0:0:0:
447,316,76341,2,0,P|456:271|448:237,1,77.0000023498536,2|8,0:0|0:0,0:0:0:0:
365,172,76692,1,2,0:0:0:0:
493,135,76868,5,6,0:0:0:0:
431,56,77043,2,0,B|386:50|386:50|323:62|323:62|265:56,1,154.000004699707,0|8,0:0|0:0,0:0:0:0:
178,61,77569,2,0,P|184:98|207:130,1,77.0000023498536,2|2,0:0|0:0,0:0:0:0:
303,157,77920,1,8,0:0:0:0:
332,253,78096,1,2,0:0:0:0:
265,327,78271,1,4,3:0:0:0:
166,307,78447,1,8,3:0:0:0:
229,229,78622,6,0,P|164:205|100:228,1,140,6|0,0:0|0:0,0:0:0:0:
60,310,79148,1,2,0:0:0:0:
10,233,79324,2,0,L|5:159,1,70,8|0,0:0|0:0,0:0:0:0:
33,33,79675,6,0,P|74:123|183:109,1,210,6|8,0:0|0:0,0:0:0:0:
240,57,80376,2,0,P|275:60|309:71,1,70,0|2,0:0|0:0,0:0:0:0:
375,132,80727,1,8,0:0:0:0:
345,218,80903,2,0,L|369:306,1,70,2|0,0:0|0:0,0:0:0:0:
348,375,81254,1,8,0:0:0:0:
278,317,81429,5,2,0:0:0:0:
192,347,81604,1,8,0:0:0:0:
192,347,81955,5,2,0:0:0:0:
278,317,82131,2,0,P|270:275|259:249,1,70,8|2,0:0|0:0,0:0:0:0:
206,176,82482,2,0,P|197:139|198:101,1,70,2|2,0:0|0:0,0:0:0:0:
212,17,82833,5,0,0:0:0:0:
128,55,83008,2,0,P|117:124|127:193,1,140,8|2,0:0|0:0,0:0:0:0:
176,272,83534,2,0,P|137:283|84:275,1,70,8|2,0:0|0:0,0:0:0:0:
128,194,83885,2,0,P|167:183|220:191,1,70,0|8,0:0|0:0,0:0:0:0:
270,306,84236,6,0,P|337:326|407:322,1,140,6|0,0:0|0:0,0:0:0:0:
477,264,84762,1,2,0:0:0:0:
404,208,84938,2,0,P|396:171|405:135,1,70,8|0,0:0|0:0,0:0:0:0:
475,33,85289,6,0,B|486:133|486:133|479:172,1,140,6|0,0:0|0:0,0:0:0:0:
400,213,85815,1,8,0:0:0:0:
316,248,85990,2,0,L|315:320,1,70,0|2,0:0|0:0,0:0:0:0:
400,288,86341,2,0,L|397:219,1,70,8|0,0:0|0:0,0:0:0:0:
323,164,86692,1,8,0:0:0:0:
246,214,86868,1,2,0:0:0:0:
252,304,87043,6,0,L|258:378,2,46.6666666666667,8|0|8,0:0|0:0|0:0,0:0:0:0:
179,280,87394,2,0,L|174:326,2,46.6666666666667,8|0|2,0:0|0:0|0:0,0:0:0:0:
154,208,87745,6,0,P|123:227|106:279,2,70,10|10|10,0:0|0:0|0:0,0:0:0:0:
246,214,88271,2,0,P|240:174|214:139,1,70,10|0,0:0|0:0,0:0:0:0:
