osu file format v14

[General]
AudioFilename: Aimer - Brave Shine.mp3
AudioLeadIn: 2000
PreviewTime: 55376
Countdown: 0
SampleSet: Soft
StackLeniency: 0.7
Mode: 0
LetterboxInBreaks: 0
WidescreenStoryboard: 0

[Editor]
DistanceSpacing: 0.9
BeatDivisor: 8
GridSize: 8
TimelineZoom: 1.3

[Metadata]
Title:Brave Shine (TV size)
TitleUnicode:Brave Shine (TV size)
Artist:Aimer
ArtistUnicode:Aimer
Creator:Saut
Version:Easy
Source:Fate/stay night [Unlimited Blade Works]
Tags:エメ eme aimerrhythm 2nd Season opening type-moon フェイト/ステイナイト DefSTAR RECORDS notes aniplex saber ufotable Hisashi Koyama Kenji Tamai Shogo Ohnishi
BeatmapID:674770
BeatmapSetID:300858

[Difficulty]
HPDrainRate:2
CircleSize:2.9
OverallDifficulty:2
ApproachRate:3
SliderMultiplier:2
SliderTickRate:1

[Events]
//Background and Video events
0,0,"bg.jpg",0,0
Video,-670,"vid.flv"
//Break Periods
//Storyboard Layer 0 (Background)
//Storyboard Layer 1 (Fail)
//Storyboard Layer 2 (Pass)
//Storyboard Layer 3 (Foreground)
//Storyboard Sound Samples

[TimingPoints]
26,701.754385964912,4,2,1,25,1,0
1429,-100,4,2,1,30,0,0
1780,-100,4,2,1,35,0,0
2131,-100,4,2,1,40,0,0
2482,-100,4,2,1,45,0,0
2833,-100,4,2,1,35,0,0
3183,-100,4,2,1,50,0,0
16517,-100,4,2,1,45,0,0
16868,-100,4,2,1,40,0,0
28096,-100,4,2,1,45,0,0
39324,-100,4,2,1,35,0,0
50552,-100,4,2,1,40,0,0
53359,-100,4,2,99,60,0,0
55464,-100,4,2,1,75,0,0
56166,-100,4,2,1,85,0,1
65815,-100,4,2,1,75,0,0
67394,-100,4,2,1,85,0,1
78622,-100,4,2,1,75,0,0
88447,-100,4,2,1,35,0,0

[Colours]
Combo1 : 169,67,85
Combo2 : 173,188,179
Combo3 : 117,146,189
Combo4 : 248,248,120

[HitObjects]
456,93,26,6,0,L|347:101,1,100,2|0,0:0|0:0,0:0:0:0:
275,140,727,1,8,0:0:0:0:
202,193,1078,2,0,L|93:201,1,100,2|0,0:0|0:0,0:0:0:0:
16,228,1780,2,0,P|48:275|123:289,1,100,2|8,0:0|0:0,0:0:0:0:
176,285,2482,1,0,0:0:0:0:
265,272,2833,6,0,L|373:283,1,100,4|0,3:0|0:0,0:0:0:0:
447,247,3534,2,0,P|468:175|471:135,1,100,8|0,0:0|0:0,0:0:0:0:
443,64,4236,2,0,P|389:98|264:36,1,200,8|0,0:0|0:0,0:0:0:0:
186,210,5640,6,0,L|-6:216,2,150,6|2|0,0:0|0:0|0:0,0:0:0:0:
316,177,7218,2,0,L|302:367,1,150,8|8,0:0|0:0,0:0:0:0:
383,371,8096,1,0,0:0:0:0:
447,308,8447,6,0,L|461:107,1,200,6|8,0:0|0:0,0:0:0:0:
387,56,9499,1,0,0:0:0:0:
303,89,9850,2,0,P|245:96|184:97,1,100,0|0,0:0|0:0,0:0:0:0:
114,80,10552,2,0,P|118:133|155:174,1,100,8|0,0:0|0:0,0:0:0:0:
217,223,11254,6,0,L|409:229,2,150,6|2|0,0:0|0:0|0:0,0:0:0:0:
114,310,12833,2,0,L|263:316,1,150,8|8,0:0|0:0,0:0:0:0:
329,254,13710,1,2,0:0:0:0:
374,176,14061,6,0,L|365:48,1,100,6|0,0:0|0:0,0:0:0:0:
283,43,14762,1,8,0:0:0:0:
201,80,15113,2,0,P|122:70|43:32,2,150,0|8|2,0:0|0:0|0:0,0:0:0:0:
291,78,16517,1,4,3:0:0:0:
372,40,16868,6,0,P|338:118|375:229,1,200,6|8,0:0|0:0,0:0:0:0:
438,340,18096,2,0,P|363:356|280:322,1,150,2|2,0:0|0:0,0:0:0:0:
218,285,18973,2,0,P|170:273|121:280,1,100,8|0,0:0|0:0,0:0:0:0:
36,309,19675,6,0,B|21:247|65:211|65:211|83:164|57:120,1,200,2|8,0:0|0:0,0:0:0:0:
149,22,20903,1,2,0:0:0:0:
222,73,21254,2,0,P|243:144|238:219,1,150,8|8,0:0|0:0,0:0:0:0:
190,294,22131,1,0,0:0:0:0:
263,345,22482,6,0,B|277:300|277:300|329:274|336:206|328:148,1,200,2|8,0:0|0:0,0:0:0:0:
465,151,23710,2,0,P|466:230|442:312,1,150,2|2,0:0|0:0,0:0:0:0:
375,351,24587,2,0,P|322:336|250:332,1,100,8|0,0:0|0:0,0:0:0:0:
187,343,25289,2,0,P|223:300|220:216,1,100,2|0,0:0|0:0,0:0:0:0:
173,188,25990,2,0,L|189:127,1,50,8|0,0:0|0:0,0:0:0:0:
202,52,26517,2,0,L|356:65,1,150,2|2,0:0|0:0,0:0:0:0:
401,139,27394,2,0,P|379:194|372:264,1,100,8|2,0:0|0:0,0:0:0:0:
388,322,28096,6,0,B|426:325|455:284|455:284|460:214|485:168,1,200,6|8,0:0|0:0,0:0:0:0:
508,36,29324,2,0,P|450:56|337:29,1,150,2|2,0:0|0:0,0:0:0:0:
273,44,30201,2,0,L|165:60,1,100,8|0,0:0|0:0,0:0:0:0:
121,132,30903,6,0,L|124:182,1,50,2|0,0:0|0:3,0:0:0:0:
161,264,31429,2,0,P|109:268|60:240,2,100,2|2|2,0:0|0:0|0:0,0:0:0:0:
247,237,32482,2,0,P|325:233|399:280,1,150,2|8,0:0|0:0,0:0:0:0:
457,321,33359,1,0,0:0:0:0:
504,244,33710,6,0,B|480:203|454:180|454:180|487:121|456:46,1,200,2|8,0:0|0:0,0:0:0:0:
327,67,34938,2,0,B|308:115|332:177|332:177|307:218,1,150,2|2,0:0|0:0,0:0:0:0:
263,284,35815,2,0,P|308:299|367:282,1,100,8|0,0:0|0:0,0:0:0:0:
418,220,36517,6,0,P|430:171|409:112,1,100,2|0,0:0|0:0,0:0:0:0:
332,93,37218,2,0,L|318:24,1,50,8|2,0:0|0:0,0:0:0:0:
231,27,37745,2,0,P|166:43|73:12,1,150,2|2,0:0|0:0,0:0:0:0:
66,109,38622,2,0,P|76:160|103:216,1,100,8|2,0:0|0:0,0:0:0:0:
176,245,39324,6,0,P|246:236|387:308,1,200,6|2,0:0|0:0,0:0:0:0:
428,347,40376,2,0,B|385:261|443:111|443:111|431:44,1,300,2|0,0:0|0:0,0:0:0:0:
253,56,42131,6,0,P|192:80|269:139,1,200,4|2,0:0|0:0,0:0:0:0:
337,94,43183,2,0,B|391:95|391:95|345:244|375:336,1,300,2|0,0:0|0:0,0:0:0:0:
201,334,44938,6,0,P|214:233|191:110,1,200,4|2,0:0|0:0,0:0:0:0:
149,61,45990,2,0,B|213:19|278:68|287:115|287:115|294:165|358:198|412:171,1,300,2|0,0:0|0:0,0:0:0:0:
275,326,47745,6,0,P|218:298|162:215,2,150,4|2|2,0:0|0:0|0:0,0:0:0:0:
95,336,49499,2,0,P|46:229|58:133,1,200,0|2,0:0|0:0,0:0:0:0:
96,70,50552,6,0,P|176:110|294:95,1,200,6|8,0:0|0:0,0:0:0:0:
412,58,51780,2,0,L|408:215,1,150,2|2,0:0|0:0,0:0:0:0:
396,297,52657,2,0,P|349:276|320:224,1,100,8|2,0:0|0:0,0:0:0:0:
315,146,53359,6,0,L|239:152,1,50,10|10,0:0|0:0,0:0:0:0:
223,256,55464,6,0,L|90:260,1,100,0|8,0:0|0:0,0:0:0:0:
89,175,56166,6,0,B|248:169|248:169|296:195,1,200,6|8,0:0|0:0,0:0:0:0:
351,247,57218,2,0,P|419:223|484:110,1,200,2|0,0:0|0:0,0:0:0:0:
434,41,58271,2,0,L|320:70,1,100,8|0,0:0|0:0,0:0:0:0:
281,136,58973,6,0,P|217:120|156:91,1,100,6|0,0:0|0:0,0:0:0:0:
95,110,59675,2,0,P|116:181|108:260,1,150,8|2,0:0|0:0,0:0:0:0:
59,331,60552,2,0,P|98:311|209:317,1,150,8|8,0:0|0:0,0:0:0:0:
280,270,61429,1,0,0:0:0:0:
338,201,61780,6,0,B|339:131|288:68|288:68|354:68,1,200,6|8,0:0|0:0,0:0:0:0:
417,118,62833,2,0,B|446:204|419:258|419:258|431:335,1,200,2|0,0:0|0:0,0:0:0:0:
348,356,63885,2,0,L|234:350,1,100,8|0,0:0|0:0,0:0:0:0:
175,296,64587,6,0,P|120:304|46:309,1,100,2|0,0:0|0:0,0:0:0:0:
101,221,65289,2,0,P|155:212|262:208,1,150,8|8,0:0|0:0,0:0:0:0:
335,180,66166,2,0,P|387:111|384:40,1,150,8|8,0:0|0:0,0:0:0:0:
472,21,67043,1,8,0:0:0:0:
479,109,67394,6,0,B|466:204|400:248|400:248|402:312,1,200,6|8,0:0|0:0,0:0:0:0:
380,370,68447,2,0,B|319:355|319:355|307:213,1,200,2|0,0:0|0:0,0:0:0:0:
337,133,69499,2,0,P|288:136|215:124,1,100,8|0,0:0|0:0,0:0:0:0:
149,110,70201,6,0,P|158:191|136:230,1,100,6|0,0:0|0:0,0:0:0:0:
121,291,70903,2,0,P|129:340|224:330,1,150,8|2,0:0|0:0,0:0:0:0:
271,273,71780,2,0,P|354:285|423:277,1,150,8|8,0:0|0:0,0:0:0:0:
470,203,72657,1,0,0:0:0:0:
461,114,73008,6,0,L|346:124,1,100,6|0,0:0|0:0,0:0:0:0:
293,182,73710,2,0,P|228:170|142:169,1,150,8|2,0:0|0:0,0:0:0:0:
63,208,74587,1,8,0:0:0:0:
8,279,74938,2,0,P|78:297|137:256,1,150,2|0,0:0|0:0,0:0:0:0:
162,168,75815,6,0,L|163:65,1,100,6|0,0:0|0:0,0:0:0:0:
253,57,76517,1,8,0:0:0:0:
320,116,76868,2,0,L|478:119,2,150,6|8|8,0:0|0:0|0:0,0:0:0:0:
255,178,78271,1,4,3:0:0:0:
283,264,78622,5,6,0:0:0:0:
256,192,78973,12,2,82482,0:0:0:0:
256,192,84236,5,6,0:0:0:0:
256,192,84587,12,0,88447,0:0:0:0:
