osu file format v14

[General]
AudioFilename: brave shine.mp3
AudioLeadIn: 0
PreviewTime: 55982
Countdown: 0
SampleSet: Soft
StackLeniency: 0.7
Mode: 0
LetterboxInBreaks: 0
WidescreenStoryboard: 0

[Editor]
DistanceSpacing: 1
BeatDivisor: 4
GridSize: 4
TimelineZoom: 1.9

[Metadata]
Title:Brave Shine (TV size)
TitleUnicode:Brave Shine (TV size)
Artist:Aimer
ArtistUnicode:Aimer
Creator:Chloe
Version:Normal
Source:Fate/stay night [Unlimited Blade Works]
Tags:z1085684963 op opening IamKwaN
BeatmapID:674691
BeatmapSetID:300626

[Difficulty]
HPDrainRate:3.5
CircleSize:3
OverallDifficulty:3.5
ApproachRate:5
SliderMultiplier:2.4
SliderTickRate:2

[Events]
//Background and Video events
0,0,"fsN.jpg",0,0
Video,0,"vidyer.avi"
//Break Periods
//Storyboard Layer 0 (Background)
//Storyboard Layer 1 (Fail)
//Storyboard Layer 2 (Pass)
//Storyboard Layer 3 (Foreground)
//Storyboard Sound Samples

[TimingPoints]
544,701.754385964912,4,1,0,40,1,0
894,-100,4,1,0,30,0,0
6158,-100,4,2,0,60,0,0
17386,-100,4,2,0,40,0,0
50543,-100,4,2,0,30,0,0
50719,-100,4,2,0,35,0,0
50894,-100,4,2,0,40,0,0
53877,-100,4,2,0,60,0,0
55982,-100,4,2,0,40,0,0
56684,-100,4,2,0,70,0,0
56859,-100,4,2,0,45,0,0
57386,-100,4,2,0,70,0,0
59666,-100,4,2,0,65,0,0
60017,-100,4,2,0,70,0,0
65894,-100,4,1,0,45,0,0
66333,-100,4,2,0,70,0,0
88965,-100,4,2,0,20,0,0

[Colours]
Combo1 : 230,254,171
Combo2 : 78,183,188

[HitObjects]
56,152,544,6,0,L|200:132,1,120,0|0,0:0|2:0,0:0:0:0:
292,116,1245,1,0,1:0:0:0:
252,228,1596,6,0,L|244:292,1,60,0|0,0:0|0:0,0:0:0:0:
260,344,1947,2,0,P|296:356|336:368,1,60,0|0,2:0|0:0,0:0:0:0:
376,352,2298,2,0,L|432:352|500:352,1,120,0|0,0:0|0:0,0:0:0:0:
456,240,3000,1,0,0:0:0:0:
512,132,3351,6,0,L|516:64,1,60,0|0,0:0|0:0,0:0:0:0:
412,16,3877,2,0,L|408:75,1,60,0|0,0:0|0:0,0:0:0:0:
304,140,4403,2,0,L|176:136,1,120,0|0,2:0|1:0,0:0:0:0:
36,324,5456,6,0,B|24:288|24:288|236:308,1,240,0|4,2:0|1:0,0:0:0:0:
402,338,6684,6,0,L|414:253,1,60,0|2,1:3|1:3,1:3:0:0:
421,219,7035,1,0,1:0:0:0:
323,149,7386,6,0,L|251:156,1,60,0|0,1:0|0:0,0:0:0:0:
204,168,7736,2,0,P|184:120|192:40,1,120,2|0,1:3|0:0,0:0:0:0:
224,4,8263,1,2,1:3:0:0:
332,56,8614,6,0,L|412:48,1,60,2|0,0:3|0:0,0:0:0:0:
452,44,8965,2,0,L|476:284,1,240,4|2,0:1|1:3,0:0:0:0:
456,340,9842,1,0,1:0:0:0:
340,376,10193,6,0,L|264:368,1,60,2|0,1:3|0:0,0:0:0:0:
232,336,10543,2,0,P|140:324|52:356,1,180,2|2,1:3|1:3,0:0:0:0:
96,236,11421,6,0,L|100:164,1,60,0|0,1:0|0:0,0:0:0:0:
108,116,11772,2,0,P|200:128|288:96,1,180,4|0,0:2|1:0,0:0:0:0:
308,48,12473,1,2,1:3:0:0:
404,120,12824,6,0,L|400:188,1,60,0|0,0:0|1:0,0:0:0:0:
384,236,13175,2,0,P|396:288|408:308,1,60,0|2,0:0|1:3,0:0:0:0:
308,372,13701,5,0,1:1:0:0:
260,336,13877,2,0,P|200:328|136:336,1,120,2|2,1:3|1:3,0:0:0:0:
88,360,14403,2,0,L|0:352,1,60,2|4,0:3|0:1,0:0:0:0:
16,236,14929,6,0,L|75:241,1,60,0|0,0:0|1:0,0:0:0:0:
132,220,15280,2,0,P|152:164|132:80,1,120,2|0,1:3|0:0,0:0:0:0:
112,52,15807,2,0,L|184:40,1,60,2|0,1:3|0:0,0:0:0:0:
232,28,16158,5,2,1:3:0:0:
404,80,16684,2,0,P|436:128|436:216,1,120,2|0,1:3|1:0,0:0:0:0:
400,300,17386,5,4,1:2:0:0:
284,264,17736,2,0,L|204:276,1,60,0|0,0:0|1:0,0:0:0:0:
184,316,18087,2,0,P|128:332|48:320,1,120,2|0,1:3|0:0,0:0:0:0:
20,292,18614,1,0,1:0:0:0:
92,196,18965,5,2,1:3:0:0:
92,136,19140,2,0,P|80:92|69:58,1,60,0|0,1:0|0:0,0:0:0:0:
100,24,19491,2,0,P|168:16|224:20,1,120,2|0,1:3|0:0,0:0:0:0:
284,120,20193,6,0,P|343:123|403:115,1,120,0|0,1:0|0:0,0:0:0:0:
448,156,20719,1,0,1:0:0:0:
476,208,20894,2,0,L|472:280,1,60,2|0,1:3|0:0,0:0:0:0:
388,356,21421,5,0,1:3:0:0:
284,292,21772,2,0,L|212:300,1,60,2|0,1:3|1:3,0:0:0:0:
116,244,22298,2,0,P|112:216|112:168,1,60,2|0,1:3|1:3,0:0:0:0:
180,84,22824,1,0,1:0:0:0:
232,116,23000,6,0,L|304:120,1,60,0|0,1:0|0:0,0:0:0:0:
344,88,23351,2,0,P|404:76|480:80,1,120,0|2,0:0|1:3,0:0:0:0:
508,116,23877,1,0,1:0:0:0:
448,220,24228,6,0,P|444:252|432:344,1,120,0|2,1:0|1:3,0:0:0:0:
376,356,24754,2,0,P|319:353|303:354,1,60,0|0,1:0|0:0,0:0:0:0:
256,368,25105,2,0,P|224:368|175:361,1,60,2|0,1:3|1:0,0:0:0:0:
72,236,25807,6,0,L|80:172,1,60,0|0,1:0|0:0,0:0:0:0:
108,124,26158,1,2,0:0:0:0:
212,184,26508,2,0,P|272:192|340:188,1,120,2|0,1:3|0:0,0:0:0:0:
388,168,27035,1,0,1:0:0:0:
436,136,27210,2,0,P|448:64|448:4,1,120,2|0,0:0|1:0,0:0:0:0:
332,52,27912,6,0,L|196:64,1,120,4|2,1:2|0:0,0:0:0:0:
160,88,28438,1,2,0:0:0:0:
116,128,28614,2,0,P|100:192|112:248,1,120,4|0,1:0|0:1,0:0:0:0:
200,324,29315,6,0,L|280:316,1,60,2|2,1:3|1:1,0:0:0:0:
319,320,29666,1,0,0:1:0:0:
378,329,29842,2,0,L|458:321,1,60,2|0,1:0|0:0,0:0:0:0:
497,318,30193,2,0,P|509:258|501:182,1,120,2|0,1:3|0:0,0:0:0:0:
476,148,30719,1,2,1:3:0:0:
384,72,31070,6,0,L|304:84,1,60,0|0,0:1|1:0,0:0:0:0:
283,124,31421,2,0,L|294:256,1,120,2|0,1:0|0:0,0:0:0:0:
246,282,31947,2,0,P|190:306|110:302,1,120,2|0,1:0|1:0,0:0:0:0:
31,240,32649,6,0,L|21:112,1,120,2|0,1:0|1:0,0:0:0:0:
120,52,33351,2,0,L|196:36,1,60,0|2,1:0|1:3,0:0:0:0:
236,56,33701,2,0,P|288:76|360:72,1,120,2|0,0:1|1:0,0:0:0:0:
404,40,34228,5,0,1:0:0:0:
500,112,34579,2,0,L|500:180,1,60,0|2,0:0|1:0,0:0:0:0:
476,228,34929,2,0,P|496:284|480:344,1,120,2|0,1:3|1:0,0:0:0:0:
432,372,35456,1,2,1:0:0:0:
320,324,35807,6,0,L|248:328,1,60,2|2,1:3|1:1,0:0:0:0:
152,384,36333,2,0,P|140:328|164:252,1,120,0|0,1:1|0:0,0:0:0:0:
184,216,36859,1,0,0:0:0:0:
148,168,37035,6,0,L|12:176,1,120,2|0,1:0|0:0,0:0:0:0:
44,56,37736,2,0,L|163:48,1,120,2|0,1:3|0:0,0:0:0:0:
224,44,38263,1,0,1:0:0:0:
256,192,38438,12,4,39842,1:2:0:0:
312,60,41245,6,0,L|324:180,1,120,0|0,0:0|0:2,0:0:0:0:
444,168,41947,2,0,L|456:288,1,120,0|0,0:2|0:2,0:0:0:0:
356,356,42649,6,0,L|236:368,1,120,0|0,0:0|0:0,0:0:0:0:
160,272,43351,2,0,L|40:284,1,120,2|2,0:0|0:0,0:0:0:0:
72,168,44052,6,0,P|64:108|76:36,1,120,0|0,0:0|0:0,0:0:0:0:
192,52,44754,2,0,P|200:112|188:184,1,120,0|0,0:0|0:0,0:0:0:0:
132,276,45456,6,0,L|140:352,1,60,4|0,0:1|0:0,0:0:0:0:
192,364,45807,2,0,L|272:372,1,60,0|0,0:0|0:0,0:0:0:0:
312,356,46158,1,2,3:2:0:0:
364,248,46508,6,0,L|444:256,1,60,2|0,3:2|0:0,0:0:0:0:
484,240,46859,1,0,0:0:0:0:
448,124,47210,6,0,L|452:56,1,60,0|2,0:0|0:0,0:0:0:0:
404,28,47561,2,0,L|328:24,1,60,0|2,0:0|0:0,0:0:0:0:
288,44,47912,1,0,0:0:0:0:
176,84,48263,6,0,L|100:80,1,60,4|0,0:0|0:0,0:0:0:0:
60,100,48614,1,0,0:0:0:0:
140,188,48965,6,0,L|148:252,1,60,2|0,0:0|0:0,0:0:0:0:
204,264,49315,2,0,L|196:336,1,60,4|2,0:0|0:0,0:0:0:0:
164,376,49666,1,0,0:0:0:0:
283,370,50017,6,0,L|475:362,1,180,0|0,1:0|3:0,0:0:0:0:
502,316,50719,2,0,L|495:230,1,60,0|0,3:0|3:0,0:0:0:0:
481,197,51070,5,4,1:2:0:0:
374,252,51421,2,0,L|295:256,1,60,0|2,0:0|0:0,0:0:0:0:
263,221,51772,2,0,P|254:163|257:100,1,120,2|0,1:3|0:0,0:0:0:0:
279,46,52298,1,2,1:3:0:0:
386,100,52649,6,0,L|471:94,1,60,0|0,1:0|1:0,0:0:0:0:
505,199,53175,2,0,L|445:203,1,60,2|0,1:3|1:0,0:0:0:0:
391,229,53526,2,0,P|348:246|266:244,1,120,2|0,1:3|1:0,0:0:0:0:
219,222,54052,1,0,1:0:0:0:
30,94,55982,6,0,L|165:86,1,120,0|2,0:0|1:3,0:0:0:0:
239,167,56684,6,0,P|221:242|227:307,1,120,4|0,1:2|0:0,0:0:0:0:
256,334,57210,1,2,1:1:0:0:
305,368,57386,1,2,1:3:0:0:
424,356,57736,6,0,P|472:344|492:341,1,60,0|2,1:2|1:0,0:0:0:0:
501,285,58087,1,0,0:0:0:0:
455,245,58263,2,0,P|429:164|431:114,1,120,2|0,1:3|1:0,0:0:0:0:
463,80,58789,2,0,L|472:12,1,60,2|2,1:3|1:1,0:0:0:0:
350,17,59315,6,0,L|342:76,1,60,0|2,1:1|1:0,0:0:0:0:
291,109,59666,2,0,L|162:96,1,120,2|0,1:3|1:0,0:0:0:0:
123,60,60193,1,2,1:0:0:0:
52,156,60543,6,0,L|60:230,1,60,2|2,1:3|1:0,0:0:0:0:
98,260,60894,1,0,0:0:0:0:
146,295,61070,2,0,P|224:312|274:322,1,120,2|2,1:0|0:1,0:0:0:0:
323,317,61596,2,0,L|309:385,1,60,2|2,1:3|0:1,0:0:0:0:
430,372,62122,5,2,1:0:0:0:
470,327,62298,2,0,P|489:259|491:204,1,120,4|2,0:1|0:1,0:0:0:0:
470,153,62824,1,2,0:1:0:0:
420,118,63000,2,0,P|348:133|293:148,1,120,2|0,1:3|1:0,0:0:0:0:
246,126,63526,2,0,P|228:75|228:54,1,60,2|0,1:0|0:0,0:0:0:0:
262,20,63877,2,0,L|327:22,1,60,2|2,1:3|1:0,0:0:0:0:
441,33,64403,6,0,P|461:88|451:160,1,120,2|0,1:3|0:0,0:0:0:0:
428,201,64929,2,0,L|306:218,1,120,2|2,1:0|1:3,0:0:0:0:
257,249,65456,1,2,0:1:0:0:
214,290,65631,2,0,L|229:369,1,60,2|2,1:3|1:0,0:0:0:0:
106,327,66158,6,0,L|94:268,1,60,2|2,0:0|1:1,0:0:0:0:
109,209,66508,1,0,0:1:0:0:
137,156,66684,2,0,P|193:142|262:150,1,120,2|2,1:1|1:3,0:0:0:0:
310,169,67210,2,0,L|294:252,1,60,2|2,1:0|1:3,0:0:0:0:
319,284,67561,2,0,L|385:304,1,60,2|2,1:0|1:3,0:0:0:0:
435,291,67912,1,4,1:2:0:0:
462,173,68263,6,0,L|476:115,1,60,2|2,0:1|1:0,0:0:0:0:
424,83,68614,2,0,P|369:66|284:67,1,120,2|2,1:3|1:0,0:0:0:0:
253,90,69140,2,0,P|189:86|128:103,1,120,2|2,1:0|1:3,0:0:0:0:
94,144,69666,2,0,L|104:219,1,60,0|2,0:0|1:0,0:0:0:0:
139,250,70017,2,0,L|149:325,1,60,2|0,1:3|0:0,0:0:0:0:
254,362,70543,6,0,P|326:373|399:373,1,120,2|2,1:0|1:3,0:0:0:0:
422,339,71070,2,0,L|441:279,1,60,2|2,0:1|1:0,0:0:0:0:
421,224,71421,2,0,P|406:177|421:97,1,120,2|2,1:3|1:1,0:0:0:0:
452,60,71947,1,2,1:0:0:0:
332,45,72298,6,0,L|194:33,1,120,2|2,1:3|1:0,0:0:0:0:
152,25,72824,2,0,P|135:82|132:145,1,120,2|0,1:3|0:0,0:0:0:0:
169,189,73351,1,2,1:3:0:0:
222,215,73526,6,0,L|347:201,1,120,4|2,1:2|0:1,0:0:0:0:
395,227,74052,2,0,P|407:275|411:312,1,60,2|2,1:0|1:3,0:0:0:0:
400,344,74403,1,0,1:0:0:0:
348,375,74579,2,0,L|284:385,1,60,2|2,1:0|0:3,0:0:0:0:
185,322,75105,6,0,L|56:340,1,120,2|2,1:0|1:0,0:0:0:0:
37,285,75631,2,0,L|27:211,1,60,2|2,1:3|1:1,0:0:0:0:
0,176,75982,2,0,P|5:142|26:94,1,60,0|0,0:0|1:0,0:0:0:0:
57,76,76333,1,4,1:2:0:0:
168,31,76684,6,0,L|245:38,1,60,0|2,0:0|1:0,0:0:0:0:
283,58,77035,2,0,P|329:73|414:48,1,120,2|4,1:3|1:2,0:0:0:0:
447,25,77561,1,2,0:1:0:0:
256,192,77736,12,2,79842,1:3:0:0:
256,192,80543,12,2,84052,1:3:0:0:
191,115,84754,6,0,P|249:94|441:133,1,240,4|2,1:2|1:3,0:0:0:0:
453,170,85631,1,0,0:0:0:0:
469,230,85807,2,0,L|461:304,1,60,4|0,1:2|1:0,0:0:0:0:
335,340,86333,6,0,L|341:280,1,60,2|0,1:3|1:0,0:0:0:0:
287,253,86684,1,0,0:0:0:0:
231,233,86859,2,0,L|223:307,1,60,2|0,1:3|0:0,0:0:0:0:
185,338,87210,2,0,P|127:334|96:329,1,60,2|0,1:3|1:0,0:0:0:0:
69,311,87561,1,0,1:0:0:0:
256,192,87736,12,0,88965,0:0:0:0:
