osu file format v12

[General]
AudioFilename: Fallen Angel (TV Size).mp3
AudioLeadIn: 3000
PreviewTime: 30300
Countdown: 0
SampleSet: None
StackLeniency: 0.6
Mode: 3
LetterboxInBreaks: 0
StoryFireInFront: 0

[Editor]
DistanceSpacing: 0
BeatDivisor: 8
GridSize: 4

[Metadata]
Title:Fallen Angel (TV Size)
TitleUnicode:Fallen Angel (TV Size)
Artist:Aimee B
ArtistUnicode:Aimee B
Creator:xxbidiao
Version:Hard
Source:Panty & Stocking with Garterbelt
Tags:Matsunori ikeda
BeatmapID:199456
BeatmapSetID:68788

[Difficulty]
HPDrainRate:6
CircleSize:4
OverallDifficulty:10
ApproachRate:0
SliderMultiplier:2.1
SliderTickRate:2

[Events]
//Background and Video events
0,0,"BG.jpg",0,0
//Break Periods
//Storyboard Layer 0 (Background)
//Storyboard Layer 1 (Fail)
//Storyboard Layer 2 (Pass)
//Storyboard Layer 3 (Foreground)
//Storyboard Sound Samples
//Background Colour Transformations
3,100,163,162,255

[TimingPoints]
1100,631.578947368421,4,3,0,50,1,0
11223,-100,4,3,0,20,0,0
31415,-100,4,3,0,50,0,1
50626,-100,4,3,0,20,0,0

[Colours]
Combo1 : 209,242,140
Combo2 : 255,255,128
Combo3 : 43,56,104
Combo4 : 239,141,241

[HitObjects]
64,200,1099,1,0,0:0:0:0:
448,196,1414,1,0,0:0:0:0:
64,200,1730,1,0,0:0:0:0:
448,196,2046,1,0,0:0:0:0:
64,200,2362,1,0,0:0:0:0:
448,196,2677,1,0,0:0:0:0:
64,200,2993,1,0,0:0:0:0:
448,196,3309,1,0,0:0:0:0:
192,200,3625,1,0,0:0:0:0:
320,196,3941,1,0,0:0:0:0:
192,200,4256,1,0,0:0:0:0:
320,196,4572,1,0,0:0:0:0:
192,200,4888,1,0,0:0:0:0:
320,196,5204,1,0,0:0:0:0:
448,200,5362,1,4,0:0:0:0:
192,200,5520,1,4,0:0:0:0:
64,208,5520,1,0,0:0:0:0:
448,200,5677,1,4,0:0:0:0:
320,196,5835,1,4,0:0:0:0:
64,208,5835,1,0,0:0:0:0:
64,312,6151,1,8,0:0:0:0:
192,304,6151,1,0,0:0:0:0:
320,304,6467,1,0,0:0:0:0:
448,312,6783,1,8,0:0:0:0:
192,304,6783,1,0,0:0:0:0:
64,312,7099,1,8,0:0:0:0:
320,304,7099,1,0,0:0:0:0:
192,304,7414,1,0,0:0:0:0:
448,312,7414,1,8,0:0:0:0:
320,304,7730,1,0,0:0:0:0:
448,312,8046,1,8,0:0:0:0:
192,304,8046,1,0,0:0:0:0:
320,304,8362,1,0,0:0:0:0:
64,220,8677,1,0,0:0:0:0:
192,192,8677,128,0,8993:0:0:0:0:
448,216,8993,1,0,0:0:0:0:
64,220,9309,1,0,0:0:0:0:
320,192,9309,128,0,9625:0:0:0:0:
448,216,9625,1,0,0:0:0:0:
64,220,9941,1,0,0:0:0:0:
192,192,9941,128,0,10256:0:0:0:0:
448,216,10256,1,0,0:0:0:0:
320,312,10730,1,8,0:0:0:0:
320,316,10889,1,8,0:0:0:0:
320,312,11046,1,8,0:0:0:0:
64,312,11204,1,0,0:0:0:0:
448,136,11204,1,0,0:0:0:0:
192,312,11520,1,0,0:0:0:0:
448,308,11835,1,0,0:0:0:0:
320,312,11835,1,0,0:0:0:0:
192,224,11993,1,0,0:0:0:0:
64,312,12151,1,0,0:0:0:0:
320,224,12151,1,0,0:0:0:0:
448,228,12309,1,0,0:0:0:0:
64,192,12467,1,0,0:0:0:0:
192,308,12783,1,0,0:0:0:0:
448,308,13099,1,0,0:0:0:0:
64,312,13414,1,0,0:0:0:0:
448,308,13414,1,0,0:0:0:0:
320,312,13572,1,0,0:0:0:0:
192,308,13730,1,0,0:0:0:0:
192,192,14046,1,0,0:0:0:0:
448,308,14362,1,0,0:0:0:0:
64,256,14362,1,0,0:0:0:0:
320,252,14520,1,0,0:0:0:0:
448,240,14677,1,0,0:0:0:0:
64,312,14835,1,0,0:0:0:0:
320,312,14993,1,0,0:0:0:0:
192,312,15309,1,0,0:0:0:0:
448,308,15625,1,0,0:0:0:0:
192,312,15625,1,0,0:0:0:0:
192,208,15941,1,0,0:0:0:0:
320,208,16099,1,0,0:0:0:0:
64,212,16256,1,0,0:0:0:0:
448,192,16256,1,0,0:0:0:0:
192,312,16572,1,0,0:0:0:0:
448,308,16888,1,0,0:0:0:0:
320,308,16888,1,0,0:0:0:0:
192,312,17046,1,0,0:0:0:0:
64,312,17204,1,0,0:0:0:0:
320,168,17204,1,0,0:0:0:0:
192,148,17362,1,0,0:0:0:0:
448,308,17520,1,0,0:0:0:0:
320,308,17835,1,0,0:0:0:0:
448,308,18151,1,0,0:0:0:0:
320,308,18467,1,0,0:0:0:0:
448,308,18467,1,0,0:0:0:0:
192,312,18625,1,0,0:0:0:0:
64,312,18783,1,0,0:0:0:0:
320,192,18783,1,0,0:0:0:0:
192,312,19099,1,0,0:0:0:0:
448,308,19414,1,0,0:0:0:0:
320,308,19414,1,0,0:0:0:0:
192,312,19572,1,0,0:0:0:0:
320,240,19730,1,0,0:0:0:0:
64,312,19730,1,0,0:0:0:0:
448,312,19888,1,0,0:0:0:0:
320,308,20046,1,0,0:0:0:0:
192,236,20362,1,0,0:0:0:0:
448,308,20677,1,0,0:0:0:0:
192,236,20677,1,0,0:0:0:0:
192,304,20993,1,0,0:0:0:0:
448,308,21151,1,0,0:0:0:0:
64,300,21309,1,0,0:0:0:0:
192,156,21625,1,0,0:0:0:0:
64,308,21941,1,0,0:0:0:0:
448,308,21941,1,0,0:0:0:0:
320,304,21941,1,0,0:0:0:0:
192,308,22099,1,0,0:0:0:0:
320,172,22256,1,0,0:0:0:0:
64,308,22256,1,0,0:0:0:0:
448,308,22414,1,0,0:0:0:0:
192,312,22572,1,0,0:0:0:0:
320,304,22888,1,0,0:0:0:0:
64,308,22888,1,0,0:0:0:0:
64,312,23204,1,0,0:0:0:0:
448,308,23520,1,0,0:0:0:0:
64,308,23520,1,0,0:0:0:0:
192,308,23677,1,0,0:0:0:0:
320,304,23835,1,0,0:0:0:0:
64,304,24151,1,0,0:0:0:0:
64,224,24467,1,0,0:0:0:0:
320,316,24467,1,0,0:0:0:0:
448,308,24467,1,0,0:0:0:0:
192,220,24625,1,0,0:0:0:0:
64,304,24783,1,0,0:0:0:0:
320,216,24783,1,0,0:0:0:0:
448,220,24941,1,0,0:0:0:0:
320,316,25098,1,0,0:0:0:0:
448,308,25414,1,0,0:0:0:0:
64,312,25730,1,0,0:0:0:0:
448,308,25730,1,0,0:0:0:0:
192,312,26046,1,0,0:0:0:0:
320,316,26204,1,0,0:0:0:0:
448,308,26362,1,0,0:0:0:0:
64,312,26362,1,0,0:0:0:0:
192,312,26362,1,0,0:0:0:0:
320,316,26677,1,0,0:0:0:0:
64,312,26993,1,0,0:0:0:0:
448,308,26993,1,0,0:0:0:0:
192,312,27151,1,0,0:0:0:0:
320,312,27309,1,0,0:0:0:0:
64,312,27309,1,0,0:0:0:0:
448,308,27467,1,0,0:0:0:0:
192,308,27625,1,0,0:0:0:0:
64,312,27941,1,0,0:0:0:0:
448,308,28256,1,0,0:0:0:0:
192,316,28572,1,0,0:0:0:0:
64,312,28572,1,0,0:0:0:0:
320,312,28730,1,0,0:0:0:0:
448,308,28888,1,0,0:0:0:0:
64,192,28888,1,0,0:0:0:0:
192,308,29204,1,0,0:0:0:0:
64,312,29520,1,0,0:0:0:0:
448,308,29520,1,0,0:0:0:0:
192,192,29836,1,0,0:0:0:0:
320,316,30151,1,0,0:0:0:0:
192,316,30151,1,0,0:0:0:0:
448,192,30626,1,0,0:0:0:0:
192,308,30783,128,0,32677:0:0:0:0:
64,192,30784,1,0,0:0:0:0:
448,192,30942,1,0,0:0:0:0:
320,192,31099,1,0,0:0:0:0:
320,252,31414,128,0,32677:0:0:0:0:
64,192,31414,1,0,0:0:0:0:
64,316,32046,128,0,32677:0:0:0:0:
448,192,32046,1,8,0:0:0:0:
448,340,32677,1,0,0:0:0:0:
64,300,33309,1,8,0:0:0:0:
192,304,33625,1,0,0:0:0:0:
192,304,33783,1,0,0:0:0:0:
448,280,33941,1,0,0:0:0:0:
64,192,33941,1,0,0:0:0:0:
448,280,34256,1,0,0:0:0:0:
448,280,34572,1,0,0:0:0:0:
64,300,34572,1,8,0:0:0:0:
192,312,34888,1,0,0:0:0:0:
320,168,35046,128,0,35519:0:0:0:0:
64,300,35046,1,0,0:0:0:0:
448,272,35520,1,0,0:0:0:0:
64,192,35835,1,8,0:0:0:0:
448,192,35835,1,0,0:0:0:0:
192,268,36151,1,0,0:0:0:0:
320,268,36309,1,0,0:0:0:0:
64,192,36467,1,0,0:0:0:0:
448,268,36783,1,0,0:0:0:0:
192,264,37099,128,0,37730:0:0:0:0:
320,208,37099,128,0,37730:0:0:0:0:
64,268,37730,1,0,0:0:0:0:
448,272,37730,1,0,0:0:0:0:
192,268,38362,1,8,0:0:0:0:
64,268,38677,1,0,0:0:0:0:
448,272,38677,1,0,0:0:0:0:
320,268,38993,1,0,0:0:0:0:
64,268,38993,1,0,0:0:0:0:
192,268,39309,1,0,0:0:0:0:
448,272,39309,1,0,0:0:0:0:
320,268,39625,1,0,0:0:0:0:
64,268,39625,1,8,0:0:0:0:
448,272,39625,1,0,0:0:0:0:
192,268,39941,1,0,0:0:0:0:
448,272,39941,1,0,0:0:0:0:
320,268,40256,1,0,0:0:0:0:
64,268,40256,1,0,0:0:0:0:
192,268,40572,1,0,0:0:0:0:
448,272,40572,1,0,0:0:0:0:
64,272,40888,1,8,0:0:0:0:
448,272,40888,1,0,0:0:0:0:
192,268,40888,1,0,0:0:0:0:
320,192,41204,1,0,0:0:0:0:
448,192,41204,1,0,0:0:0:0:
192,192,41520,1,0,0:0:0:0:
64,268,41835,1,0,0:0:0:0:
192,232,42151,1,8,0:0:0:0:
320,232,42151,1,0,0:0:0:0:
192,192,42467,1,0,0:0:0:0:
64,232,42783,1,0,0:0:0:0:
448,232,42783,1,0,0:0:0:0:
448,192,43099,1,0,0:0:0:0:
64,232,43414,1,8,0:0:0:0:
320,280,43730,1,0,0:0:0:0:
320,280,43888,1,0,0:0:0:0:
448,280,44046,1,0,0:0:0:0:
192,272,44046,1,0,0:0:0:0:
448,352,44362,1,0,0:0:0:0:
192,272,44362,1,0,0:0:0:0:
448,228,44677,1,8,0:0:0:0:
192,272,44677,1,0,0:0:0:0:
64,276,44993,1,0,0:0:0:0:
448,192,44993,1,0,0:0:0:0:
192,272,45151,1,0,0:0:0:0:
448,296,45625,1,0,0:0:0:0:
64,172,45941,1,8,0:0:0:0:
192,172,45941,1,0,0:0:0:0:
448,296,45941,1,0,0:0:0:0:
448,112,46256,1,0,0:0:0:0:
320,280,46256,1,0,0:0:0:0:
320,180,46572,1,0,0:0:0:0:
192,272,46572,1,0,0:0:0:0:
64,312,46888,1,0,0:0:0:0:
192,272,46888,1,0,0:0:0:0:
320,280,47204,1,0,0:0:0:0:
448,208,47204,1,0,0:0:0:0:
64,312,47204,1,8,0:0:0:0:
64,168,47520,1,0,0:0:0:0:
192,272,47520,1,0,0:0:0:0:
320,280,47835,1,0,0:0:0:0:
448,304,47835,1,0,0:0:0:0:
192,268,48151,1,0,0:0:0:0:
320,280,48151,1,0,0:0:0:0:
320,280,48467,1,0,0:0:0:0:
64,232,48467,1,8,0:0:0:0:
448,304,48467,1,0,0:0:0:0:
192,192,48783,1,0,0:0:0:0:
448,304,49099,1,0,0:0:0:0:
64,288,49099,1,0,0:0:0:0:
320,280,49414,1,0,0:0:0:0:
64,164,49572,1,0,0:0:0:0:
320,280,49730,1,0,0:0:0:0:
448,232,49730,1,8,0:0:0:0:
448,144,50046,1,0,0:0:0:0:
64,288,50046,1,0,0:0:0:0:
448,280,50363,1,0,0:0:0:0:
192,280,50678,1,0,0:0:0:0:
320,164,50836,1,8,0:0:0:0:
64,164,50993,1,0,0:0:0:0:
320,164,50994,1,8,0:0:0:0:
320,276,51152,1,8,0:0:0:0:
64,280,51310,1,8,0:0:0:0:
448,192,51468,1,0,0:0:0:0:
320,276,51626,1,4,0:0:0:0:
192,192,51626,1,4,0:0:0:0:
64,308,51941,1,0,0:0:0:0:
448,196,52256,1,0,0:0:0:0:
64,236,52572,1,0,0:0:0:0:
448,108,52888,1,0,0:0:0:0:
64,312,53204,1,0,0:0:0:0:
448,276,53520,1,0,0:0:0:0:
64,168,53835,1,0,0:0:0:0:
192,308,54151,128,0,54466:0:0:0:0:
320,316,54467,128,0,54782:0:0:0:0:
192,308,54783,128,0,55098:0:0:0:0:
320,316,55099,128,0,55414:0:0:0:0:
192,308,55414,128,0,55729:0:0:0:0:
320,316,55730,128,0,56045:0:0:0:0:
192,308,56046,128,0,56361:0:0:0:0:
320,316,56362,1,0,0:0:0:0:
