osu file format v12

[General]
AudioFilename: Fallen Angel (TV Size).mp3
AudioLeadIn: 3000
PreviewTime: 30300
Countdown: 0
SampleSet: None
StackLeniency: 0.6
Mode: 3
LetterboxInBreaks: 0
StoryFireInFront: 0

[Editor]
DistanceSpacing: 0.4
BeatDivisor: 4
GridSize: 4

[Metadata]
Title:Fallen Angel (TV Size)
TitleUnicode:Fallen Angel (TV Size)
Artist:Aimee B
ArtistUnicode:Aimee B
Creator:xxbidiao
Version:Beginner
Source:Panty & Stocking with Garterbelt
Tags:Matsunori ikeda
BeatmapID:238263
BeatmapSetID:68788

[Difficulty]
HPDrainRate:6
CircleSize:4
OverallDifficulty:10
ApproachRate:0
SliderMultiplier:2.1
SliderTickRate:2

[Events]
//Background and Video events
0,0,"BG.jpg",0,0
//Break Periods
//Storyboard Layer 0 (Background)
//Storyboard Layer 1 (Fail)
//Storyboard Layer 2 (Pass)
//Storyboard Layer 3 (Foreground)
//Storyboard Sound Samples
//Background Colour Transformations
3,100,163,162,255

[TimingPoints]
1100,631.578947368421,4,3,1,50,1,0
31415,-100,4,3,1,50,0,1
51626,-100,4,3,1,50,0,0

[Colours]
Combo1 : 209,242,140
Combo2 : 255,255,128
Combo3 : 43,56,104
Combo4 : 239,141,241

[HitObjects]
64,312,6147,5,4,0:0:0:0:
448,308,6779,5,0,0:0:0:0:
448,312,8042,5,0,0:0:0:0:
64,192,8678,1,8,0:0:0:0:
448,192,9310,1,4,0:0:0:0:
64,192,9626,1,8,0:0:0:0:
64,192,9942,1,8,0:0:0:0:
192,192,11521,1,0,0:0:0:0:
448,308,11831,5,8,0:0:0:0:
192,192,12152,1,0,0:0:0:0:
64,192,12784,1,0,0:0:0:0:
448,308,13095,5,8,0:0:0:0:
64,192,13415,1,0,0:0:0:0:
448,192,14047,1,0,0:0:0:0:
64,292,14358,5,8,0:0:0:0:
448,192,14678,1,0,0:0:0:0:
320,192,15310,1,0,0:0:0:0:
64,292,15621,5,8,0:0:0:0:
320,192,15942,1,0,0:0:0:0:
320,192,16573,1,0,0:0:0:0:
192,272,16884,5,8,0:0:0:0:
320,192,17205,1,0,0:0:0:0:
448,192,17836,1,0,0:0:0:0:
192,312,18147,5,8,0:0:0:0:
448,192,18468,1,0,0:0:0:0:
192,192,19100,1,0,0:0:0:0:
320,304,19410,5,8,0:0:0:0:
192,192,19731,1,0,0:0:0:0:
64,192,20363,1,0,0:0:0:0:
320,304,20673,5,8,0:0:0:0:
64,192,20994,1,0,0:0:0:0:
192,192,21621,1,0,0:0:0:0:
448,300,21937,5,8,0:0:0:0:
192,192,22252,1,0,0:0:0:0:
320,192,22884,1,0,0:0:0:0:
64,304,23200,5,8,0:0:0:0:
320,192,23516,1,0,0:0:0:0:
192,192,24147,1,0,0:0:0:0:
320,316,24463,5,8,0:0:0:0:
192,192,24779,1,0,0:0:0:0:
448,192,25410,1,0,0:0:0:0:
192,232,25726,5,8,0:0:0:0:
448,192,26042,1,0,0:0:0:0:
448,192,26673,1,0,0:0:0:0:
64,176,26989,5,8,0:0:0:0:
448,192,27305,1,0,0:0:0:0:
64,192,27937,1,0,0:0:0:0:
448,300,28252,5,8,0:0:0:0:
64,192,28568,1,0,0:0:0:0:
448,308,29516,5,0,0:0:0:0:
64,316,30152,5,0,0:0:0:0:
192,192,30784,128,0,32994:0:0:0:0:
64,192,31415,1,0,0:0:0:0:
448,248,32042,1,8,0:0:0:0:
448,248,33305,1,8,0:0:0:0:
320,248,34568,1,8,0:0:0:0:
192,192,34568,1,0,0:0:0:0:
64,192,35831,1,0,0:0:0:0:
320,192,35831,1,8,0:0:0:0:
192,268,37095,1,0,0:0:0:0:
448,192,37095,1,8,0:0:0:0:
448,192,38363,1,8,0:0:0:0:
64,192,38363,1,0,0:0:0:0:
320,268,38678,1,0,0:0:0:0:
192,268,38994,128,0,41521:0:0:0:0:
448,192,39626,1,8,0:0:0:0:
448,276,40889,1,8,0:0:0:0:
64,160,42147,1,8,0:0:0:0:
448,224,42152,1,0,0:0:0:0:
320,228,42784,1,0,0:0:0:0:
64,192,43415,1,8,0:0:0:0:
192,264,43731,1,0,0:0:0:0:
448,296,44047,128,0,45626:0:0:0:0:
64,192,44678,1,8,0:0:0:0:
192,172,45937,1,0,0:0:0:0:
64,192,45942,1,8,0:0:0:0:
320,168,46568,1,0,0:0:0:0:
192,264,47200,1,0,0:0:0:0:
448,192,47205,1,8,0:0:0:0:
192,260,47831,1,0,0:0:0:0:
64,264,48463,1,0,0:0:0:0:
448,192,48468,1,8,0:0:0:0:
448,304,49095,1,0,0:0:0:0:
320,280,49726,1,0,0:0:0:0:
64,192,49731,1,8,0:0:0:0:
320,280,50358,1,0,0:0:0:0:
192,208,50673,1,0,0:0:0:0:
64,232,50989,1,0,0:0:0:0:
64,192,51626,1,12,0:0:0:0:
