osu file format v9

[General]
AudioFilename: Fallen Angel (TV Size).mp3
AudioLeadIn: 3000
PreviewTime: 30300
Countdown: 0
SampleSet: Soft
StackLeniency: 0.3
Mode: 1
LetterboxInBreaks: 0
StoryFireInFront: 0

[Editor]
DistanceSpacing: 1
BeatDivisor: 8
GridSize: 8

[Metadata]
Title:Fallen Angel (TV Size)
Artist:Aimee B
Creator:Beuchi-chan
Version:Taiko
Source:Panty & Stocking with Garterbelt
Tags:Matsunori ikeda

[Difficulty]
HPDrainRate:7
CircleSize:5
OverallDifficulty:7
ApproachRate:7
SliderMultiplier:1.4
SliderTickRate:2

[Events]
//Background and Video events
0,0,"BG.jpg"
//Break Periods
//Storyboard Layer 0 (Background)
//Storyboard Layer 1 (Fail)
//Storyboard Layer 2 (Pass)
//Storyboard Layer 3 (Foreground)
//Storyboard Sound Samples
//Background Colour Transformations
3,100,163,162,255

[TimingPoints]
1095,631.578947368421,4,2,0,65,1,0
31410,-100,4,2,0,65,0,1
51621,-100,4,2,0,65,0,0

[Colours]
Combo1 : 209,242,140
Combo2 : 255,255,128
Combo3 : 43,56,104
Combo4 : 239,141,241

[HitObjects]
144,192,1094,1,2
112,48,1726,1,2
240,128,2358,1,2
368,48,2989,1,2
344,200,3621,1,2
416,232,3937,1,0
384,304,4252,1,2
312,280,4568,1,0
272,216,4884,1,2
216,264,5200,1,0
184,288,5358,1,0
152,304,5516,1,2
112,304,5673,1,0
80,288,5831,1,2
32,232,6147,1,4
40,144,6463,1,0
72,80,6779,1,2
112,144,7094,1,0
112,144,7252,1,0
200,112,7568,1,0
200,112,7726,1,0
248,48,8042,1,2
288,112,8358,1,0
240,168,8673,1,0
296,216,8989,1,0
384,144,9147,1,0
352,168,9305,1,2
352,96,9621,1,0
424,128,9937,1,0
432,200,10252,1,0
344,272,10726,1,2
312,288,10884,1,2
280,312,11042,1,2
248,328,11200,1,0
176,304,11516,1,0
104,288,11831,1,2
72,272,11989,1,0
48,240,12147,1,0
40,200,12305,1,0
96,104,12779,1,0
136,168,13095,1,2
200,200,13410,1,0
208,144,13568,1,2
232,112,13726,1,0
296,144,14042,1,0
328,80,14358,1,2
368,88,14516,1,0
392,112,14673,1,2
416,144,14831,1,0
432,176,14989,1,0
392,240,15305,1,0
328,280,15621,1,2
256,312,15937,1,0
224,288,16095,1,2
224,240,16252,1,0
288,208,16568,1,0
288,136,16884,1,2
256,112,17042,1,0
216,104,17200,1,0
176,112,17358,1,0
64,128,17831,1,0
40,200,18147,1,2
56,272,18463,1,0
88,288,18621,1,0
104,320,18779,1,2
176,344,19095,1,0
176,272,19410,1,2
176,232,19568,1,0
184,192,19726,1,2
208,168,19884,1,0
248,176,20042,1,0
264,248,20358,1,0
320,296,20673,1,2
376,248,20989,1,0
336,184,21305,1,0
360,112,21621,1,0
304,64,21937,1,2
264,56,22095,1,0
232,72,22252,1,0
160,96,22568,1,0
88,128,22884,1,0
72,200,23200,1,2
56,232,23358,1,0
64,272,23516,1,2
88,304,23673,1,0
112,336,23831,1,0
144,272,24147,1,0
176,208,24463,1,2
216,216,24621,1,0
232,256,24779,1,0
200,320,25095,1,2
272,336,25410,1,0
312,336,25568,1,0
328,288,25726,1,2
296,216,26042,1,2
280,184,26200,1,0
296,152,26358,1,2
360,120,26673,1,0
312,64,26989,1,2
240,56,27305,1,0
176,88,27621,2,0,B|72:248|256:320,1,280
296,184,29516,1,2
256,88,29831,1,0
168,56,30147,1,2
104,120,30463,1,0
64,144,30621,1,0
48,184,30779,1,2
48,232,30937,1,0
48,280,31095,1,2
136,296,31410,1,4
168,208,31726,1,0
192,296,32042,1,4
256,232,32358,1,0
304,240,32516,1,2
344,320,32831,1,2
392,312,32989,1,0
424,232,33305,1,2
424,184,33463,1,0
392,152,33621,1,0
328,88,33937,1,0
240,56,34252,1,0
168,112,34568,1,2
96,168,34884,1,0
64,200,35042,1,2
48,288,35358,1,0
64,328,35516,1,2
152,320,35831,1,2
240,312,36147,1,0
280,336,36305,1,2
328,256,36621,1,0
288,232,36779,1,2
272,144,37095,1,4
216,72,37410,1,0
144,128,37726,1,2
152,168,37884,1,0
176,208,38042,1,0
96,240,38358,1,0
152,312,38673,1,0
240,320,38989,1,2
328,312,39305,1,0
280,240,39621,1,2
200,192,39937,1,0
248,112,40252,1,2
272,72,40410,1,0
312,96,40568,1,0
376,160,40884,1,2
432,232,41200,1,2
408,272,41358,1,0
368,296,41516,1,0
288,264,41831,1,0
200,232,42147,1,4
136,296,42463,1,0
56,248,42779,1,4
56,160,43095,1,0
72,120,43252,1,0
104,88,43410,1,2
184,48,43726,1,2
232,56,43884,1,0
224,104,44042,1,2
312,120,44358,1,0
392,160,44673,1,2
312,208,44989,1,0
272,232,45147,1,2
144,200,45463,1,0
96,280,45779,1,0
104,328,45937,1,2
192,328,46252,1,0
280,344,46568,1,0
368,328,46884,1,0
392,240,47200,1,2
304,224,47516,1,0
216,208,47831,1,0
144,160,48147,1,0
224,128,48463,1,2
288,64,48779,1,0
328,80,48937,1,2
360,112,49095,1,0
288,168,49410,1,0
240,160,49568,1,0
192,168,49726,1,2
232,248,50042,1,0
160,296,50358,1,0
88,248,50673,1,0
56,216,50831,1,0
32,176,50989,1,2
48,136,51147,1,0
72,96,51305,1,2
112,72,51463,1,2
152,64,51621,1,0
288,184,52252,1,2
408,48,52884,1,2
408,232,53516,1,2
232,264,54147,1,2
160,208,54463,1,0
208,128,54779,1,2
304,152,55095,1,0
344,232,55410,1,2
272,176,55726,1,0
216,320,56042,1,2
136,272,56358,1,0
