osu file format v9

[General]
AudioFilename: Fallen Angel (TV Size).mp3
AudioLeadIn: 3000
PreviewTime: 30300
Countdown: 0
SampleSet: Soft
StackLeniency: 0.6
Mode: 0
LetterboxInBreaks: 0
StoryFireInFront: 0

[Editor]
DistanceSpacing: 0
BeatDivisor: 4
GridSize: 4

[Metadata]
Title:Fallen Angel (TV Size)
Artist:Aimee B
Creator:Beuchi-chan
Version:Normal
Source:Panty & Stocking with Garterbelt
Tags:Matsunori ikeda

[Difficulty]
HPDrainRate:4
CircleSize:4
OverallDifficulty:4
ApproachRate:5
SliderMultiplier:1.8
SliderTickRate:2

[Events]
//Background and Video events
0,0,"BG.jpg"
//Break Periods
//Storyboard Layer 0 (Background)
//Storyboard Layer 1 (Fail)
//Storyboard Layer 2 (Pass)
//Storyboard Layer 3 (Foreground)
//Storyboard Sound Samples
//Background Colour Transformations
3,100,163,162,255

[TimingPoints]
1095,631.578947368421,4,2,1,65,1,0
5516,-100,4,1,1,65,0,0
51621,-100,4,2,1,65,0,0

[Colours]
Combo1 : 209,242,140
Combo2 : 255,255,128
Combo3 : 43,56,104
Combo4 : 239,141,241

[HitObjects]
176,80,1094,2,0,B|256:16|344:80,3,180,2|2|2|2
192,184,3621,2,0,B|192:280,1,90,2|0
256,336,4252,2,0,B|256:240,1,90,2|0
320,184,4884,2,0,B|320:280,1,90,2|0
256,336,5516,2,0,B|256:400,2,45
256,248,6147,5,4
166,234,6463,2,0,B|62:234,2,90,0|8|0
350,234,7726,2,0,B|438:234,2,90,0|8|0
344,150,8673,6,0,B|344:70|256:70|256:-2,1,180,0|8
252,0,9621,1,0
248,0,9937,2,0,B|249:64|161:64|161:144,1,180,0|8
256,168,10884,2,0,B|256:272,1,90,0|4
432,208,11831,5,8
432,208,12147,2,0,B|424:320|328:336,1,180,0|2
256,168,13410,2,2,B|256:360,1,180,2|0
183,335,14358,2,2,B|88:320|80:208,1,180,10|0
136,136,15305,1,0
184,56,15621,2,2,B|232:72|256:16|256:16|280:72|336:56,1,180,10|0
376,136,16568,5,0
312,192,16884,2,0,B|312:296,1,90,8|0
256,112,17831,1,2
72,104,18463,2,2,B|24:192|96:280,1,180
256,344,19726,1,2
200,192,20358,2,0,B|200:296,3,90,0|8|0|0
256,352,21621,5,0
312,282,21937,2,0,B|312:192,1,90,8|0
440,104,22884,2,2,B|488:192|416:280,1,180
256,200,24147,2,2,B|256:104,2,90,2|8|0
176,240,25095,1,0
256,280,25410,1,0
336,240,25726,1,8
176,160,26358,6,0,B|128:88|160:16|216:16,1,180,2|8
256,96,27305,1,0
299,16,27621,2,0,B|352:16|384:88|336:160,1,180,2|8
256,192,28568,12,0,30779
184,48,31410,6,0,B|184:240,1,180,4|8
328,336,32673,2,0,B|328:144,1,180,0|8
328,64,33621,2,0,B|328:8,2,45
256,232,34568,5,10
328,344,35042,1,0
192,344,35516,1,0
168,256,35831,5,10
256,152,36305,1,0
344,256,36779,1,0
256,288,37095,2,0,B|256:104,1,180,8|0
80,72,38358,5,8
168,56,38673,1,0
136,136,38989,1,0
160,224,39305,2,2,B|168:280|224:304,1,90,2|8
303,296,39937,2,2,B|344:280|352:224,1,90
376,136,40568,1,0
344,56,40884,1,8
432,72,41200,1,0
256,112,41831,5,0
184,160,42147,2,2,B|216:224|296:224|328:152,1,180,10|0
256,320,43410,1,8
256,320,43726,2,0,B|256:376,2,45
256,232,44358,1,0
192,176,44673,2,2,B|256:128|320:176,2,135,10|0|0
104,184,45937,5,8
96,96,46252,1,0
176,64,46568,1,0
256,104,46884,2,0,B|256:0,2,90,0|8|0
336,64,47831,1,0
416,96,48147,1,0
408,184,48463,1,8
376,360,49095,6,2,B|304:344|304:344|328:272|296:240,1,180,0|8
256,160,50042,1,0
213,242,50358,2,2,B|184:272|208:344|208:344|136:360,1,180,0|8
64,194,51621,6,0,B|64:98|176:66,1,180,4|2
352,66,52884,2,0,B|459:96|459:192,1,180,2|2
300,277,54147,2,0,B|300:181,3,90,2|0|2|0
212,189,55410,2,0,B|212:285,3,90,2|0|2|0
