osu file format v9

[General]
AudioFilename: Fallen Angel (TV Size).mp3
AudioLeadIn: 3000
PreviewTime: 30300
Countdown: 0
SampleSet: Soft
StackLeniency: 0.3
Mode: 0
LetterboxInBreaks: 0
StoryFireInFront: 0

[Editor]
DistanceSpacing: 1
BeatDivisor: 4
GridSize: 4

[Metadata]
Title:Fallen Angel (TV Size)
Artist:Aimee B
Creator:Beuchi-chan
Version:Easy
Source:Panty & Stocking with Garterbelt
Tags:Matsunori ikeda

[Difficulty]
HPDrainRate:2
CircleSize:3
OverallDifficulty:2
ApproachRate:3
SliderMultiplier:1.5
SliderTickRate:2

[Events]
//Background and Video events
0,0,"BG.jpg"
//Break Periods
//Storyboard Layer 0 (Background)
//Storyboard Layer 1 (Fail)
//Storyboard Layer 2 (Pass)
//Storyboard Layer 3 (Foreground)
//Storyboard Sound Samples
//Background Colour Transformations
3,100,163,162,255

[TimingPoints]
1095,631.578947368421,4,2,1,65,1,0
5516,-100,4,1,1,65,0,0
51621,-100,4,2,1,65,0,0

[Colours]
Combo1 : 209,242,140
Combo2 : 255,255,128
Combo3 : 43,56,104
Combo4 : 239,141,241

[HitObjects]
256,336,1094,2,0,B|256:168,3,150,2|2|2|2
179,56,3621,2,0,B|123:56|107:112,2,75,2|0|2
331,56,4884,2,0,B|387:56|403:112,2,75,2|0|0
256,184,6147,1,4
144,288,6779,6,0,B|80:200|120:120,2,150,8|0|8
256,184,8673,1,0
368,288,9305,2,0,B|432:200|392:120,2,150,8|0|8
304,320,10884,1,0
256,264,11200,1,4
256,80,11831,5,8
256,80,12147,1,0
160,192,12779,2,2,B|160:304|88:320,1,150,2|0
88,168,14042,1,0
88,168,14358,2,0,B|119:91|219:132,2,150,10|0|10
208,264,16252,1,0
256,120,16884,6,0,B|256:32,1,75,8|0
324,179,17831,2,2,B|292:219|220:219|188:179,3,150
256,320,20358,1,0
256,320,20673,2,0,B|256:160,1,150,8|0
256,64,21937,5,8
256,64,22252,1,0
352,192,22884,2,2,B|352:304|424:320,1,150,2|0
424,168,24147,1,0
424,168,24463,2,0,B|393:91|293:132,2,150,10|0|10
296,248,26358,5,0
256,312,26673,1,0
216,248,26989,1,8
156,111,27621,2,2,B|204:55|316:55|356:111,1,225
256,192,28884,12,0,30779
256,192,31410,5,4
176,320,32042,1,8
336,320,32673,1,0
256,192,33305,5,8
220,125,33621,1,0
292,125,33937,1,0
292,276,34568,2,2,B|352:248|352:184,2,112.5,8|0|0
220,276,35831,2,2,B|160:248|160:184,2,112.5,8|0|0
256,208,37095,6,0,B|256:48,1,150,8|0
181,188,38358,1,8
117,228,38673,1,0
181,260,38989,1,2
333,260,39621,1,10
397,228,39937,1,0
333,188,40252,1,2
256,56,40884,1,8
256,56,41200,1,0
392,120,41831,5,0
392,120,42147,2,2,B|456:184|416:280,1,150,10|0
256,272,43410,2,0,B|256:368,2,75,8|0|0
88,259,44673,1,8
88,258,44989,2,2,B|56:184|120:120,1,150,2|0
184,80,45937,5,8
256,56,46252,1,0
328,80,46568,1,0
256,208,47200,2,0,B|256:304,2,75,8|0|0
256,360,48463,1,8
179,230,49095,6,2,B|179:70,1,150,0|8
331,78,50358,2,2,B|331:254,1,150,0|8
186,320,51621,2,0,B|258:368|338:312,3,150,4|2|2|2
400,192,54147,5,2
408,120,54463,1,0
336,144,54779,1,2
176,144,55410,5,2
104,120,55726,1,0
112,192,56042,1,2
