osu file format v9

[General]
AudioFilename: Panty & Stocking ED - Aimee B - Fallen Angel.mp3
AudioLeadIn: 3000
PreviewTime: 40467
Countdown: 0
SampleSet: Soft
StackLeniency: 0.7
Mode: 1
LetterboxInBreaks: 1

[Editor]
DistanceSpacing: 0.75
BeatDivisor: 4
GridSize: 8

[Metadata]
Title:Fallen Angel
Artist:Aimee B
Creator:Louis Cyphre
Version:lepidon! - Taiko Oni
Source:Panty & Stocking with Garterbelt
Tags:Gonz Gonzvlo lepidon lepidopodus Mitsunori Ikeda LISA

[Difficulty]
HPDrainRate:5
CircleSize:5
OverallDifficulty:6
ApproachRate:5
SliderMultiplier:1.4
SliderTickRate:2

[Events]
//Background and Video events
0,0,"Taiko.png"
//Break Periods
//Storyboard Layer 0 (Background)
//Storyboard Layer 1 (Fail)
//Storyboard Layer 2 (Pass)
//Storyboard Layer 3 (Foreground)
//Storyboard Sound Samples
//Background Colour Transformations
3,100,163,162,255

[TimingPoints]
46,631.578947368421,4,2,1,65,1,0
9203,-100,4,2,1,75,0,0
9993,-100,4,2,1,80,0,0
80888,-100,4,2,1,85,0,1
101098,-100,4,2,1,80,0,0
161730,-100,4,2,1,85,0,1
181940,-100,4,2,1,70,0,0
192046,-100,4,2,1,75,0,0
202151,-100,4,2,1,85,0,1
242572,-100,4,2,1,80,0,0

[Colours]
Combo1 : 210,0,210
Combo2 : 249,203,21
Combo3 : 0,163,240
Combo4 : 242,34,34

[HitObjects]
336,176,46,1,8
480,216,361,1,0
488,160,677,1,8
416,224,993,1,0
432,168,1309,1,8
416,224,1624,1,0
464,176,1940,1,8
416,224,2256,1,0
364,231,2572,1,0
393,187,2888,1,8
441,168,3203,1,0
485,139,3519,1,8
483,191,3835,1,0
501,166,4151,1,8
448,172,4467,1,0
441,168,4782,1,8
336,176,5098,1,8
480,216,5413,1,0
488,160,5729,1,8
416,224,6045,1,0
432,168,6361,1,8
416,224,6676,1,0
464,176,6992,1,8
416,224,7308,1,0
364,231,7624,1,0
393,187,7940,1,8
441,168,8255,1,0
485,139,8571,1,8
483,191,8887,1,0
409,219,9361,1,8
385,229,9519,1,8
359,232,9677,1,0
334,240,9835,1,0
289,212,10151,5,0
271,162,10467,1,0
323,161,10782,1,8
374,168,11098,1,0
422,186,11414,1,0
400,200,11572,1,8
398,232,11730,1,0
412,181,12045,1,8
362,197,12361,1,0
312,215,12677,1,0
269,246,12993,1,8
412,181,13309,1,0
361,194,13624,1,8
308,190,13940,1,0
333,183,14098,1,8
412,181,14256,1,0
412,181,14572,1,8
404,259,15045,1,8
289,212,15203,1,0
271,162,15519,1,0
323,161,15834,1,8
374,168,16150,1,0
422,186,16466,1,0
400,200,16624,1,8
398,232,16782,1,0
412,181,17097,1,8
362,197,17413,1,0
312,215,17729,1,0
269,246,18045,1,8
412,181,18361,1,0
361,194,18676,1,8
309,181,18993,1,0
334,176,19151,1,8
359,183,19309,1,0
431,213,19782,1,8
452,228,19940,1,8
436,249,20098,1,8
414,264,20256,5,0
304,256,20888,1,0
328,240,21046,1,8
431,213,21203,1,0
431,213,21361,1,0
376,208,21677,1,0
352,208,21835,1,0
400,176,22151,1,8
352,184,22467,1,0
328,192,22624,1,0
312,216,22782,1,0
208,200,23414,1,0
232,200,23572,1,8
256,200,23730,1,8
280,208,23888,1,0
320,248,24203,1,0
336,264,24361,1,0
368,224,24677,1,8
320,208,24993,1,0
344,192,25151,1,8
414,264,25309,1,0
304,256,25941,1,0
328,240,26099,1,8
431,213,26256,1,0
431,213,26414,1,0
376,208,26730,1,0
352,208,26888,1,0
400,176,27204,1,8
352,184,27520,1,0
328,192,27677,1,0
312,216,27835,1,0
208,200,28467,1,0
232,200,28625,1,8
256,200,28783,1,8
280,208,28941,1,0
320,248,29256,1,0
336,264,29414,1,0
368,224,29730,1,8
320,208,30046,1,0
344,192,30204,1,8
320,184,30361,5,0
280,144,30677,1,0
320,176,30993,1,0
384,168,31151,1,8
384,168,31309,1,0
400,192,31467,1,0
392,216,31782,1,0
376,240,31940,1,0
416,208,32256,1,8
432,256,32572,1,0
424,280,32730,1,0
408,296,32888,1,0
384,248,33203,1,8
408,200,33519,1,0
392,176,33677,1,8
392,176,33835,1,8
408,200,33993,1,0
368,232,34309,1,0
344,248,34467,1,0
392,176,34782,1,8
440,160,35098,1,0
464,168,35256,1,8
320,184,35414,1,0
280,144,35730,1,0
320,176,36046,1,0
384,168,36204,1,8
384,168,36362,1,0
400,192,36520,1,0
392,216,36835,1,0
376,240,36993,1,0
416,208,37309,1,8
432,256,37625,1,0
424,280,37783,1,0
408,296,37941,1,0
384,248,38256,1,8
408,200,38572,1,0
392,176,38730,1,8
392,176,38888,1,8
408,200,39046,1,0
368,232,39362,1,0
392,184,39677,1,8
408,160,39835,1,8
424,176,39993,1,0
424,200,40151,1,0
376,216,40467,5,0
352,224,40624,1,0
328,232,40782,1,0
280,256,41098,1,0
256,264,41256,1,0
232,272,41414,1,0
208,280,41572,1,0
264,232,42046,1,0
312,216,42361,1,8
360,224,42677,1,0
376,216,42993,1,0
352,224,43150,1,0
328,232,43308,1,0
280,256,43624,1,0
256,264,43782,1,0
232,272,43940,1,0
208,280,44098,1,0
264,232,44572,1,0
312,216,44887,1,8
360,224,45203,1,8
376,216,45519,1,0
352,224,45676,1,0
328,232,45834,1,0
280,256,46150,1,0
256,264,46308,1,0
232,272,46466,1,0
208,280,46624,1,0
264,232,47098,1,0
312,216,47413,1,8
360,224,47729,1,0
336,216,47888,1,0
312,208,48046,1,0
360,184,48361,1,8
408,176,48677,1,0
432,168,48835,1,8
432,168,48993,1,0
448,184,49151,1,0
392,248,49467,1,8
344,272,49782,1,8
320,280,49940,1,8
296,288,50098,1,8
272,296,50256,1,8
376,216,50572,5,0
352,224,50729,1,0
328,232,50887,1,0
280,256,51203,1,0
256,264,51361,1,0
232,272,51519,1,0
208,280,51677,1,0
264,232,52151,1,0
312,216,52466,1,8
360,224,52782,1,0
376,216,53098,1,0
352,224,53255,1,0
328,232,53413,1,0
280,256,53729,1,0
256,264,53887,1,0
232,272,54045,1,0
208,280,54203,1,0
264,232,54677,1,0
312,216,54992,1,8
360,224,55308,1,8
376,208,55467,1,8
368,184,55624,1,8
320,200,55940,1,0
288,240,56256,1,0
336,224,56414,1,8
312,224,56572,1,0
288,224,56730,1,0
368,184,57046,1,8
376,208,57203,1,0
408,168,57519,1,8
360,184,57835,1,0
336,192,57993,1,0
312,208,58151,1,0
360,232,58467,1,8
408,168,58782,1,0
432,176,58940,1,8
456,184,59098,1,0
456,184,59256,1,8
416,216,59572,1,8
368,232,59888,1,8
344,240,60046,1,8
328,264,60203,1,0
312,280,60361,1,0
272,240,60677,5,0
264,184,60993,1,0
312,176,61309,1,8
368,176,61624,1,0
416,200,61940,1,0
440,192,62098,1,8
416,184,62256,1,0
440,136,62572,1,8
408,176,62888,1,0
360,192,63203,1,0
408,176,63519,1,8
416,184,63835,1,0
464,152,64151,1,8
416,160,64467,1,0
448,200,64782,1,0
424,152,65098,1,8
400,224,65572,1,8
272,240,65730,1,0
264,184,66046,1,0
312,176,66362,1,8
368,176,66677,1,0
352,200,66835,1,0
416,200,66993,1,0
440,192,67151,1,8
416,184,67309,1,0
440,136,67625,1,8
408,176,67941,1,0
360,192,68256,1,0
408,176,68572,1,8
416,184,68888,1,0
464,152,69204,1,8
416,160,69520,1,0
448,200,69835,1,0
424,152,70151,1,8
272,240,70782,5,0
264,184,71098,1,0
312,176,71414,1,8
368,176,71729,1,0
416,200,72045,1,0
440,192,72203,1,8
416,184,72361,1,0
440,136,72677,1,8
408,176,72993,1,0
360,192,73308,1,0
408,176,73624,1,8
416,184,73940,1,0
464,152,74256,1,8
416,160,74572,1,0
448,200,74887,1,0
424,152,75203,1,8
216,168,75519,1,0
384,168,75677,1,0
384,168,75835,5,8
352,272,76151,1,0
352,272,76309,1,0
320,280,76467,1,0
448,160,76782,1,8
424,240,77098,1,0
424,240,77256,1,0
424,240,77414,1,0
448,160,77730,1,8
392,232,78045,1,0
392,152,78361,1,8
448,160,78677,1,0
448,160,78835,1,0
480,176,78993,1,8
432,216,79309,1,0
448,160,79624,1,8
384,248,79940,1,0
376,192,80256,1,12
352,144,80888,5,4
344,176,81519,1,12
352,288,82151,1,4
384,200,82782,1,8
232,224,83098,1,0
232,224,83256,1,0
328,200,83414,1,0
408,168,83730,1,0
384,200,84045,1,8
432,200,84361,1,0
432,200,84519,1,8
432,200,84835,1,8
256,224,84993,1,0
408,168,85309,1,8
408,168,85624,1,0
432,200,85782,1,8
424,240,86098,1,8
384,208,86256,1,0
408,168,86572,1,12
448,224,87203,1,4
376,176,87835,1,8
408,168,88151,1,0
408,168,88309,1,0
448,160,88467,1,8
456,192,88782,1,0
448,160,89098,1,8
448,160,89414,1,0
344,288,89572,1,0
456,192,89730,1,8
424,208,90045,1,0
368,232,90361,1,0
352,168,90677,1,8
432,168,91309,5,4
432,168,91624,1,12
376,240,92256,1,4
367,160,92888,1,8
376,240,93203,1,0
376,240,93361,1,0
461,252,93519,1,0
315,279,93835,1,0
383,186,94151,1,8
383,186,94467,1,0
446,169,94624,1,8
383,186,94940,1,8
450,215,95098,1,0
383,186,95414,1,0
383,186,95730,1,8
383,186,95888,1,8
391,268,96045,1,0
356,261,96361,1,0
438,170,96677,1,8
450,215,96993,1,0
438,170,97309,1,8
388,235,97624,1,0
356,261,97940,1,0
207,165,98572,1,0
401,165,98888,1,8
474,176,99045,1,0
474,176,99203,1,8
430,236,99519,1,0
430,236,99835,1,8
356,189,100309,1,8
356,189,100467,1,8
370,244,100624,1,0
370,244,100782,1,0
414,264,101098,5,0
304,256,101730,1,0
328,240,101888,1,8
431,213,102045,1,0
431,213,102203,1,0
376,208,102519,1,8
352,208,102677,1,0
400,176,102993,1,8
352,184,103309,1,0
328,192,103466,1,0
312,216,103624,1,0
208,200,104256,1,0
232,200,104414,1,8
256,200,104572,1,8
280,208,104730,1,0
320,248,105045,1,0
336,264,105203,1,0
368,224,105519,1,8
320,208,105835,1,0
344,192,105993,1,8
414,264,106151,1,0
304,256,106783,1,0
328,240,106941,1,8
431,213,107098,1,0
431,213,107256,1,0
376,208,107572,1,8
352,208,107730,1,0
400,176,108046,1,8
352,184,108362,1,0
328,192,108519,1,0
312,216,108677,1,0
208,200,109309,1,0
232,200,109467,1,8
256,200,109625,1,8
280,208,109783,1,0
320,248,110098,1,0
336,264,110256,1,0
208,200,110414,1,0
368,224,110572,1,8
320,208,110888,1,0
344,192,111046,1,8
320,184,111203,5,0
280,144,111519,1,0
320,176,111835,1,0
384,168,111993,1,8
384,168,112151,1,0
400,192,112309,1,0
392,216,112624,1,8
376,240,112782,1,0
416,208,113098,1,8
432,256,113414,1,0
424,280,113572,1,0
408,296,113730,1,0
384,248,114045,1,8
408,200,114361,1,0
392,176,114519,1,8
392,176,114677,1,8
408,200,114835,1,0
368,232,115151,1,0
344,248,115309,1,0
392,176,115624,1,8
440,160,115940,1,0
464,168,116098,1,8
320,184,116256,1,0
280,144,116572,1,0
320,176,116888,1,0
384,168,117046,1,8
384,168,117204,1,0
400,192,117362,1,0
392,216,117677,1,8
376,240,117835,1,0
416,208,118151,1,8
432,256,118467,1,0
424,280,118625,1,0
408,296,118783,1,0
384,248,119098,1,8
408,200,119414,1,0
392,176,119572,1,8
392,176,119730,1,8
408,200,119888,1,0
368,232,120204,1,0
214,221,120361,1,0
392,184,120519,1,8
408,160,120677,1,8
424,176,120835,1,0
424,200,120993,1,0
376,216,121309,5,0
352,224,121466,1,0
328,232,121624,1,0
280,256,121940,1,0
256,264,122098,1,0
232,272,122256,1,0
208,280,122414,1,0
264,232,122888,1,0
312,216,123203,1,8
360,224,123519,1,0
360,224,123677,1,8
376,216,123835,1,0
352,224,123992,1,0
328,232,124150,1,0
280,256,124466,1,0
256,264,124624,1,0
232,272,124782,1,0
208,280,124940,1,0
264,232,125414,1,0
312,216,125729,1,8
360,224,126045,1,8
407,191,126203,1,8
376,216,126361,1,0
352,224,126518,1,0
328,232,126676,1,0
280,256,126992,1,0
256,264,127150,1,0
232,272,127308,1,0
208,280,127466,1,0
264,232,127940,1,0
312,216,128255,1,8
360,224,128571,1,0
336,216,128730,1,0
312,208,128888,1,0
360,184,129203,1,8
408,176,129519,1,0
432,168,129677,1,8
432,168,129835,1,0
448,184,129993,1,0
392,248,130309,1,8
344,272,130624,1,8
320,280,130782,1,8
296,288,130940,1,0
272,296,131098,1,8
376,216,131414,5,0
352,224,131571,1,0
328,232,131729,1,0
280,256,132045,1,0
256,264,132203,1,0
232,272,132361,1,0
208,280,132519,1,0
264,232,132993,1,0
312,216,133308,1,8
360,224,133624,1,0
430,219,133782,1,8
376,216,133940,1,0
352,224,134097,1,0
328,232,134255,1,0
280,256,134571,1,0
256,264,134729,1,0
232,272,134887,1,0
208,280,135045,1,0
264,232,135519,1,0
312,216,135834,1,8
360,224,136150,1,8
376,208,136309,1,8
368,184,136466,1,8
320,200,136782,1,0
288,240,137098,1,0
336,224,137256,1,8
312,224,137414,1,0
288,224,137572,1,0
368,184,137888,1,8
376,208,138045,1,0
439,221,138203,1,0
408,168,138361,1,8
360,184,138677,1,0
336,192,138835,1,0
312,208,138993,1,0
360,232,139309,1,8
408,168,139624,1,0
432,176,139782,1,8
456,184,139940,1,0
456,184,140098,1,8
416,216,140414,1,8
368,232,140730,1,8
344,240,140888,1,8
328,264,141045,1,0
312,280,141203,1,0
272,240,141519,5,0
264,184,141835,1,0
272,240,141993,1,0
312,176,142151,1,8
368,176,142466,1,0
416,200,142782,1,0
440,192,142940,1,8
416,184,143098,1,0
440,136,143414,1,8
408,176,143730,1,0
360,192,144045,1,0
408,176,144361,1,8
416,184,144677,1,0
464,152,144993,1,8
416,160,145309,1,0
448,200,145624,1,8
424,152,145940,1,0
360,224,146256,1,8
400,224,146414,1,8
272,240,146572,1,0
264,184,146888,1,0
312,176,147204,1,8
368,176,147519,1,0
352,200,147677,1,0
416,200,147835,1,0
440,192,147993,1,8
416,184,148151,1,0
440,136,148467,1,8
408,176,148783,1,0
360,192,149098,1,0
408,176,149414,1,8
416,184,149730,1,0
464,152,150046,1,8
416,160,150362,1,0
448,200,150677,1,0
424,152,150993,1,8
272,240,151624,5,0
264,184,151940,1,0
208,168,152098,1,0
312,176,152256,1,8
368,176,152571,1,0
416,200,152887,1,0
440,192,153045,1,8
416,184,153203,1,0
440,136,153519,1,8
408,176,153835,1,0
360,192,154150,1,0
408,176,154466,1,8
416,184,154782,1,0
464,152,155098,1,8
416,160,155414,1,0
448,200,155729,1,0
424,152,156045,1,8
216,168,156361,1,0
384,168,156519,1,0
384,168,156677,5,8
352,272,156993,1,0
352,272,157151,1,0
320,280,157309,1,0
448,160,157624,1,8
424,240,157940,1,0
424,240,158098,1,0
424,240,158256,1,0
448,160,158572,1,8
392,232,158887,1,0
336,304,159046,1,0
392,152,159203,1,8
448,160,159519,1,0
448,160,159677,1,0
480,176,159835,1,8
432,216,160151,1,0
448,160,160466,1,8
384,248,160782,1,0
376,192,161098,1,12
288,208,161730,5,4
376,192,162361,1,12
416,208,162993,1,4
384,200,163624,1,8
232,224,163940,1,0
232,224,164098,1,0
328,200,164256,1,0
408,168,164572,1,0
384,200,164887,1,8
432,200,165203,1,0
432,200,165361,1,8
432,200,165677,1,8
256,224,165835,1,0
224,208,165993,1,0
408,168,166151,1,8
408,168,166466,1,0
432,200,166624,1,8
424,240,166940,1,8
384,208,167098,1,0
408,168,167414,1,12
448,224,168045,1,4
376,176,168677,1,8
408,168,168993,1,0
408,168,169151,1,0
448,160,169309,1,8
456,192,169624,1,0
448,160,169940,1,8
448,160,170256,1,0
344,288,170414,1,0
456,192,170572,1,8
424,208,170887,1,0
304,280,171046,1,0
368,232,171203,1,0
352,168,171519,1,8
432,168,172151,5,4
432,168,172466,1,12
376,240,173098,1,4
367,160,173730,1,8
376,240,174045,1,0
376,240,174203,1,0
461,252,174361,1,0
315,279,174677,1,0
383,186,174993,1,8
224,176,175309,1,0
446,169,175466,1,8
383,186,175782,1,8
450,215,175940,1,0
383,186,176256,1,0
383,186,176572,1,8
450,215,176730,1,8
391,268,176887,1,0
356,261,177203,1,0
438,170,177519,1,8
450,215,177835,1,0
264,272,177993,1,0
438,170,178151,1,8
388,235,178466,1,0
356,261,178782,1,0
207,165,179414,1,0
401,165,179730,1,8
474,176,179887,1,0
474,176,180045,1,8
430,236,180361,1,0
430,236,180677,1,8
356,189,181151,1,8
356,189,181309,1,8
370,244,181466,1,0
370,244,181624,1,0
352,152,181940,5,8
496,168,182256,1,0
496,168,182572,1,8
496,168,182888,1,0
440,160,183203,1,8
496,168,183519,1,0
440,208,183677,1,8
408,248,184151,1,0
384,144,184467,1,8
440,160,184782,1,0
496,168,185098,1,8
496,168,185414,1,0
440,160,185730,1,8
440,160,186046,1,0
464,192,186203,1,8
376,256,186677,1,0
304,96,186993,1,8
440,160,187309,1,0
440,160,187624,1,8
448,208,187940,1,0
448,208,188098,1,0
448,208,188256,1,8
440,160,188572,1,0
440,160,188730,1,8
352,232,189203,1,0
408,280,189361,1,0
120,184,189677,1,0
120,184,189835,1,0
240,224,189993,1,0
272,256,190151,1,0
352,232,190467,1,0
408,280,190782,1,0
344,304,191098,1,0
344,304,191256,1,0
328,176,191572,1,0
392,176,191730,1,0
456,168,191888,1,8
472,120,192046,5,8
192,192,192361,1,0
416,192,192677,1,8
376,240,192993,1,0
416,192,193309,1,8
416,192,193624,1,0
416,192,193782,1,8
376,240,194256,1,0
192,192,194414,1,0
472,120,194572,1,8
192,192,194887,1,0
416,192,195203,1,8
376,240,195519,1,0
416,192,195835,1,8
416,192,196150,1,0
416,192,196308,1,8
376,240,196782,1,0
344,232,196940,1,0
456,192,197098,1,8
376,168,197414,1,0
432,168,197730,1,8
432,168,198046,1,0
432,168,198203,1,0
432,168,198361,1,8
376,168,198677,1,0
416,184,198835,1,8
344,256,199309,1,0
344,176,199624,1,12
416,184,199940,1,4
416,184,200256,1,12
480,184,200572,1,4
448,176,200888,1,12
344,176,201203,2,4,B|176:176,1,140
384,120,202151,5,4
392,224,202782,1,12
392,224,203414,1,4
320,176,204046,1,8
216,208,204361,1,0
216,208,204519,1,0
392,224,204677,1,0
320,176,204993,1,0
384,168,205309,1,8
416,168,205624,1,0
440,184,205782,1,8
440,184,206098,1,8
440,184,206256,1,0
304,240,206414,1,0
416,168,206572,1,8
344,184,206888,1,0
416,168,207046,1,8
440,184,207361,1,8
408,232,207519,1,0
416,168,207835,1,12
344,184,208467,1,4
416,168,209098,1,8
416,168,209414,1,0
416,168,209572,1,0
488,176,209730,1,8
472,208,210046,1,0
472,208,210203,1,0
440,200,210361,1,8
416,224,210677,1,0
440,200,210993,1,8
472,208,211309,1,0
440,200,211467,1,0
440,200,211624,1,0
392,184,211940,1,8
416,224,212098,1,8
416,280,212256,5,0
456,160,212572,1,4
416,168,212888,1,12
248,224,213519,1,4
416,168,214151,1,8
448,216,214467,1,0
448,216,214624,1,0
448,216,214782,1,0
376,248,215098,1,0
464,176,215414,1,8
376,248,215572,1,0
416,168,215730,1,0
464,176,215888,1,8
448,216,216203,1,8
376,248,216361,1,0
296,112,216677,1,0
464,144,216993,1,8
464,144,217151,1,8
464,176,217309,1,0
448,216,217624,1,0
464,176,217940,1,8
408,256,218256,1,0
336,240,218414,1,0
464,176,218572,1,8
376,224,218888,1,0
376,224,219203,1,0
392,288,219835,1,0
464,176,220151,1,8
464,176,220309,1,0
464,176,220467,1,8
432,208,220782,1,0
400,256,221098,1,8
208,216,221414,1,0
312,144,221730,1,12
440,136,222361,5,4
424,176,222993,1,12
400,248,223624,1,4
392,176,224256,1,8
360,232,224572,1,0
360,232,224730,1,0
312,248,224888,1,0
392,176,225203,1,0
464,144,225519,1,8
464,192,225677,1,0
464,192,225835,1,0
432,192,225993,1,8
432,192,226309,1,8
376,232,226467,1,0
392,176,226782,1,8
224,232,226940,1,0
392,176,227098,1,0
432,192,227256,1,8
408,232,227572,1,8
408,232,227730,1,0
392,176,228046,1,12
352,168,228677,1,4
424,184,229309,1,8
408,216,229624,1,0
408,216,229782,1,0
408,216,229940,1,8
464,192,230256,1,0
464,192,230414,1,0
424,184,230572,1,8
283,196,230730,1,8
408,216,230888,1,0
384,184,231203,1,8
408,216,231519,1,0
392,248,231677,1,0
392,248,231835,1,0
384,184,232151,1,8
448,176,232309,1,8
448,176,232467,5,0
328,128,232782,1,4
328,128,233098,1,12
320,240,233730,1,4
347,168,234361,1,8
407,232,234677,1,0
407,232,234835,1,0
453,182,234993,1,0
347,168,235309,1,0
453,182,235624,1,8
392,198,235782,1,0
392,198,235940,1,0
414,171,236098,1,8
414,171,236414,1,8
392,198,236572,1,0
263,168,236730,1,0
328,141,236888,1,0
414,171,237203,1,8
452,181,237361,1,8
446,221,237519,1,0
419,238,237835,1,0
452,181,238151,1,8
372,218,238467,1,0
372,218,238624,1,0
414,171,238782,1,8
419,238,239098,1,0
364,256,239414,1,0
250,179,240046,1,0
414,171,240361,1,8
474,188,240519,1,0
474,188,240677,1,8
414,171,240993,1,0
387,172,241309,1,8
338,297,241782,1,8
338,297,241940,1,8
367,242,242098,1,0
304,268,242256,1,0
414,264,242572,5,0
304,256,243204,1,0
328,240,243362,1,8
431,213,243519,1,0
431,213,243677,1,0
376,208,243993,1,0
352,208,244151,1,8
400,176,244467,1,0
352,184,244783,1,8
328,192,244940,1,0
312,216,245098,1,0
208,200,245730,1,0
232,200,245888,1,8
256,200,246046,1,8
280,208,246204,1,0
320,248,246519,1,8
336,264,246677,1,0
368,224,246993,1,8
320,208,247309,1,0
344,192,247467,1,8
414,264,247625,1,0
304,256,248257,1,0
328,240,248415,1,8
431,213,248572,1,0
431,213,248730,1,0
376,208,249046,1,0
352,208,249204,1,8
400,176,249520,1,0
352,184,249836,1,8
328,192,249993,1,0
312,216,250151,1,0
208,200,250783,1,0
232,200,250941,1,8
256,200,251099,1,8
280,208,251257,1,0
320,248,251572,1,0
336,264,251730,1,0
368,224,251888,1,8
368,224,252046,1,8
381,265,252203,1,0
320,208,252362,1,0
320,184,252677,5,0
280,144,252993,1,0
320,176,253309,1,0
384,168,253467,1,8
384,168,253625,1,0
400,192,253783,1,0
392,216,254098,1,0
376,240,254256,1,8
416,208,254572,1,0
432,256,254888,1,8
424,280,255046,1,0
408,296,255204,1,0
384,248,255519,1,8
408,200,255835,1,0
392,176,255993,1,8
392,176,256151,1,8
408,200,256309,1,0
368,232,256625,1,8
344,248,256783,1,0
392,176,257098,1,8
440,160,257414,1,0
464,168,257572,1,8
320,184,257730,1,0
280,144,258046,1,0
320,176,258362,1,0
384,168,258520,1,8
384,168,258678,1,0
400,192,258836,1,0
392,216,259151,1,0
376,240,259309,1,8
416,208,259625,1,0
432,256,259941,1,8
424,280,260099,1,0
408,296,260257,1,0
384,248,260572,1,8
408,200,260888,1,0
392,176,261046,1,8
392,176,261204,1,8
408,200,261362,1,0
368,232,261678,1,0
214,221,261835,1,0
392,184,261993,1,8
408,160,262151,1,8
424,176,262309,1,0
424,200,262467,1,0
333,199,262624,1,0
