osu file format v7

[General]
AudioFilename: Bound Together-12-Ailsean-Joe Cam Stole My Bike.mp3
AudioLeadIn: 2000
PreviewTime: 1481
Countdown: 1
SampleSet: Normal
StackLeniency: 0.7
Mode: 0
LetterboxInBreaks: 1

[Editor]
DistanceSpacing: 0.800000011920929
BeatDivisor: 8
GridSize: 8

[Metadata]
Title:Joe Cam Stole My Bike
Artist:Ailsean
Creator:K-S-O
Version:Twoson
Source:EarthBound
Tags:Mother 2 Nintendo Remix

[Difficulty]
HPDrainRate:3
CircleSize:3
OverallDifficulty:3
SliderMultiplier:1.4
SliderTickRate:2

[Events]
//Background and Video events
0,0,"twoson.png"
//Break Periods
2,30205,32851
2,62777,67137
//Storyboard Layer 0 (Background)
//Storyboard Layer 1 (Fail)
//Storyboard Layer 2 (Pass)
//Storyboard Layer 3 (Foreground)
//Storyboard Sound Samples
//Background Colour Transformations
3,100,163,162,255

[TimingPoints]
1720,428.57142857143,4,1,0,100,1,0

[Colours]
Combo1 : 128,255,128
Combo2 : 0,128,255

[HitObjects]
112,128,1719,5,0
112,176,1934,1,0
112,224,2148,1,0
224,224,2577,2,0,B|224:368,1,140
336,368,3434,1,0
336,320,3648,1,0
336,272,3862,1,0
336,224,4077,1,0
336,176,4291,1,8
192,112,5148,5,0
192,160,5362,1,0
192,208,5577,1,0
240,208,5791,1,0
288,208,6005,2,4,B|288:64,1,140,12|4
448,32,6862,6,2,L|352:32|208:32,1,210,2|10
192,32,7720,2,2,L|192:160|96:160,1,210,2|10
112,208,8577,2,2,L|112:352,1,140
160,352,9220,1,0
208,352,9434,1,4
176,224,10291,6,2,L|64:224|64:112,1,210,2|10
112,128,11148,2,2,L|224:128|224:16,1,210,2|10
272,32,12005,2,0,L|352:32|352:96,1,140
352,144,12648,1,0
400,144,12862,1,4
448,240,13505,5,0
448,288,13720,2,2,L|224:288,1,210
192,288,14577,2,4,L|192:160|96:160,1,210
112,96,15434,6,2,L|112:16|176:16|176:96,1,210,2|10
176,144,16291,2,2,L|176:224|240:224|240:144,1,210,2|10
240,96,17148,2,0,L|240:16|304:16,1,140
304,64,17791,1,0
304,112,18005,1,4
400,256,18862,6,2,L|480:256|480:320|400:320,1,210,2|10
352,320,19720,2,2,L|272:320|272:256|352:256,1,210,2|10
336,192,20577,2,0,L|160:192,1,140
144,192,21220,1,0
96,192,21434,1,4
192,64,22291,6,2,L|304:64|304:176,1,210,2|10
352,160,23148,2,2,L|448:160|448:288,1,210,2|10
400,272,24005,2,0,L|256:272,1,140
208,272,24648,1,0
208,320,24862,1,4
64,208,25720,6,2,L|64:64,1,140,0|8
112,64,26362,1,0
160,64,26577,2,2,L|160:224,1,140
272,192,27434,6,2,L|384:192|384:304,1,210,2|10
336,288,28291,2,2,L|112:288,1,210,2|10
128,240,29148,2,0,L|128:160|192:160,1,140
192,112,29791,1,0
240,112,30005,1,4
400,144,34291,5,0
400,96,34505,1,0
400,48,34720,1,0
352,48,34934,1,0
304,48,35148,2,2,L|304:256,1,140
176,144,36005,5,0
176,96,36220,1,0
176,48,36434,1,0
128,48,36648,1,0
80,48,36862,2,2,L|80:208,1,140
80,288,37720,6,0,L|208:288|208:192,1,210
208,160,38577,2,0,L|304:160|304:288,1,210
304,320,39434,1,0
352,320,39648,1,0
400,320,39862,1,0
400,272,40077,1,0
400,224,40291,1,0
400,48,41148,6,0,L|176:48,1,210
144,48,42005,2,0,L|32:48|32:160,1,210
80,144,42862,1,0
128,144,43077,1,0
176,144,43291,1,0
224,144,43505,1,0
272,144,43720,1,0
416,144,44577,5,0
464,144,44791,1,0
464,192,45005,2,0,L|464:288|464:336|384:336|336:336,1,210
352,336,45862,1,0
304,336,46077,1,0
256,336,46291,6,0,L|112:336|112:192,1,280
112,144,47362,1,0
64,144,47577,1,0
64,96,47791,1,0
64,48,48005,6,0,L|224:48|224:192,1,280
272,176,49077,1,0
320,176,49291,1,0
368,176,49505,1,0
368,128,49720,6,0,L|496:128|496:304,1,280
448,288,50791,1,0
400,288,51005,1,0
352,288,51220,1,0
304,288,51434,6,2,L|192:288|192:176,1,210,2|10
144,192,52291,2,2,L|32:192|32:80,1,210,2|10
32,48,53148,2,0,L|192:48,1,140
224,48,53791,1,0
272,48,54005,1,4
464,32,54862,6,2,L|464:256,1,210,2|10
416,240,55720,2,2,L|288:240|288:352,1,210,2|10
240,320,56577,2,0,L|144:320|144:256,1,140
144,224,57220,1,0
144,176,57434,1,4
112,48,58077,5,0
160,48,58291,2,2,L|272:48|272:160,1,210
320,144,59148,2,0,L|464:144,1,140,0|4
448,256,60005,6,2,L|224:256,1,210,2|10
240,304,60862,2,2,L|80:304|80:192,1,210,2|10
80,208,61720,2,0,L|240:208,1,140
224,160,62362,1,0
224,112,62577,1,4
256,288,68577,5,0
256,176,69005,1,0
256,64,69434,1,0
368,64,69862,1,0
368,176,70291,1,0
368,232,70577,1,0
369,346,71005,1,4
192,336,72434,5,0
192,224,72862,1,0
192,112,73291,1,0
80,112,73720,1,0
80,48,74005,1,0
184,48,74416,1,4
352,48,75862,6,0,L|352:128|432:128,3,140
416,224,77577,1,0
320,224,78005,1,0
256,224,78291,1,2
64,216,78862,5,0
63,149,79148,1,0
64,64,79720,1,0
176,64,80148,1,0
288,64,80577,6,2,L|416:64|416:160,1,210,2|10
368,144,81434,2,2,L|368:256|258:257,1,210,2|10
223,255,82291,2,0,L|223:335|143:335,1,140
117,334,82934,1,0
71,334,83148,1,4
272,160,84005,6,2,L|144:160|144:272,1,210,2|10
144,288,84862,2,2,L|400:288,1,210,2|10
352,240,85720,2,0,L|352:96,1,140
304,96,86362,1,0
256,96,86577,1,4
64,96,87220,5,0
64,144,87434,2,2,L|64:240|192:240,1,210
224,240,88291,2,0,L|224:80,1,140
336,96,89148,6,2,L|464:96|464:192,1,210,2|10
464,224,90005,2,2,L|464:304|320:304,1,210,2|10
288,304,90862,2,0,L|288:144,1,140
288,112,91505,1,0
240,112,91720,1,4
48,32,92577,6,2,L|272:32,1,210,2|10
256,80,93434,2,2,L|256:320,1,210,2|10
256,336,94291,2,0,L|96:336,1,140
112,288,94934,1,0
112,240,95148,1,4
256,96,96005,6,0,L|256:272,1,140
256,288,96648,1,0
256,336,96862,1,4
256,192,97720,12,4,100292
