osu file format v7

[General]
AudioFilename: Bound Together-12-Ailsean-Joe Cam Stole My Bike.mp3
AudioLeadIn: 2000
PreviewTime: 1481
Countdown: 1
SampleSet: Normal
StackLeniency: 0.7
Mode: 0
LetterboxInBreaks: 1

[Editor]
DistanceSpacing: 1
BeatDivisor: 4
GridSize: 8

[Metadata]
Title:Joe Cam Stole My Bike
Artist:Ailsean
Creator:K-S-O
Version:Threed
Source:EarthBound
Tags:Mother 2 Nintendo Remix

[Difficulty]
HPDrainRate:5
CircleSize:5
OverallDifficulty:5
SliderMultiplier:1.4
SliderTickRate:2

[Events]
//Background and Video events
0,0,"threed.png"
//Break Periods
2,30633,33091
2,63205,67377
//Storyboard Layer 0 (Background)
//Storyboard Layer 1 (Fail)
//Storyboard Layer 2 (Pass)
//Storyboard Layer 3 (Foreground)
//Storyboard Sound Samples
//Background Colour Transformations
3,100,163,162,255

[TimingPoints]
1720,428.57142857143,4,1,0,100,1,0

[Colours]
Combo1 : 128,255,128
Combo2 : 0,128,255

[HitObjects]
80,144,1719,1,0
128,144,1934,1,0
176,144,2148,2,2,C|176:288,1,140
224,288,2791,1,0
224,288,2898,1,8
368,288,3434,5,0
368,240,3648,1,0
368,192,3862,1,0
416,192,4077,1,0
464,192,4291,1,0
464,144,4505,1,2
464,144,4612,1,10
464,48,5148,5,0
416,48,5362,1,2
416,48,5470,1,2
416,48,5577,1,10
368,48,5791,1,0
320,48,6005,2,0,L|256:48|256:144,1,140
176,128,6862,6,0,L|96:128|80:128,1,70
64,128,7291,1,10
64,176,7505,1,0
112,176,7720,2,0,L|112:256,1,70
112,288,8148,1,10
160,288,8362,1,0
208,288,8577,1,4
288,288,8898,5,0
288,288,9005,2,0,L|289:208|288:208,1,70
288,176,9434,1,0
288,128,9648,1,0
288,80,9862,1,4
384,80,10291,6,0,L|464:80,1,70
496,80,10720,1,10
496,128,10934,1,0
448,128,11148,2,0,L|368:128,1,70
336,128,11577,1,10
336,176,11791,1,0
336,224,12005,1,4
416,224,12327,5,4
416,224,12434,1,4
416,272,12648,1,4
416,320,12862,2,4,L|272:320,1,140
182,320,13505,5,0
182,320,13720,2,2,L|102:320,3,70
112,320,14577,2,2,L|112:240,2,70
32,320,15434,6,0,L|32:224,1,70
32,208,15862,1,10
32,160,16077,1,0
32,112,16291,2,0,L|112:112,1,70
144,112,16720,1,10
192,112,16934,1,0
240,112,17148,1,4
336,112,17470,5,4
336,112,17577,1,4
384,112,17791,2,4,L|384:208,1,70
384,224,18220,1,4
336,224,18434,1,4
256,224,18862,6,0,L|176:224,1,70
144,224,19291,1,10
96,224,19505,1,0
96,176,19720,2,0,L|96:96,1,70
96,64,20148,1,10
144,64,20362,1,0
192,64,20577,1,4
272,64,20898,5,0
272,64,21005,2,0,L|272:144,1,70
272,176,21434,1,4
320,176,21648,2,4,L|320:96,1,70
432,176,22291,6,2,L|432:96,2,70,2|2|10
432,224,22934,1,0
432,272,23148,2,2,L|432:352,2,70,2|2|10
384,272,23791,1,0
336,272,24005,1,4
256,272,24327,5,0
256,272,24434,1,0
208,272,24648,1,0
160,272,24862,2,2,L|160:352,2,70
160,224,25505,5,0
160,176,25720,2,0,L|160:112|208:112,1,105
201,112,26148,1,0
240,112,26362,1,0
288,112,26577,2,2,L|288:192,2,70
368,112,27434,6,0,L|368:32,1,70
416,48,27862,1,10
464,48,28077,1,0
464,96,28291,2,0,L|464:176,1,70
416,160,28720,1,10
368,160,28934,1,0
320,160,29148,1,4
320,240,29470,5,0
320,240,29577,1,0
272,240,29791,1,0
224,240,30005,2,4,L|224:320,2,70
48,64,34291,5,0
96,64,34505,1,0
144,64,34720,2,2,C|144:208,1,140
192,208,35362,1,0
192,208,35470,1,0
240,144,36005,5,0
288,144,36220,1,0
336,144,36434,2,2,C|336:288,1,140
384,288,37077,1,0
384,288,37184,1,0
288,288,37720,6,0,L|144:288,1,140
96,288,38362,1,0
48,288,38577,2,0,L|48:144,1,140
48,96,39220,1,0
96,96,39434,1,0
96,96,39648,1,0
144,96,39862,1,0
144,96,40077,1,0
192,96,40291,1,4
288,96,41148,6,0,L|288:256,1,140
288,288,41791,1,0
288,336,42005,2,0,L|432:336,1,140
464,336,42648,1,0
464,288,42862,1,0
464,288,43077,1,0
464,240,43291,1,0
464,240,43505,1,0
464,192,43720,1,4
464,80,44577,5,0
464,80,44791,1,0
416,80,45005,2,0,L|336:80,2,70,0|0|0
416,128,45648,1,0
416,176,45862,5,8
368,176,46077,1,0
320,176,46291,2,0,L|240:176,2,70,0|0|0
320,224,46934,1,0
320,224,47148,1,8
320,272,47362,5,0
272,272,47577,1,8
224,272,47791,1,0
176,272,48005,2,0,L|176:352,2,70,0|0|0
176,224,48648,1,0
176,224,48862,1,8
176,176,49077,5,0
128,176,49291,1,8
80,176,49505,1,0
80,128,49720,2,0,L|80:48,2,70
128,128,50362,1,0
128,128,50577,1,8
176,128,50791,1,0
176,128,51005,1,0
224,128,51220,1,0
272,128,51434,6,0,L|272:224,1,70
272,240,51862,1,10
320,240,52077,1,0
368,240,52291,2,0,L|368:160,1,70
368,128,52720,1,10
416,128,52934,1,0
464,128,53148,2,2,L|464:208,4,70
464,80,54220,1,0
416,80,54434,1,4
320,80,54862,6,0,L|224:80,1,70
208,80,55291,1,10
208,128,55505,1,0
160,128,55720,2,0,L|160:208,1,70
160,240,56148,1,10
112,240,56362,1,0
64,240,56577,2,2,L|64:320,4,70
64,192,57648,1,0
64,144,57862,1,4
64,96,58077,5,0
112,96,58291,2,2,L|192:96,2,70
112,48,58934,1,0
160,48,59148,2,2,L|240:48,2,70
304,48,60005,6,0,L|304:128,1,70
304,160,60434,1,10
304,208,60648,1,0
304,256,60862,2,0,L|304:352,1,70
304,368,61291,1,10
352,368,61505,1,0
352,320,61720,2,2,L|352:240,4,70
400,320,62791,1,0
448,320,63005,1,4
464,192,68577,5,0
416,192,68862,1,0
416,192,69005,1,8
416,128,69434,1,0
368,128,69720,1,0
368,128,69862,1,8
288,128,70291,1,0
216,128,70577,1,0
120,128,71005,1,4
48,192,72005,5,0
96,192,72291,1,0
96,192,72434,1,8
96,272,72862,1,0
144,272,73148,1,0
144,272,73291,1,8
235,272,73720,1,0
307,272,74005,1,0
394,271,74434,1,4
432,160,75862,5,0
368,160,76148,1,0
368,160,76291,1,0
320,160,76577,1,0
320,160,76720,1,0
272,160,77005,1,0
272,160,77148,1,0
208,160,77577,1,0
160,160,77862,1,0
160,160,78005,2,4,L|40:160,1,93.3333333333333
64,64,78862,5,0
112,64,79148,1,0
192,64,79720,1,0
272,64,80148,1,4
352,64,80577,6,0,L|352:160,1,70
352,176,81005,1,10
400,176,81220,1,0
448,176,81434,2,0,L|448:256,1,70
448,288,81862,1,10
400,288,82077,1,0
352,288,82291,2,2,L|272:288,4,70
352,240,83362,1,0
352,192,83577,1,4
256,192,84005,6,0,L|176:192,1,70
144,192,84434,1,10
96,192,84648,1,0
48,192,84862,2,0,L|48:112,1,70
48,80,85291,1,10
96,80,85505,1,0
144,80,85720,2,2,L|224:80,4,70
144,128,86791,1,0
144,176,87005,1,4
192,176,87220,5,0
240,176,87434,2,2,L|320:176,4,70
240,128,88505,1,0
240,80,88720,1,4
320,80,89148,6,0,L|400:80,1,70
432,80,89577,1,10
432,128,89791,1,0
432,176,90005,2,0,L|432:256,1,70
432,288,90434,1,10
384,288,90648,1,0
336,288,90862,1,0
272,288,91184,5,2
272,288,91291,1,2
224,288,91505,1,2
224,240,91720,1,6
224,192,91934,1,4
224,144,92148,1,4
320,144,92577,6,0,L|400:144,1,70
432,144,93005,1,10
432,96,93220,1,0
432,48,93434,2,0,L|352:48,1,70
320,48,93862,1,10
272,48,94077,1,0
224,48,94291,1,0
160,48,94612,5,2
160,48,94720,1,2
160,96,94934,1,4
160,144,95148,1,4
160,192,95362,1,4
160,240,95577,1,4
64,240,96005,5,0
64,176,96327,1,2
64,176,96434,1,2
64,128,96648,1,4
64,80,96862,1,4
64,32,97077,1,4
112,32,97291,1,4
256,192,97720,12,4,100292
