osu file format v7

[General]
AudioFilename: Bound Together-12-Ailsean-Joe Cam Stole My Bike.mp3
AudioLeadIn: 2000
PreviewTime: 1481
Countdown: 1
SampleSet: Normal
StackLeniency: 0.7
Mode: 0
LetterboxInBreaks: 1

[Editor]
DistanceSpacing: 0.699999988079071
BeatDivisor: 4
GridSize: 8

[Metadata]
Title:Joe Cam Stole My Bike
Artist:Ailsean
Creator:K-S-O
Version:Onett
Source:EarthBound
Tags:Mother 2 Earthbound Nintendo Remix

[Difficulty]
HPDrainRate:2
CircleSize:3
OverallDifficulty:1
SliderMultiplier:1.4
SliderTickRate:2

[Events]
//Background and Video events
0,0,"onett.png"
//Break Periods
2,30205,32611
2,62777,66897
//Storyboard Layer 0 (Background)
//Storyboard Layer 1 (Fail)
//Storyboard Layer 2 (Pass)
//Storyboard Layer 3 (Foreground)
//Storyboard Sound Samples
//Background Colour Transformations
3,100,163,162,255

[TimingPoints]
1720,428.57142857143,4,1,0,100,1,0

[Colours]
Combo1 : 128,255,128
Combo2 : 0,128,255

[HitObjects]
80,64,1719,1,0
80,161,2148,1,8
178,161,2577,2,0,C|178:321,1,140,8|4
276,301,3434,2,0,C|276:173|276:157,2,140,0|4|4
472,301,5148,6,2,C|472:157,2,140
320,56,6862,6,2,C|96:56,1,210,2|10
110,104,7720,2,0,C|334:104,1,210,0|8
320,153,8577,1,2
418,153,9005,1,2
418,251,9434,1,6
192,320,10291,6,2,L|48:320|48:224,1,210,2|10
48,205,11148,2,2,L|48:61|128:61,1,210,2|10
163,61,12005,1,2
163,158,12434,1,2
261,158,12862,1,6
296,328,13720,5,2
296,229,14148,1,2
394,229,14577,1,2
394,327,15005,1,2
492,327,15434,6,2,L|492:167|428:167,1,210,2|10
393,167,16291,2,2,L|169:167,1,210,2|10
134,167,17148,1,2
36,167,17577,1,2
36,265,18005,1,2
232,265,18862,5,0
379,265,19505,1,0
379,216,19720,1,8
379,69,20362,5,0
379,118,20577,1,8
281,118,21005,1,0
183,118,21434,1,8
36,118,22291,5,0
36,265,22934,1,2
85,265,23148,1,10
232,265,23791,1,2
232,314,24005,1,10
330,314,24434,1,2
428,314,24862,1,10
428,118,25720,6,0,L|252:118,3,140
190,118,27434,5,0
43,118,28077,1,0
92,118,28291,1,8
92,265,28934,1,0
141,265,29148,1,10
239,265,29577,1,2
337,265,30005,1,6
224,304,34291,6,0,L|64:304,3,140
84,206,36005,2,0,L|228:206,3,140
322,206,37720,5,0
460,67,38577,1,0
264,67,39434,2,0,L|264:355,1,280
402,209,41148,5,0
206,209,42005,1,0
345,70,42862,2,0,L|345:221|201:222,1,280
200,48,44577,6,0,L|40:48|40:320,1,420
137,308,46291,2,0,L|425:308|425:164,1,420
425,77,48005,2,0,L|281:77|281:221|121:221,1,420
149,123,49720,2,0,L|5:123|5:267|165:267,1,420
207,198,51434,6,2,L|351:198|447:198,1,210,2|10
417,247,52291,2,2,L|417:343|289:343,1,210,2|10
254,343,53148,1,2
156,343,53577,1,2
58,343,54005,1,6
48,240,54862,6,2,L|48:16,1,210,2|10
96,32,55720,2,10,L|96:256,1,210
144,240,56577,1,2
240,240,57005,1,2
336,240,57434,1,6
336,48,58291,5,2
238,48,58720,1,2
141,48,59148,1,2
42,48,59577,1,2
42,146,60005,5,0
189,146,60648,1,0
189,195,60862,1,8
336,195,61505,1,0
336,244,61720,1,10
434,244,62148,1,2
434,146,62577,1,6
128,144,68577,5,0
128,340,69434,1,0
323,340,70291,1,0
323,144,71148,1,0
29,144,72434,5,0
226,144,73291,1,0
226,340,74148,1,0
30,340,75005,1,0
30,144,75862,6,0,L|462:144,2,420
30,46,78862,1,0
226,46,79720,1,0
226,242,80577,6,2,L|322:242|322:370,1,210,2|10
273,356,81434,2,2,L|49:356,1,210,0|10
63,306,82291,1,2
63,209,82720,1,2
161,209,83148,1,6
161,324,84005,6,2,L|401:324,1,210,2|10
420,324,84862,2,2,L|420:100,1,210,2|10
420,65,85720,1,2
322,65,86148,1,2
224,65,86577,1,10
28,65,87434,5,2
28,163,87862,1,2
126,163,88291,1,2
126,261,88720,1,2
224,261,89148,6,2,L|400:261|464:261,1,210,2|10
483,261,90005,2,2,L|483:341|339:341,1,210,2|10
304,341,90862,1,2
206,341,91291,1,2
108,341,91720,1,6
108,145,92577,5,0
255,145,93220,1,0
255,96,93434,1,8
402,96,94077,1,0
402,145,94291,1,2
402,243,94720,1,2
402,341,95148,1,2
206,341,96005,5,2
206,243,96434,1,2
108,243,96862,1,2
256,192,97720,12,4,100292
