osu file format v7

[General]
AudioFilename: Bound Together-12-Ailsean-Joe Cam Stole My Bike.mp3
AudioLeadIn: 2000
PreviewTime: 1481
Countdown: 1
SampleSet: Normal
StackLeniency: 0.7
Mode: 0
LetterboxInBreaks: 1

[Editor]
DistanceSpacing: 1
BeatDivisor: 4
GridSize: 8

[Metadata]
Title:Joe Cam Stole My Bike
Artist:Ailsean
Creator:K-S-O
Version:Fourside
Source:EarthBound
Tags:Mother 2 Nintendo Remix

[Difficulty]
HPDrainRate:6
CircleSize:6
OverallDifficulty:8
SliderMultiplier:1.9
SliderTickRate:2

[Events]
//Background and Video events
0,0,"fourside.png"
//Break Periods
2,30634,33541
2,63205,67827
//Storyboard Layer 0 (Background)
//Storyboard Layer 1 (Fail)
//Storyboard Layer 2 (Pass)
//Storyboard Layer 3 (Foreground)
//Storyboard Sound Samples
//Background Colour Transformations
3,100,163,162,255

[TimingPoints]
1720,428.57142857143,4,1,0,61,1,0

[Colours]
Combo1 : 128,255,128
Combo2 : 0,128,255

[HitObjects]
96,64,1719,1,0
96,160,1934,1,0
96,160,2041,1,0
96,160,2148,1,10
192,160,2362,1,0
288,160,2577,1,2
288,64,2791,1,0
288,64,2898,1,0
288,64,3005,1,10
192,64,3220,1,2
96,112,3434,5,0
144,112,3541,1,0
192,112,3648,1,2
240,112,3755,1,0
288,112,3862,2,0,L|400:112,1,95
480,112,4291,1,4
384,112,4505,1,0
384,112,4612,1,0
384,112,4720,1,10
320,304,5148,5,0
320,208,5362,1,0
320,208,5470,1,0
320,208,5577,1,2
224,208,5791,1,0
320,208,6005,1,0
320,304,6220,1,2
320,304,6327,1,2
320,304,6434,1,10
128,96,6862,5,0
128,192,7077,1,0
128,192,7184,1,0
128,192,7291,1,10
224,192,7505,1,0
224,288,7720,1,0
224,192,7934,1,2
224,192,8041,1,2
224,192,8148,1,10
224,96,8362,1,0
320,96,8577,5,0
368,96,8684,1,0
416,96,8791,1,2
416,144,8898,1,2
368,144,9005,1,2
464,144,9220,1,0
464,240,9434,1,2
416,240,9541,1,2
368,240,9648,1,0
320,240,9755,1,0
320,192,9862,1,10
32,48,10291,6,0,L|128:48,1,95
128,96,10612,1,0
128,96,10720,1,10
128,192,10934,1,0
128,288,11148,2,0,L|240:288,1,95
224,240,11470,1,0
224,288,11577,1,10
320,288,11791,5,0
416,288,12005,1,0
416,336,12112,1,0
368,336,12220,1,2
368,288,12327,1,0
368,240,12434,1,2
464,240,12648,2,2,L|464:128,1,95
464,48,13077,1,0
416,48,13184,1,0
368,48,13291,1,10
272,48,13505,5,0
272,144,13720,1,0
272,144,13827,1,0
272,144,13934,1,2
224,144,14041,1,2
224,192,14148,2,2,L|352:192,1,95
320,288,14577,1,0
320,288,14684,1,0
320,336,14791,1,2
272,336,14898,1,2
224,336,15005,1,10
32,176,15434,5,0
32,272,15648,1,0
32,272,15755,1,0
32,272,15862,1,10
128,272,16077,1,0
128,176,16291,1,0
128,272,16505,1,0
128,272,16612,1,0
128,272,16720,1,10
224,272,16934,5,0
224,176,17148,2,0,L|336:176,2,95
224,128,17684,1,0
176,128,17791,1,2
80,128,18005,2,2,L|80:64,1,47.5
128,80,18220,1,0
128,176,18434,1,12
208,352,18862,6,2,L|96:352,1,95
112,352,19184,1,0
112,352,19291,1,10
112,256,19505,1,0
112,160,19720,2,2,L|0:160,1,95
16,208,20041,1,0
64,208,20148,1,10
64,112,20362,1,0
64,16,20577,5,0
112,16,20684,1,0
112,64,20791,1,2
160,64,20898,1,2
160,16,21005,1,2
160,112,21220,2,0,L|272:112,1,95
352,112,21648,1,2
352,112,21755,1,2
352,112,21862,1,10
240,272,22291,6,0,L|240:192,1,47.5
240,176,22505,1,0
336,176,22720,1,10
432,176,22934,1,2
432,80,23148,2,0,L|368:80,1,47.5
336,80,23362,1,0
240,80,23577,1,10
144,80,23791,1,2
144,176,24005,6,0,L|80:176,4,47.5
240,176,24648,1,2
336,176,24862,2,6,L|400:176,4,47.5,6|6|6|6|14
336,272,25505,5,0
432,272,25720,1,0
432,224,25827,1,0
384,224,25934,1,2
288,224,26148,1,0
240,224,26255,1,0
192,224,26362,1,2
192,320,26577,1,0
192,272,26684,1,0
240,272,26791,2,2,L|304:272,2,47.5,2|2|10
240,368,27220,1,10
336,368,27434,5,0
336,272,27648,1,0
336,272,27755,1,0
336,272,27862,1,10
336,176,28077,1,0
240,176,28291,1,0
336,176,28505,1,0
336,176,28612,1,0
336,176,28720,1,10
336,80,28934,5,0
240,80,29148,1,0
144,80,29362,1,0
144,128,29470,1,0
96,128,29577,1,0
96,176,29684,1,0
144,176,29791,1,2
240,176,30005,1,0
192,176,30112,1,0
144,176,30220,1,2
144,272,30434,1,10
368,192,34291,5,0
272,192,34505,1,0
272,144,34612,1,0
272,96,34720,1,2
176,96,34934,1,0
176,192,35148,1,2
80,192,35362,1,0
80,240,35470,1,0
80,288,35577,1,2
176,288,35791,5,0
176,192,36005,1,2
272,192,36220,1,0
272,240,36327,1,0
272,288,36434,1,2
368,288,36648,1,0
368,192,36862,1,2
272,144,37077,1,2
272,192,37184,1,2
224,192,37291,1,2
224,96,37505,1,2
96,96,37720,6,0,L|96:208,1,95
96,320,38148,1,0
96,320,38255,1,0
96,320,38362,1,0
219,320,38577,2,0,L|219:208,1,95
343,225,39005,1,0
344,224,39112,1,0
343,225,39220,1,0
219,225,39434,6,0,L|107:225,1,95
124,101,39862,2,0,L|236:101,1,95
343,101,40291,1,4
336,320,41148,6,0,L|208:320,1,95
112,320,41577,1,0
48,320,41684,1,0
48,320,41791,1,0
48,192,42005,2,0,L|48:80,1,95
176,96,42434,1,0
176,32,42541,1,0
176,32,42648,1,0
176,160,42862,6,0,L|288:160,1,95
272,32,43291,2,0,L|160:32,1,95
176,160,43720,1,4
176,160,43934,1,4
176,288,44148,1,4
272,192,44577,6,0,L|272:80,1,95
400,96,45005,1,0
400,96,45220,1,0
272,96,45434,1,0
272,144,45541,1,0
272,192,45648,1,8
400,224,45862,5,0
400,224,46077,1,0
272,224,46291,2,0,L|144:224,1,95
176,224,46720,1,0
176,96,46934,1,0
176,96,47148,1,0
176,144,47255,1,0
176,144,47362,1,8
304,160,47577,6,0,L|304:272,1,95
304,160,48005,2,0,L|192:160,1,95
208,288,48434,1,0
208,288,48648,1,0
80,288,48862,1,0
80,240,48970,1,0
80,240,49077,1,8
208,224,49291,6,0,L|208:112,1,95
331,129,49720,1,0
336,248,49934,1,0
336,248,50148,1,0
384,248,50255,1,0
384,200,50362,1,8
394,67,50577,1,0
270,67,50791,1,0
146,67,51005,1,0
146,114,51112,1,0
193,114,51220,1,8
207,239,51434,6,0,L|208:288,1,47.5
158,286,51648,1,0
81,287,51862,1,10
80,192,52077,1,0
80,96,52291,2,0,L|16:96,1,47.5
32,144,52505,1,0
32,240,52720,1,10
128,240,52934,5,2
224,240,53148,2,2,L|160:240,2,47.5
224,240,53470,1,2
224,192,53577,1,2
128,192,53791,1,0
224,192,54005,1,2
272,192,54112,1,2
320,192,54220,1,2
320,96,54434,1,10
128,96,54862,5,0
128,192,55077,1,0
176,192,55184,1,0
176,240,55291,1,10
176,144,55505,1,0
272,144,55720,1,0
272,240,55934,1,0
272,192,56041,1,0
224,192,56148,1,10
320,192,56362,5,0
320,288,56577,1,0
368,288,56684,1,0
368,240,56791,1,2
368,192,56898,1,2
368,144,57005,1,2
273,144,57220,1,2
272,144,57434,2,0,L|272:80,2,47.5
176,144,57862,1,10
176,240,58077,5,0
80,240,58291,2,2,L|80:128,2,95
128,240,58827,1,0
176,240,58934,1,2
272,240,59148,2,0,L|272:304,2,47.5
224,240,59470,1,2
224,192,59577,1,2
128,192,59791,1,2
128,96,60005,6,0,L|48:96,1,47.5
80,144,60220,1,0
80,48,60434,1,10
176,96,60648,1,0
176,144,60755,1,0
176,192,60862,2,0,L|112:192,1,47.5
80,192,61077,1,0
80,96,61291,1,10
176,96,61505,5,0
175,144,61612,1,0
224,144,61720,2,2,L|288:144,2,47.5
224,192,62041,1,0
176,192,62148,1,2
80,192,62362,1,0
80,288,62577,2,2,L|16:288,1,47.5
32,240,62791,1,2
128,240,63005,1,10
192,240,68577,6,0,L|192:72,1,126.666666666667
128,112,69005,1,8
400,112,69434,2,0,L|400:256,1,126.666666666667
336,240,69862,1,8
80,320,70291,1,0
272,320,70577,1,0
272,320,70987,1,4
272,120,71434,1,4
272,120,71577,1,4
144,288,72005,6,0,L|-16:288,1,126.666666666667
16,224,72434,1,8
288,208,72862,2,0,L|288:64,1,126.666666666667
224,80,73291,1,8
224,352,73720,1,0
224,144,74005,1,0
448,288,74434,1,4
224,144,74862,1,0
224,144,75005,1,4
224,336,75291,1,0
224,336,75434,1,4
160,144,75702,5,0
88,144,75862,2,0,L|88:304,1,126.666666666667
160,272,76291,2,0,L|160:128,1,126.666666666667
160,80,76720,2,0,L|0:80,1,126.666666666667
32,144,77148,1,0
208,144,77434,1,0
144,144,77577,1,0
144,336,77862,1,0
144,336,78005,1,0
144,208,78291,2,0,L|256:208|256:320,1,190
256,336,78862,5,0
112,336,79148,1,0
176,336,79291,1,0
64,176,79577,1,0
128,176,79720,1,0
272,320,80005,1,0
208,320,80148,1,0
288,208,80470,5,0
288,160,80577,2,0,L|176:160,1,95
144,160,80898,1,0
144,112,81005,1,10
144,16,81220,1,0
240,16,81434,2,0,L|352:16,1,95
336,64,81755,1,0
288,64,81862,1,10
288,160,82077,5,0
288,256,82291,2,2,L|352:256,4,47.5
192,256,82934,1,0
288,256,83148,2,2,L|288:320,2,47.5
384,256,83577,1,10
384,64,84005,5,0
384,160,84220,1,0
336,160,84327,1,0
336,112,84434,1,10
336,208,84648,1,0
336,304,84862,1,0
240,304,85077,1,0
240,256,85184,1,0
288,256,85291,1,10
383,208,85505,5,0
288,208,85720,1,0
240,208,85827,1,0
240,256,85934,1,2
192,256,86041,1,0
144,256,86148,1,2
48,256,86362,1,0
48,168,86577,1,2
96,168,86684,1,0
144,168,86791,1,2
144,216,86898,1,0
96,216,87005,1,10
144,304,87220,5,0
240,304,87434,1,0
288,304,87541,1,0
288,256,87648,1,2
192,256,87862,1,0
240,256,87970,1,0
240,208,88077,1,2
336,208,88291,1,0
384,208,88398,1,0
432,208,88505,1,2
432,112,88720,1,14
240,112,89148,6,2,L|240:176,1,47.5
288,160,89362,1,0
288,112,89470,1,2
240,112,89577,1,10
144,112,89791,1,0
144,208,90005,2,2,L|144:144,1,47.5
144,112,90220,1,0
96,112,90327,1,2
96,160,90434,1,10
0,160,90648,5,0
0,256,90862,1,2
48,256,90970,1,0
48,208,91077,1,2
96,208,91184,1,0
96,256,91291,1,2
192,256,91505,1,0
192,160,91720,1,10
400,160,92577,6,0,L|400:96,2,47.5
400,208,92898,1,0
400,208,93005,1,10
400,304,93220,1,0
304,304,93434,2,0,L|304:368,2,47.5
304,256,93755,1,0
304,256,93862,1,10
208,256,94077,1,0
208,160,94291,1,0
304,160,94505,1,0
304,160,94612,1,0
352,160,94720,1,2
352,64,94934,1,2
352,160,95148,1,6
336,304,96005,5,0
240,304,96220,1,0
240,304,96327,1,0
240,256,96434,1,2
240,160,96648,1,0
144,160,96862,1,6
256,192,97720,12,4,100292
