osu file format v12

[General]
AudioFilename: Ueki ED1.mp3
AudioLeadIn: 0
PreviewTime: 42294
Countdown: 0
SampleSet: Soft
StackLeniency: 0.7
Mode: 0
LetterboxInBreaks: 1

[Editor]
Bookmarks: 18544
DistanceSpacing: 0.8
BeatDivisor: 4
GridSize: 4

[Metadata]
Title:Kokoro no Wakusei ~Little Planets~ (TV Size)
TitleUnicode:Kokoro no Wakusei ~Little Planets~ (TV Size)
Artist:Aiko Kayo
ArtistUnicode:Aiko Kayo
Creator:Indra145
Version:Hard
Source:The Law of Ueki
Tags:Aiko Kayo Indra145 JT123 Lincolm The Law of Ueki no Housoku Ending
BeatmapID:167045
BeatmapSetID:54364

[Difficulty]
HPDrainRate:5
CircleSize:4
OverallDifficulty:5
ApproachRate:6
SliderMultiplier:1.4
SliderTickRate:1

[Events]
//Background and Video events
0,0,"chibi_ai_and_ueki____by_Prier_chan.jpg",0,0
//Break Periods
//Storyboard Layer 0 (Background)
//Storyboard Layer 1 (Fail)
//Storyboard Layer 2 (Pass)
//Storyboard Layer 3 (Foreground)
//Storyboard Sound Samples
//Background Colour Transformations
3,100,255,255,255

[TimingPoints]
628,416.666666666667,4,2,0,40,1,0
15211,-100,4,1,0,40,0,0
15628,-100,4,2,0,40,0,0
28961,-100,4,1,0,40,0,0
29378,-100,4,2,0,40,0,0
30003,-100,4,2,0,40,0,0
38961,-100,4,1,0,40,0,0
39169,-100,4,2,0,40,0,0
39586,-100,4,1,0,40,0,0
39794,-100,4,2,0,40,0,0
40211,-100,4,1,0,40,0,0
42294,-100,4,2,0,40,0,1
43128,-100,4,1,0,40,0,1
43544,-100,4,2,0,40,0,1
56461,-100,4,1,0,40,0,1
56878,-100,4,2,0,40,0,1
57294,-100,4,1,0,40,0,1
57711,-100,4,2,0,40,0,1
68753,-100,4,1,0,40,0,1
69378,-100,4,2,0,40,0,1
69794,-100,4,1,0,40,0,1
70211,-100,4,2,0,40,0,1
70628,-100,4,1,0,40,0,1
71044,-100,4,2,0,40,0,1
82294,-100,4,2,0,40,0,0

[Colours]
Combo1 : 255,255,128
Combo2 : 5,240,5
Combo3 : 0,255,255
Combo4 : 0,0,64
Combo5 : 255,128,255

[HitObjects]
40,344,628,1,2,0:0:0:0:
152,324,1045,1,8,0:0:0:0:
228,240,1461,1,2,0:0:0:0:
220,128,1878,1,8,0:0:0:0:
156,220,2295,2,0,B|156:292,1,70
228,292,2711,2,0,B|228:220,1,70
300,224,3128,2,0,B|300:300,1,70,8|2,0:0|0:0,0:0:0:0:
368,296,3545,1,8,0:0:0:0:
468,196,3961,5,2,0:0:0:0:
400,108,4378,1,8,0:0:0:0:
300,60,4795,1,2,0:0:0:0:
188,64,5211,1,8,0:0:0:0:
84,108,5628,2,0,B|133:157,1,70
76,200,6045,2,0,B|26:150,1,70
84,108,6461,2,0,B|133:157,1,70,8|2,0:0|0:0,0:0:0:0:
40,172,6878,1,8,0:0:0:0:
108,260,7295,5,2,0:0:0:0:
200,324,7711,1,8,0:0:0:0:
292,260,8128,1,2,0:0:0:0:
380,328,8545,1,8,0:0:0:0:
468,260,8961,2,0,B|468:184,1,70
396,188,9378,2,0,B|396:272,1,70
324,260,9795,2,0,B|324:190,1,70,8|2,0:0|0:0,0:0:0:0:
256,204,10211,1,8,0:0:0:0:
232,96,10628,6,4,B|276:52|344:52|392:88|408:152,1,210,2|8,0:0|0:0,0:0:0:0:
444,176,11461,1,2,0:0:0:0:
424,228,11670,1,2,0:0:0:0:
372,244,11878,2,4,B|308:288|244:276|208:228|220:148,1,210,8|2,0:0|0:0,0:0:0:0:
136,36,13128,1,4,0:0:0:0:
136,36,13545,1,4,0:0:0:0:
196,132,13961,1,2,0:0:0:0:
116,212,14378,1,2,0:0:0:0:
192,292,14795,5,8,0:0:0:0:
192,292,15003,1,8,0:0:0:0:
192,292,15211,1,2,0:0:0:0:
272,212,15628,2,0,B|335:242,1,70
368,180,16045,2,0,B|304:149,1,70
272,212,16461,2,0,B|335:242,1,70,8|2,0:0|0:0,0:0:0:0:
400,268,16878,1,8,0:0:0:0:
276,332,17295,5,2,0:0:0:0:
164,316,17711,1,8,0:0:0:0:
92,232,18128,1,2,0:0:0:0:
72,120,18545,1,8,0:0:0:0:
148,36,18961,2,0,B|224:36,1,70
288,108,19378,2,0,B|218:108,1,70
148,180,19795,2,0,B|218:180,1,70,8|2,0:0|0:0,0:0:0:0:
216,180,20211,1,8,0:0:0:0:
220,40,20628,5,2,0:0:0:0:
332,48,21045,1,8,0:0:0:0:
432,96,21461,1,2,0:0:0:0:
476,200,21878,1,8,0:0:0:0:
460,312,22295,2,0,P|428:320|370:296,1,70
424,248,22711,2,0,P|380:240|346:252,1,70
392,312,23128,2,0,P|360:320|302:296,1,70,8|0,0:0|0:0,0:0:0:0:
284,252,23545,1,8,0:0:0:0:
176,344,23961,5,4,0:0:0:0:
112,252,24378,1,2,0:0:0:0:
180,164,24795,1,8,0:0:0:0:
108,76,25211,2,4,B|184:28|260:88,1,140,8|2,0:0|0:0,0:0:0:0:
336,136,26045,5,2,0:0:0:0:
428,72,26461,1,8,0:0:0:0:
452,180,26878,2,0,B|436:236|392:228|360:220|360:220|320:208|268:276,1,210
256,152,27920,2,0,L|256:244,1,70,8|4,0:0|0:0,0:0:0:0:
220,264,28336,2,0,B|180:211|140:223|140:223|108:231|64:239|48:183,1,210,0|4,0:0|0:0,0:0:0:0:
88,80,29378,5,2,0:0:0:0:
136,48,29586,1,8,0:0:0:0:
192,40,29794,2,0,B|228:20|264:40,1,70,2|8,0:0|0:0,0:0:0:0:
312,48,30211,1,8,0:0:0:0:
364,72,30419,2,0,P|396:88|416:128,1,70,2|8,0:0|0:0,0:0:0:0:
456,220,31045,5,4,0:0:0:0:
348,200,31461,1,4,0:0:0:0:
392,304,31878,2,2,B|328:352|256:340,1,140,8|4,0:0|0:0,0:0:0:0:
204,336,32503,1,2,0:0:0:0:
152,320,32711,1,2,0:0:0:0:
100,296,32919,2,0,P|52:252|40:156,1,140
48,128,33545,1,4,0:0:0:0:
68,76,33753,2,0,P|88:48|124:40,1,70,8|8,0:0|0:0,0:0:0:0:
232,36,34378,5,2,0:0:0:0:
232,36,34586,1,8,0:0:0:0:
288,48,34795,2,0,B|324:52|348:108,1,70,8|0,0:0|0:0,0:0:0:0:
292,140,35211,2,0,B|326:143|342:182,1,70,0|2,0:0|0:0,0:0:0:0:
308,244,35628,2,0,B|342:247|358:286,1,70,4|0,0:0|0:0,0:0:0:0:
420,256,36045,5,2,0:0:0:0:
416,324,36253,1,8,0:0:0:0:
356,356,36461,1,4,0:0:0:0:
288,348,36670,2,0,P|248:352|208:340,1,70,8|8,0:0|0:0,0:0:0:0:
152,356,37086,5,2,0:0:0:0:
84,352,37294,1,8,0:0:0:0:
52,292,37502,1,4,0:0:0:0:
36,224,37711,2,0,B|40:184|81:178,1,70,8|2,0:0|0:0,0:0:0:0:
104,244,38128,1,8,0:0:0:0:
80,180,38336,1,4,0:0:0:0:
88,112,38545,5,8,0:0:0:0:
132,60,38753,1,8,0:0:0:0:
196,36,38961,1,2,0:0:0:0:
220,100,39170,5,8,0:0:0:0:
156,124,39378,1,8,0:0:0:0:
184,188,39586,1,2,0:0:0:0:
248,164,39795,5,8,0:0:0:0:
312,140,40003,1,8,0:0:0:0:
284,76,40211,1,2,0:0:0:0:
352,60,40420,6,4,P|356:96|384:128,1,70,8|2,0:0|0:0,0:0:0:0:
424,72,40836,6,4,P|444:100|436:152,1,70,8|2,0:0|0:0,0:0:0:0:
400,188,41253,6,4,B|389:230|425:246,1,70,8|2,0:0|0:0,0:0:0:0:
448,132,41669,6,4,B|459:90|423:74,1,70,8|2,0:0|0:0,0:0:0:0:
352,60,42086,6,4,B|272:56|220:108,1,140,8|2,0:0|0:0,0:0:0:0:
176,156,42711,5,8,0:0:0:0:
176,156,42920,1,8,0:0:0:0:
176,156,43128,1,10,0:0:0:0:
260,300,43545,1,4,0:0:0:0:
344,156,43961,1,4,0:0:0:0:
200,240,44378,1,4,0:0:0:0:
368,236,44795,1,4,0:0:0:0:
328,120,45211,2,2,B|256:144|256:144|184:136|144:52,1,210,8|4,0:0|0:0,0:0:0:0:
152,68,46045,2,2,B|60:112|60:112|52:184|84:244|148:272,1,280,8|4,0:0|0:0,0:0:0:0:
184,284,47086,2,2,P|216:292|264:276,1,70,8|8,0:0|0:0,0:0:0:0:
252,284,47503,1,4,0:0:0:0:
248,228,47711,5,0,0:0:0:0:
304,236,47920,1,8,0:0:0:0:
336,192,48128,1,8,0:0:0:0:
308,144,48336,1,2,0:0:0:0:
332,96,48545,2,4,B|316:32|256:12|188:32|176:124,1,210,8|2,0:0|0:0,0:0:0:0:
136,128,49378,5,0,0:0:0:0:
84,148,49586,1,8,0:0:0:0:
60,200,49795,1,8,0:0:0:0:
80,252,50003,1,2,0:0:0:0:
128,284,50211,2,0,B|158:307|194:283,1,70,8|0,0:0|0:0,0:0:0:0:
256,284,50628,2,0,B|225:260|189:284,1,70,8|2,0:0|0:0,0:0:0:0:
256,284,51045,2,0,B|286:307|322:283,2,70,0|2|4,0:0|0:0|0:0,0:0:0:0:
288,220,51670,5,0,0:0:0:0:
324,176,51878,1,8,0:0:0:0:
308,120,52086,1,0,0:0:0:0:
264,84,52295,2,8,B|224:36|140:36|84:96|104:160,1,210,2|4,0:0|0:0,0:0:0:0:
116,184,53128,1,8,0:0:0:0:
128,240,53336,1,8,0:0:0:0:
160,288,53545,2,8,B|168:336|244:352|316:336|332:284,1,210,2|4,0:0|0:0,0:0:0:0:
384,268,54378,6,0,B|424:264|428:200,1,70
384,168,54795,2,0,B|392:212|428:220,1,70
384,168,55211,2,0,B|422:152|423:107,1,70
404,60,55628,1,4,0:0:0:0:
292,40,56044,6,2,P|256:36|204:48,2,70,8|8|8,0:0|0:0|0:0,0:0:0:0:
236,136,56878,6,2,P|200:140|166:134,2,70,8|8|8,0:0|0:0|0:0,0:0:0:0:
172,228,57711,5,4,0:0:0:0:
272,180,58128,1,4,0:0:0:0:
376,220,58545,2,4,B|336:308|264:324|192:308|164:200,1,280,8|2,0:0|0:0,0:0:0:0:
160,164,59586,2,0,B|152:116|208:92,1,70
232,72,60003,2,0,B|264:40|312:80,1,70
340,104,60420,2,0,B|376:124|368:172,1,70,0|4,0:0|0:0,0:0:0:0:
272,216,61045,5,8,0:0:0:0:
272,104,61461,1,2,0:0:0:0:
272,160,61670,1,2,0:0:0:0:
272,216,61878,1,0,0:0:0:0:
372,168,62295,1,4,0:0:0:0:
328,64,62711,5,0,0:0:0:0:
280,40,62920,1,8,0:0:0:0:
227,59,63128,1,8,0:0:0:0:
176,40,63336,1,2,0:0:0:0:
124,56,63545,2,4,B|36:40|-28:104|-12:188|72:224,1,280,8|2,0:0|0:0,0:0:0:0:
176,260,64795,5,8,0:0:0:0:
224,232,65003,1,8,0:0:0:0:
272,260,65211,1,2,0:0:0:0:
320,232,65420,1,4,0:0:0:0:
364,264,65628,2,0,B|408:248|408:196,1,70,8|2,0:0|0:0,0:0:0:0:
420,160,66045,2,0,B|436:120|408:76,1,70,8|0,0:0|0:0,0:0:0:0:
376,56,66461,1,2,0:0:0:0:
328,28,66670,1,8,0:0:0:0:
280,52,66878,5,8,0:0:0:0:
228,28,67086,2,0,B|188:16|156:84,1,70,8|2,0:0|0:0,0:0:0:0:
144,108,67503,2,0,B|124:148|160:200,1,70,8|2,0:0|0:0,0:0:0:0:
160,228,67920,2,0,B|172:280|228:288,1,70,8|2,0:0|0:0,0:0:0:0:
252,308,68336,1,2,0:0:0:0:
300,336,68545,1,2,0:0:0:0:
348,308,68753,1,2,0:0:0:0:
376,260,68961,1,0,0:0:0:0:
424,160,69378,5,8,0:0:0:0:
440,108,69586,1,8,0:0:0:0:
416,56,69795,1,2,0:0:0:0:
304,56,70211,5,8,0:0:0:0:
280,108,70420,1,8,0:0:0:0:
300,160,70628,1,2,0:0:0:0:
340,264,71045,1,4,0:0:0:0:
244,320,71461,1,4,0:0:0:0:
152,260,71878,2,2,B|220:264|268:216|268:148|248:88|188:56|108:72|76:120|96:192|156:220|224:216|276:188|308:80,1,560,8|4,0:0|0:0,0:0:0:0:
412,116,73961,1,0,0:0:0:0:
460,216,74378,5,8,0:0:0:0:
380,296,74795,1,4,0:0:0:0:
380,296,75003,1,4,0:0:0:0:
320,332,75211,1,0,0:0:0:0:
252,344,75420,1,0,0:0:0:0:
192,312,75628,1,2,0:0:0:0:
112,200,76045,5,0,0:0:0:0:
156,164,76253,1,8,0:0:0:0:
204,192,76461,1,8,0:0:0:0:
252,164,76670,1,2,0:0:0:0:
296,196,76878,2,2,B|261:97|161:85|157:209|69:217|25:97,1,350,8|4,0:0|0:0,0:0:0:0:
68,232,78128,5,8,0:0:0:0:
108,272,78336,1,8,0:0:0:0:
152,236,78545,1,2,0:0:0:0:
192,272,78753,1,4,0:0:0:0:
234,235,78961,2,2,B|268:176|237:102|164:76|71:102|48:173|91:251,1,350
92,292,80211,5,8,0:0:0:0:
147,287,80420,1,4,0:0:0:0:
200,272,80628,2,2,B|164:210|187:139|280:113|353:139|384:213|350:272,1,350
283,303,81878,5,2,0:0:0:0:
313,350,82086,2,2,B|417:338|481:274|485:162|457:42|377:-2|281:-26|169:-2|81:42|61:134|61:222|89:306|169:358|269:350,1,980,8|4,0:0|0:0,0:0:0:0:
