osu file format v12

[General]
AudioFilename: Ueki ED1.mp3
AudioLeadIn: 0
PreviewTime: 42294
Countdown: 0
SampleSet: Soft
StackLeniency: 0.7
Mode: 0
LetterboxInBreaks: 1

[Editor]
DistanceSpacing: 0.8
BeatDivisor: 2
GridSize: 4

[Metadata]
Title:Kokoro no Wakusei ~Little Planets~ (TV Size)
TitleUnicode:Kokoro no Wakusei ~Little Planets~ (TV Size)
Artist:Aiko Kayo
ArtistUnicode:Aiko Kayo
Creator:Indra145
Version:Easy
Source:The Law of Ueki
Tags:Aiko Kayo Indra145 JT123 Lincolm The Law of Ueki no Housoku Ending
BeatmapID:165301
BeatmapSetID:54364

[Difficulty]
HPDrainRate:3
CircleSize:3
OverallDifficulty:2
ApproachRate:3
SliderMultiplier:0.7
SliderTickRate:1

[Events]
//Background and Video events
0,0,"the-law-of-ueki.jpg",0,0
//Break Periods
//Storyboard Layer 0 (Background)
//Storyboard Layer 1 (Fail)
//Storyboard Layer 2 (Pass)
//Storyboard Layer 3 (Foreground)
//Storyboard Sound Samples
//Background Colour Transformations
3,100,255,255,255

[TimingPoints]
628,416.666666666667,4,2,0,35,1,0
33961,-100,4,1,0,35,0,0
34794,-100,4,2,0,35,0,0
38544,-100,4,1,0,35,0,0
42294,-100,4,2,0,35,0,1
42711,-100,4,2,0,35,0,1
43128,-100,4,1,0,35,0,1
43544,-100,4,2,0,35,0,1
45211,-100,4,1,0,35,0,1
48128,-100,4,2,0,35,0,1
56461,-100,4,1,0,35,0,1
56878,-100,4,2,0,35,0,1
58544,-100,4,1,0,35,0,1
62294,-100,4,2,0,35,0,1
69794,-100,4,1,0,35,0,1
70211,-100,4,2,0,35,0,1
71878,-100,4,1,0,35,0,1
74378,-100,4,2,0,35,0,1
76878,-100,4,1,0,35,0,1
78128,-100,4,2,0,35,0,1
82294,-100,4,2,0,35,0,0

[Colours]
Combo1 : 255,255,128
Combo2 : 5,240,5
Combo3 : 0,255,255
Combo4 : 0,0,64
Combo5 : 255,128,255

[HitObjects]
100,76,2295,1,8,0:0:0:0:
196,132,3128,1,8,0:0:0:0:
288,68,3961,2,8,B|348:12|428:76,1,140,2|2,0:0|0:0,0:0:0:0:
352,160,5628,5,8,0:0:0:0:
408,256,6461,1,8,0:0:0:0:
316,320,7295,2,8,B|252:376|187:318,1,140,2|2,0:0|0:0,0:0:0:0:
128,228,8961,5,8,0:0:0:0:
192,136,9795,1,8,0:0:0:0:
124,48,10628,2,8,B|200:24|284:48,1,140,2|2,0:0|0:0,0:0:0:0:
300,84,11878,5,8,0:0:0:0:
216,232,13128,1,4,0:0:0:0:
216,232,13545,1,4,0:0:0:0:
72,144,14795,5,2,0:0:0:0:
160,72,15628,1,8,0:0:0:0:
240,148,16461,1,8,0:0:0:0:
324,72,17295,6,8,B|384:36|468:76,1,140,2|2,0:0|0:0,0:0:0:0:
412,176,18961,1,8,0:0:0:0:
452,280,19795,1,8,0:0:0:0:
348,324,20628,6,8,B|280:364|204:316,1,140,2|0,0:0|0:0,0:0:0:0:
108,284,22295,1,8,0:0:0:0:
56,184,23128,1,8,0:0:0:0:
112,88,23961,5,2,0:0:0:0:
204,148,24795,1,4,0:0:0:0:
204,148,25211,1,4,0:0:0:0:
96,276,26461,2,2,B|128:347|200:371|272:351|316:267,1,280,8|4,0:0|0:0,0:0:0:0:
416,216,28961,5,2,0:0:0:0:
468,116,29795,1,2,0:0:0:0:
376,52,30628,2,8,B|216:52,1,140,2|2,0:0|0:0,0:0:0:0:
136,108,32295,1,4,0:0:0:0:
176,144,32711,2,2,B|268:260|368:124,1,210,8|2,0:0|0:0,0:0:0:0:
456,184,34795,5,4,0:0:0:0:
456,184,35211,1,4,0:0:0:0:
368,116,36045,5,8,0:0:0:0:
320,88,36461,2,8,B|280:84|256:116,3,70,4|4|4|4,0:0|0:0|0:0|0:0,0:0:0:0:
224,160,38128,1,0,0:0:0:0:
260,200,38545,2,2,B|400:200,2,140,4|8|4,0:0|0:0|0:0,0:0:0:0:
220,160,40628,2,14,B|260:94|332:66|400:90|448:166,1,280,2|4,0:0|0:0,0:0:0:0:
416,212,42711,6,0,B|364:212,2,35,8|8|2,0:0|0:0|0:0,0:0:0:0:
384,260,43545,1,4,0:0:0:0:
328,268,43961,1,4,0:0:0:0:
272,252,44378,1,4,0:0:0:0:
228,216,44795,1,8,0:0:0:0:
216,272,45211,2,2,B|239:348|323:376|395:348|427:268,1,280,8|4,0:0|0:0,0:0:0:0:
308,152,48128,5,8,0:0:0:0:
220,80,48961,1,4,0:0:0:0:
128,144,49795,1,8,0:0:0:0:
216,216,50628,1,4,0:0:0:0:
64,52,52295,5,2,0:0:0:0:
128,144,53128,1,0,0:0:0:0:
112,196,53545,1,0,0:0:0:0:
136,244,53961,1,8,0:0:0:0:
180,276,54378,2,10,B|212:257|244:185|212:109|168:80,1,210,8|4,0:0|0:0,0:0:0:0:
224,52,56045,6,0,B|184:36,2,35,10|8|10,0:0|0:0|0:0,0:0:0:0:
268,84,56878,1,4,0:0:0:0:
320,60,57295,1,4,0:0:0:0:
364,96,57711,1,4,0:0:0:0:
412,68,58128,1,8,0:0:0:0:
460,96,58545,2,0,B|440:193|336:237|236:197|208:93,1,350,8|4,0:0|0:0,0:0:0:0:
160,124,61045,5,8,0:0:0:0:
268,252,62295,1,4,0:0:0:0:
192,168,63128,5,2,0:0:0:0:
164,120,63545,1,2,0:0:0:0:
188,72,63961,1,8,0:0:0:0:
300,72,64795,5,2,0:0:0:0:
324,124,65211,1,2,0:0:0:0:
300,176,65628,2,2,B|240:232|176:176,1,140,8|4,0:0|0:0,0:0:0:0:
136,216,66878,5,2,0:0:0:0:
168,260,67295,2,2,B|236:316|320:252,1,140,8|4,0:0|0:0,0:0:0:0:
328,220,68545,1,2,0:0:0:0:
368,180,68961,1,4,0:0:0:0:
328,140,69378,6,0,B|288:100,2,35,10|8|10,0:0|0:0|0:0,0:0:0:0:
364,184,70211,1,4,0:0:0:0:
396,140,70628,1,4,0:0:0:0:
372,88,71045,1,4,0:0:0:0:
316,88,71461,1,8,0:0:0:0:
344,40,71878,2,2,B|456:36|492:148|468:244|340:260,1,350,8|4,0:0|0:0,0:0:0:0:
296,280,74378,5,4,0:0:0:0:
136,236,75628,1,8,0:0:0:0:
216,160,76461,5,8,0:0:0:0:
244,160,76670,1,8,0:0:0:0:
272,160,76878,1,2,0:0:0:0:
412,64,78128,5,4,0:0:0:0:
300,44,78961,2,2,B|356:116|272:180,1,140,8|4,0:0|0:0,0:0:0:0:
232,184,80211,1,8,0:0:0:0:
232,184,80420,2,2,B|152:264|256:344,1,175,8|2,0:0|0:0,0:0:0:0:
300,324,81878,1,4,0:0:0:0:
300,324,82086,1,4,0:0:0:0:
256,192,82295,12,0,85629,0:0:0:0:
