osu file format v9

[General]
AudioFilename: Aice5 - Love Power.mp3
AudioLeadIn: 1500
PreviewTime: 66719
Countdown: 0
SampleSet: Soft
StackLeniency: 0.6
Mode: 0
LetterboxInBreaks: 0

[Editor]
DistanceSpacing: 1.8
BeatDivisor: 4
GridSize: 8

[Metadata]
Title:Love Power
Artist:Aice5
Creator:quintitem
Version:Oneesama
Source:Otome wa Boku ni Koishiteru
Tags:Otoboku Horie Yui Kanda Akemi Kimura Madoka Takahashi Chiaki Asano Masumi Mayoi Neko Suzuka Asahina

[Difficulty]
HPDrainRate:8
CircleSize:5
OverallDifficulty:6
ApproachRate:8
SliderMultiplier:0.95
SliderTickRate:2

[Events]
//Background and Video events
0,0,"otome_3.jpg"
//Break Periods
2,17803,25386
2,102336,106719
2,181003,190053
//Storyboard Layer 0 (Background)
//Storyboard Layer 1 (Fail)
//Storyboard Layer 2 (Pass)
//Storyboard Layer 3 (Foreground)
Sprite,Foreground,CentreLeft,"StoryBoard\aa.png",320,240 M,0,1070,,99,416 F,0,1070,1270,0,1 F,0,3670,3870,1,0
Sprite,Foreground,CentreLeft,"StoryBoard\ab.png",320,240 M,0,4270,,99,416 F,0,4270,4470,0,1 F,0,7670,7870,1,0
Sprite,Foreground,CentreLeft,"StoryBoard\ac.png",320,240 M,0,8270,,99,416 F,0,8270,8470,0,1 F,0,10670,10870,1,0
Sprite,Foreground,CentreLeft,"StoryBoard\ad.png",320,240 M,0,11070,,99,416 F,0,11070,11270,0,1 F,0,17636,17803,1,0
Sprite,Foreground,CentreLeft,"StoryBoard\title.png",320,240 M,0,18136,18803,100,330,110,330 F,0,18136,18803,0,1 M,0,26136,26803,110,330,110,340 F,0,26136,26803,1,0
Sprite,Foreground,CentreLeft,"StoryBoard\artist.png",320,240 M,0,20803,21469,100,360,110,360 F,0,20803,21469,0,1 M,0,26136,26803,110,360,110,370 F,0,26136,26803,1,0
Sprite,Foreground,CentreLeft,"StoryBoard\mapper.png",320,240 M,0,23469,24136,100,390,110,390 F,0,23469,24136,0,1 M,0,26136,26803,110,390,110,400 F,0,26136,26803,1,0
Sprite,Foreground,CentreLeft,"StoryBoard\ba.png",320,240 M,0,28803,,99,416 F,0,28803,28969,0,1 F,0,38969,39136,1,0
Sprite,Foreground,CentreLeft,"StoryBoard\bb.png",320,240 M,0,34136,,306,416 F,0,34136,34303,0,1 F,0,38969,39136,1,0
Sprite,Foreground,CentreLeft,"StoryBoard\bc.png",320,240 M,0,36803,,454,416 F,0,36803,36969,0,1 F,0,38969,39136,1,0
Sprite,Foreground,CentreLeft,"StoryBoard\bd.png",320,240 M,0,39469,,99,414 F,0,39469,39636,0,1 F,0,48636,48803,1,0
Sprite,Foreground,CentreLeft,"StoryBoard\be.png",320,240 M,0,45136,,276,416 F,0,45136,45303,0,1 F,0,48636,48803,1,0
Sprite,Foreground,CentreLeft,"StoryBoard\bf.png",320,240 M,0,50136,,99,416 F,0,50136,50303,0,1 F,0,60303,60469,1,0
Sprite,Foreground,CentreLeft,"StoryBoard\bg.png",320,240 M,0,54803,,327,416 F,0,54803,54969,0,1 F,0,60303,60469,1,0
Sprite,Foreground,CentreLeft,"StoryBoard\bh.png",320,240 M,0,58136,,449,416 F,0,58136,58303,0,1 F,0,60303,60469,1,0
Sprite,Foreground,CentreLeft,"StoryBoard\bi.png",320,240 M,0,60803,,99,416 F,0,60803,60969,0,1 F,0,66303,66469,1,0
Sprite,Foreground,CentreLeft,"StoryBoard\ca.png",320,240 M,0,66803,,99,416 F,0,66803,66969,0,1 F,0,72303,72469,1,0
Sprite,Foreground,CentreLeft,"StoryBoard\cb.png",320,240 M,0,69469,,208,416 F,0,69469,69636,0,1 F,0,72303,72469,1,0
Sprite,Foreground,CentreLeft,"StoryBoard\cc.png",320,240 M,0,72803,,99,416 F,0,72803,72969,0,1 F,0,77303,77469,1,0
Sprite,Foreground,CentreLeft,"StoryBoard\cd.png",320,240 M,0,75136,,195,416 F,0,75136,75303,0,1 F,0,77303,77469,1,0
Sprite,Foreground,CentreLeft,"StoryBoard\ce.png",320,240 M,0,77803,,99,416 F,0,77803,77969,0,1 F,0,82969,83136,1,0
Sprite,Foreground,CentreLeft,"StoryBoard\cf.png",320,240 M,0,80136,,238,416 F,0,80136,80303,0,1 F,0,82969,83136,1,0
Sprite,Foreground,CentreLeft,"StoryBoard\cg.png",320,240 M,0,83469,,99,416 F,0,83469,83636,0,1 F,0,90303,90469,1,0
Sprite,Foreground,CentreLeft,"StoryBoard\ch.png",320,240 M,0,85803,,188,416 F,0,85803,85969,0,1 F,0,90303,90469,1,0
Sprite,Foreground,CentreLeft,"StoryBoard\ci.png",320,240 M,0,90803,,99,416 F,0,90803,90969,0,1 F,0,101969,102136,1,0
Sprite,Foreground,CentreLeft,"StoryBoard\cj.png",320,240 M,0,96136,,235,416 F,0,96136,96303,0,1 F,0,101969,102136,1,0
Sprite,Foreground,CentreLeft,"StoryBoard\da.png",320,240 M,0,107469,,99,416 F,0,107469,107636,0,1 F,0,117636,117803,1,0
Sprite,Foreground,CentreLeft,"StoryBoard\db.png",320,240 M,0,112803,,292,417 F,0,112803,112969,0,1 F,0,117636,117803,1,0
Sprite,Foreground,CentreLeft,"StoryBoard\dc.png",320,240 M,0,115469,,460,416 F,0,115469,115636,0,1 F,0,117636,117803,1,0
Sprite,Foreground,CentreLeft,"StoryBoard\dd.png",320,240 M,0,118136,,99,416 F,0,118136,118303,0,1 F,0,127303,127469,1,0
Sprite,Foreground,CentreLeft,"StoryBoard\de.png",320,240 M,0,123803,,274,416 F,0,123803,123969,0,1 F,0,127303,127469,1,0
Sprite,Foreground,CentreLeft,"StoryBoard\df.png",320,240 M,0,128803,,99,416 F,0,128803,128969,0,1 F,0,138969,139136,1,0
Sprite,Foreground,CentreLeft,"StoryBoard\dg.png",320,240 M,0,133469,,334,416 F,0,133469,133636,0,1 F,0,138969,139136,1,0
Sprite,Foreground,CentreLeft,"StoryBoard\dh.png",320,240 M,0,136803,,459,416 F,0,136803,136969,0,1 F,0,138969,139136,1,0
Sprite,Foreground,CentreLeft,"StoryBoard\di.png",320,240 M,0,139469,,99,416 F,0,139469,139636,0,1 F,0,144969,145136,1,0
Sprite,Foreground,CentreLeft,"StoryBoard\ca.png",320,240 M,0,145469,,99,416 F,0,145469,145636,0,1 F,0,150969,151136,1,0
Sprite,Foreground,CentreLeft,"StoryBoard\cb.png",320,240 M,0,148136,,208,416 F,0,148136,148303,0,1 F,0,150969,151136,1,0
Sprite,Foreground,CentreLeft,"StoryBoard\ec.png",320,240 M,0,151469,,99,416 F,0,151469,151636,0,1 F,0,155969,156136,1,0
Sprite,Foreground,CentreLeft,"StoryBoard\ed.png",320,240 M,0,153803,,220,416 F,0,153803,153969,0,1 F,0,155969,156136,1,0
Sprite,Foreground,CentreLeft,"StoryBoard\ee.png",320,240 M,0,156469,,99,416 F,0,156469,156636,0,1 F,0,161636,161803,1,0
Sprite,Foreground,CentreLeft,"StoryBoard\ef.png",320,240 M,0,158803,,257,416 F,0,158803,158969,0,1 F,0,161636,161803,1,0
Sprite,Foreground,CentreLeft,"StoryBoard\eg.png",320,240 M,0,162136,,99,416 F,0,162136,162303,0,1 F,0,169303,169469,1,0
Sprite,Foreground,CentreLeft,"StoryBoard\eh.png",320,240 M,0,164469,,167,416 F,0,164469,164636,0,1 F,0,169303,169469,1,0
Sprite,Foreground,CentreLeft,"StoryBoard\ca.png",320,240 M,0,190803,,99,416 F,0,190803,190969,0,1 F,0,196303,196469,1,0
Sprite,Foreground,CentreLeft,"StoryBoard\cb.png",320,240 M,0,193469,,208,416 F,0,193469,193636,0,1 F,0,196303,196469,1,0
Sprite,Foreground,CentreLeft,"StoryBoard\cc.png",320,240 M,0,196803,,99,416 F,0,196803,196969,0,1 F,0,201303,201469,1,0
Sprite,Foreground,CentreLeft,"StoryBoard\cd.png",320,240 M,0,199136,,195,416 F,0,199136,199303,0,1 F,0,201303,201469,1,0
Sprite,Foreground,CentreLeft,"StoryBoard\ce.png",320,240 M,0,201803,,99,416 F,0,201803,201969,0,1 F,0,206969,207136,1,0
Sprite,Foreground,CentreLeft,"StoryBoard\cf.png",320,240 M,0,204136,,238,416 F,0,204136,204303,0,1 F,0,206969,207136,1,0
Sprite,Foreground,CentreLeft,"StoryBoard\cg.png",320,240 M,0,207469,,99,416 F,0,207469,207636,0,1 F,0,214303,214469,1,0
Sprite,Foreground,CentreLeft,"StoryBoard\ch.png",320,240 M,0,209803,,188,416 F,0,209803,209969,0,1 F,0,214303,214469,1,0
Sprite,Foreground,CentreLeft,"StoryBoard\ci.png",320,240 M,0,214803,,99,416 F,0,214803,214969,0,1 F,0,225303,225469,1,0
Sprite,Foreground,CentreLeft,"StoryBoard\cj.png",320,240 M,0,220136,,235,416 F,0,220136,220303,0,1 F,0,225303,225469,1,0
//Storyboard Sound Samples
//Background Colour Transformations
3,100,163,162,255

[TimingPoints]
1070,400,4,2,1,50,1,0
1870,400,4,2,1,50,1,0
15470,333.333333333333,4,2,1,60,1,0
28636,-100,4,2,1,75,0,0
39053,-100,4,2,1,60,0,0
39636,-100,4,2,1,75,0,0
48719,-100,4,2,1,65,0,0
49386,-100,4,2,1,55,0,0
50053,-117.647058823529,4,2,1,75,0,0
60636,-100,4,2,1,75,0,0
63803,-100,4,2,1,80,0,0
66136,-100,4,2,1,75,0,0
67469,-83.3333333333333,4,2,1,80,0,1
67553,-83.3333333333333,4,2,1,80,0,0
102136,-83.3333333333333,4,2,1,60,0,0
106136,-117.647058823529,4,2,1,70,0,0
115303,-100,4,2,1,75,0,0
117719,-100,4,2,1,85,0,0
117969,-100,4,2,1,75,0,0
127386,-100,4,2,1,65,0,0
128053,-100,4,2,1,55,0,0
128719,-117.647058823529,4,2,1,75,0,0
139303,-100,4,2,1,75,0,0
142469,-100,4,2,1,80,0,0
144803,-100,4,2,1,75,0,0
146136,-83.3333333333333,4,2,1,80,0,1
146219,-83.3333333333333,4,2,1,80,0,0
166136,-83.3333333333333,4,2,1,70,0,0
175303,-83.3333333333333,4,2,1,75,0,0
190136,-117.647058823529,4,2,1,65,0,0
191636,-100,4,2,1,65,0,0
199303,-100,4,2,1,75,0,0
200636,-83.3333333333333,4,2,1,80,0,0

[Colours]
Combo1 : 228,125,41
Combo2 : 101,87,41
Combo3 : 114,132,205
Combo4 : 209,163,186

[HitObjects]
168,144,1070,2,0,B|64:144,2,95,0|0|2
256,32,2270,1,0
344,144,2670,2,0,B|456:159|461:275,1,190,0|2
188,360,4270,6,0,B|75:344|70:228,1,190,0|2
72,92,5470,2,0,B|72:36|127:25,2,95
204,152,6670,1,2
332,92,7070,1,0
332,92,7270,2,0,B|419:103|421:199,1,142.5
348,308,8270,6,0,B|152:308,2,190,2|0|2
408,348,10070,2,0,B|462:337|463:281,1,95
488,216,10670,2,0,B|487:160|432:149,1,95
304,92,11470,6,0,B|200:92,1,95,2|0
108,192,12270,2,0,B|208:192,1,95
256,192,13070,12,4,15470
256,192,26136,12,0,27803
256,80,28136,6,0,B|256:40,4,23.75,8|8|8|8|8
136,136,28803,6,0,B|136:28,2,95,6|8|0
100,192,29636,2,0,B|44:192,2,47.5,0|8|2
136,248,30136,2,0,B|135:301|195:312,1,95,0|8
316,264,30803,2,0,B|316:364,2,95,0|8|2
428,192,31803,5,8
316,120,32136,2,0,B|316:84|364:84,2,47.5,0|0|8
256,152,32636,2,0,B|256:204,2,47.5,2|0|0
196,120,33136,1,8
196,120,33303,2,0,B|92:120,1,95,2|0
44,152,33803,1,8
96,276,34136,6,0,B|40:276,2,47.5,2|0|8
152,312,34636,2,0,B|260:312,1,95
304,348,35136,2,0,B|412:348,2,95,8|2|8
304,276,35969,2,0,B|412:276,1,95
424,216,36469,1,8
380,92,36803,5,2
380,92,36969,2,0,B|380:32,2,47.5,0|8|2
316,112,37469,2,0,B|220:112,1,95,0|8
168,68,37969,1,0
168,68,38136,2,0,B|132:116|176:164,1,95,6|8
220,200,38636,2,0,B|256:248|212:296,1,95,6|0
164,324,39136,2,0,B|164:368,4,23.75,8|8|8|8|14
32,296,39803,6,0,B|32:188,1,95,8|0
76,152,40303,2,0,B|108:152|108:200,2,47.5,0|8|2
32,100,40803,2,0,B|31:46|91:35,1,95,0|8
204,100,41470,1,0
320,36,41803,1,8
436,100,42136,6,0,B|493:110|493:163,2,95,2|8|0
400,156,42970,1,0
400,156,43136,1,8
400,156,43303,2,0,B|304:156,1,95,2|0
268,100,43803,1,8
268,100,43970,2,0,B|210:110|210:163,1,95,2|0
208,232,44470,2,0,B|208:336,1,95,8|2
92,264,45136,6,0,B|92:364,2,95,8|0|8
48,212,45970,1,0
92,164,46136,1,2
188,72,46470,1,8
188,72,46636,1,2
188,72,46803,2,0,B|296:72,1,95,0|8
348,72,47303,1,6
448,160,47636,6,0,B|504:160,2,47.5,0|8|2
400,284,48303,2,0,B|456:284,2,47.5,0|8|2
332,288,48803,2,0,B|280:300,3,47.5,12|8|8|8
220,312,49470,2,0,B|192:360,3,47.5,8|8|8|8
128,352,50136,6,0,B|40:352,2,80.7499966308476,6|0|8
128,216,51136,1,0
128,216,51303,2,0,B|128:164|80:164,1,80.7499966308476
36,112,51803,2,0,B|36:60|88:60,2,80.7499966308476,0|8|0
172,112,52803,6,0,B|340:112,1,161.499993261695,2|8
396,84,53636,1,0
396,84,53803,1,0
396,84,53970,2,0,B|448:84|448:148,1,80.7499966308476
484,192,54470,1,0
440,320,54803,5,8
440,320,55136,1,0
440,320,55470,2,0,B|264:320,1,161.499993261695,6|8
232,272,56303,1,0
184,320,56470,1,0
136,272,56636,2,0,B|84:272|84:208,1,80.7499966308476,6|0
84,152,57136,2,0,B|84:60,2,80.7499966308476,0|8|0
216,120,58136,6,0,B|314:131|316:239,1,161.499993261695,6|8
400,336,59136,1,0
400,336,59303,1,6
488,228,59636,1,0
488,228,59803,2,0,B|488:136,2,80.7499966308476,0|8|0
256,352,60803,5,14
128,320,61136,1,0
128,320,61303,2,0,B|128:220,1,95,14|0
92,168,61803,2,0,B|60:168|60:212,2,47.5,8|0|14
184,72,62470,1,0
184,72,62636,1,14
316,88,62970,2,0,B|316:32,2,47.5,0|8|0
364,132,63470,6,0,B|468:132,2,95,6|8|8
316,256,64470,1,8
316,256,64636,1,6
256,192,64803,12,12,66136
160,76,66470,5,12
160,76,66803,2,0,B|160:168,1,71.25,8|8
136,172,67136,2,0,B|136:260,1,71.25,8|8
132,276,67470,6,0,B|8:276,2,114.000002717972,6|8|0
268,280,68470,2,0,B|338:290|338:367,2,114.000002717972,8|2|8
332,160,69470,2,0,B|331:94|402:83,2,114.000002717972,2|8|2
452,221,70470,5,8
391,342,70803,1,0
270,280,71136,1,8
147,342,71470,2,0,B|91:342,2,57.0000013589859,2|0|8
176,280,71970,2,0,B|176:160,1,114.000002717972,2|0
176,96,72470,1,8
300,40,72803,6,0,B|416:40,1,114.000002717972,2|8
480,160,73470,2,0,B|360:160,1,114.000002717972,2|8
316,208,73970,1,0
316,208,74136,2,0,B|316:268,2,57.0000013589859,2|0|8
268,160,74636,2,0,B|198:170|199:236,1,114.000002717972,2|0
196,304,75136,1,10
68,348,75470,5,0
76,212,75803,1,8
144,92,76136,1,2
272,40,76470,1,10
408,32,76803,1,6
480,148,77136,1,8
480,148,77303,2,0,B|480:264,1,114.000002717972,6|0
424,300,77803,6,0,B|424:360,2,57.0000013589859,8|0|6
292,328,78469,1,8
292,328,78803,2,0,B|222:317|223:251,1,114.000002717972,0|8
100,196,79469,2,0,B|99:130|168:119,1,114.000002717972,2|8
276,32,80136,2,0,B|345:42|344:108,1,114.000002717972,2|8
464,172,80803,5,2
464,172,81136,1,8
412,296,81469,1,2
412,296,81803,1,8
288,352,82136,1,2
288,352,82303,2,0,B|228:352,2,57.0000013589859,0|8|2
292,216,82969,1,0
292,216,83136,1,8
313,28,83469,6,0,B|193:28,1,114.000002717972,0|8
199,356,84136,2,0,B|319:356,1,114.000002717972,0|8
256,192,84803,6,0,B|292:192|292:236,2,57.0000013589859,2|0|8
192,220,85303,2,0,B|72:220,1,114.000002717972,2|2
32,168,85803,1,8
80,120,85969,1,0
32,72,86136,5,2
160,24,86469,1,8
288,72,86803,1,2
416,24,87136,1,8
484,135,87469,6,0,B|484:255,1,114.000002717972,4|8
28,249,88136,2,0,B|28:129,1,114.000002717972,4|8
256,192,88803,5,4
256,192,89136,12,8,90469
100,192,90803,6,0,B|30:202|31:268,2,114.000002717972,0|8|2
208,276,91803,2,0,B|208:341|139:352,2,114.000002717972,8|0|8
252,148,92803,2,0,B|251:82|320:71,1,114.000002717972,2|8
420,164,93469,2,0,B|489:174|488:240,1,114.000002717972,0|8
408,352,94136,5,2
408,352,94303,1,0
348,320,94469,1,8
348,320,94636,2,0,B|224:320,1,114.000002717972
256,256,95136,2,0,B|136:256,1,114.000002717972,8|2
96,204,95636,2,0,B|60:208|60:248,2,57.0000013589859,0|8|0
144,156,96136,2,0,B|276:156,1,114.000002717972,0|8
313,28,96803,6,0,B|189:28,1,114.000002717972,2|8
484,249,97469,2,0,B|484:129,1,114.000002717972,0|8
199,356,98136,2,0,B|323:356,1,114.000002717972,2|8
28,135,98803,2,0,B|28:255,1,114.000002717972,0|8
256,192,99469,5,2
256,192,99803,12,4,102136
172,192,107469,6,0,B|84:192,2,80.7499966308476,2|0|0
212,132,108303,2,0,B|212:81|160:81,2,80.7499966308476,0|2|0
256,192,109136,1,0
344,308,109469,5,0
344,308,109803,1,0
344,308,110136,2,0,B|440:308,2,80.7499966308476,2|0|0
284,348,110969,1,0
284,348,111303,2,0,B|188:348,1,80.7499966308476,2|0
148,300,111803,1,0
96,348,111969,2,0,B|46:348|46:297,1,80.7499966308476,2|0
44,224,112469,1,0
116,96,112803,5,2
116,96,112969,1,0
248,36,113303,1,0
248,36,113469,2,0,B|336:36,1,80.7499966308476
452,112,114136,1,2
452,112,114303,1,0
488,176,114469,1,0
488,176,114636,1,0
452,240,114803,2,0,B|452:320,1,80.7499966308476
312,332,115469,5,6
312,332,115636,2,0,B|212:332,2,95,0|2|0
368,284,116469,1,0
312,240,116636,1,0
368,196,116803,1,6
368,196,117136,1,0
336,132,117303,1,2
336,132,117636,1,0
272,100,117803,1,8
272,100,118136,6,0,B|271:46|331:35,2,95,6|8|0
208,132,118969,2,0,B|208:184,2,47.5,0|8|2
144,100,119469,1,0
144,100,119803,1,8
32,192,120136,5,0
256,356,120469,1,8
480,192,120803,1,2
256,28,121136,1,8
256,28,121469,6,0,B|316:28,2,47.5,0|0|8
184,28,121969,2,0,B|126:38|126:91,1,95,2|0
80,148,122469,1,8
128,200,122636,1,2
128,200,122969,1,0
80,252,123136,1,8
80,252,123469,6,0,B|80:352,2,95,2|8|0
216,296,124469,1,8
216,296,124636,1,0
216,296,124803,1,2
352,252,125136,1,8
352,252,125303,1,2
352,252,125469,2,0,B|456:252,1,95,0|8
488,192,125969,1,6
440,60,126303,5,0
440,60,126469,1,8
440,60,126636,1,2
300,32,126969,1,0
300,32,127136,1,8
300,32,127303,1,2
232,52,127469,6,0,B|180:84,3,47.5,12|8|8|8
140,124,128136,1,8
136,136,128303,1,8
132,148,128469,1,8
128,160,128636,1,8
124,172,128803,6,0,B|36:172,2,80.7499966308476,6|0|8
204,292,129803,1,0
256,344,129969,1,0
256,344,130303,1,0
308,292,130469,1,0
308,292,130803,1,8
308,292,131136,1,0
308,292,131469,6,0,B|406:281|408:173,1,161.499993261695,2|8
460,132,132303,2,0,B|488:132|488:172,2,40.3749983154238
332,64,132969,1,0
332,64,133136,1,0
188,48,133469,6,0,B|104:48,1,80.7499966308476,8|0
104,192,134136,2,0,B|202:203|204:311,1,161.499993261695,6|8
272,320,134969,2,0,B|272:372,2,40.3749983154238,0|0|6
416,300,135636,1,0
416,300,135803,2,0,B|468:300|468:236,2,80.7499966308476,0|8|0
324,188,136803,6,0,B|324:28,1,161.499993261695,6|8
196,100,137803,1,0
196,100,137969,2,0,B|116:152,1,80.7499966308476,6|0
60,120,138469,2,0,B|72:32,2,80.7499966308476,0|8|0
92,288,139469,6,0,B|91:342|151:353,1,95,14|0
196,300,139969,2,0,B|196:246|139:235,1,95,14|0
92,184,140469,1,8
120,120,140636,1,0
188,96,140803,6,0,B|187:42|244:31,1,95,14|0
292,84,141303,2,0,B|293:138|233:149,1,95,14|0
188,200,141803,1,8
188,200,141969,1,0
188,200,142136,6,0,B|188:300,1,95,6|8
324,344,142803,2,0,B|324:240,1,95,8|8
324,176,143303,1,6
256,192,143469,12,12,144803
256,192,145136,5,12
116,52,145469,2,0,B|44:96,1,71.25,8|8
72,120,145803,2,0,B|28:196,1,71.25,8|8
64,216,146136,6,0,B|64:332,1,114.000002717972,6|8
448,168,146803,2,0,B|448:52,1,114.000002717972,0|8
334,348,147469,2,0,B|448:348,1,114.000002717972,2|8
178,36,148136,2,0,B|64:36,1,114.000002717972,2|8
256,192,148803,5,2
256,192,149136,1,8
256,192,149469,1,0
256,192,149803,1,8
256,192,150136,1,2
320,232,150303,1,0
320,304,150469,1,8
256,344,150636,2,0,B|136:344,1,114.000002717972,2|0
68,344,151136,1,8
48,40,151469,6,0,B|118:50|117:116,1,114.000002717972,2|8
464,344,152136,2,0,B|394:334|395:268,1,114.000002717972,2|8
452,220,152636,5,0
396,172,152803,2,0,B|396:136|436:136,2,57.0000013589859,2|0|8
340,220,153303,2,0,B|220:220,1,114.000002717972,2|0
164,264,153803,2,0,B|164:328,2,57.0000013589859,10|0|0
36,192,154469,5,8
320,28,154803,1,2
36,192,155136,1,10
320,356,155469,1,6
36,192,155803,2,0,B|100:192,1,57.0000013589859,8|6
476,192,156303,2,0,B|412:192,1,57.0000013589859,0|8
256,260,156803,5,6
256,260,157136,1,8
256,260,157469,2,0,B|211:309|256:362,1,114.000002717972,0|8
136,88,158136,2,0,B|115:25|46:37,1,114.000002717972,2|8
376,88,158803,2,0,B|440:101|464:35,1,114.000002717972,2|8
256,48,159470,5,2
159,344,159803,1,8
411,161,160136,1,2
100,161,160470,1,8
352,344,160803,1,2
352,344,160970,1,0
352,344,161136,1,8
352,344,161303,2,0,B|352:224,1,114.000002717972,2|0
288,192,161803,1,8
384,48,162136,6,0,B|433:3|486:48,1,114.000002717972,2|8
128,336,162803,2,0,B|78:380|25:335,1,114.000002717972,2|8
256,192,163470,5,2
256,192,163636,1,0
312,240,163803,1,8
312,240,163970,2,0,B|432:240,1,114.000002717972,2|2
484,192,164470,6,0,B|484:136,2,57.0000013589859,8|0|14
28,192,165136,1,12
256,360,165470,1,14
256,24,165803,1,12
256,192,166136,12,8,169136
120,192,169470,6,0,B|56:192,2,57.0000013589859,0|0|8
256,132,170136,2,0,B|256:12,2,114.000002717972,2|8|0
392,192,171136,2,0,B|460:181|459:115,2,114.000002717972,8|2|8
256,256,172136,1,2
256,256,172303,1,0
256,256,172470,1,8
112,304,172803,6,0,B|112:184,1,114.000002717972,2|8
256,144,173470,2,0,B|256:24,1,114.000002717972,2|8
404,44,174136,1,2
404,44,174303,1,0
468,76,174470,1,8
468,76,174636,2,0,B|468:204,1,114.000002717972,2|0
468,264,175136,1,8
256,136,175470,6,0,B|296:96|216:56|272:12,1,114.000002717972,4|0
207,220,175970,2,0,B|152:205|158:294|92:268,1,114.000002717972,4|0
304,219,176470,2,0,B|319:274|393:225|403:295,1,114.000002717972,4|0
444,216,176970,1,8
400,156,177136,2,0,B|403:107|477:156|492:101,2,114.000002717972,8|8|8
256,136,178136,6,0,B|216:96|296:56|240:12,1,114.000002717972,4|0
305,221,178636,2,0,B|360:206|354:295|420:269,1,114.000002717972,4|0
208,220,179136,2,0,B|193:275|119:226|109:296,1,114.000002717972,4|0
68,216,179636,1,8
112,156,179803,2,0,B|108:107|34:156|19:101,2,114.000002717972,8|8|12
256,192,180803,5,4
256,144,190803,6,0,B|256:60,2,80.7499966308476,0|0|2
256,204,191803,1,0
256,264,192136,6,0,B|256:380,1,95
124,88,192803,2,0,B|23:30,1,95,2|0
388,88,193470,2,0,B|488:30,1,95
256,264,194136,5,2
256,120,194470,1,0
256,264,194803,1,0
256,120,195136,1,0
256,264,195470,2,0,B|312:264,2,47.5,2|0|0
204,316,195970,1,0
204,316,196303,1,0
156,264,196470,1,0
32,192,196803,6,0,B|136:192,1,95,2|0
480,192,197470,2,0,B|376:192,1,95
364,124,197970,5,0
320,68,198136,2,0,B|320:32|368:32,2,47.5,2|0|0
252,52,198636,2,0,B|144:52,1,95
84,52,199136,1,0
32,184,199470,5,2
40,192,199803,1,0
48,200,200136,1,2
56,208,200470,1,0
64,216,200803,6,0,B|64:340,1,114.000002717972,14|0
136,344,201303,2,0,B|136:224,1,114.000002717972,14|8
160,160,201803,6,0,B|136:136|104:164,2,57.0000013589859,8|0|6
256,272,202470,1,8
396,320,202803,1,0
396,320,203136,1,8
472,192,203470,1,2
472,192,203803,1,8
396,64,204136,1,2
396,64,204470,1,8
256,112,204803,6,0,B|256:240,2,114.000002717972,2|8|2
116,64,205803,1,8
40,192,206136,1,2
40,192,206303,2,0,B|104:192,2,57.0000013589859,0|8|2
116,320,206970,1,0
116,320,207136,1,8
256,268,207470,5,2
256,268,207803,1,8
396,320,208136,1,2
396,320,208470,1,8
472,192,208803,1,2
472,192,208970,2,0,B|472:128,2,57.0000013589859,0|8|2
324,164,209636,2,0,B|324:108,2,57.0000013589859,2|8|0
256,192,210136,5,2
256,192,210470,1,8
256,192,210803,1,2
256,192,211136,1,8
256,192,211470,12,8,214470
160,44,214803,6,0,B|91:54|92:120,1,114.000002717972,0|8
92,268,215470,2,0,B|91:333|159:344,3,114.000002717972,6|8|0|8
308,348,216803,2,0,B|428:348,1,114.000002717972,2|8
484,212,217470,2,0,B|360:212,1,114.000002717972,0|8
296,84,218136,6,0,B|356:84,2,57.0000013589859,2|0|8
244,32,218636,2,0,B|199:85|243:134,1,114.000002717972
296,184,219136,2,0,B|242:228|193:184,1,114.000002717972,8|2
128,148,219636,2,0,B|128:88,2,57.0000013589859,0|8|0
64,184,220136,2,0,B|64:300,1,114.000002717972,0|8
212,276,220803,6,0,B|211:341|279:352,2,114.000002717972,2|8|0
412,232,221803,2,0,B|480:221|479:155,2,114.000002717972,8|2|8
256,104,222803,2,0,B|256:38|188:27,2,114.000002717972,0|8|6
256,192,223803,12,4,226136
