osu file format v14

[General]
AudioFilename: Otome wa Boku ni Koishiteru - Opening HD [Lyrics].-high.mp3
AudioLeadIn: 0
PreviewTime: 59291
Countdown: 2
SampleSet: Soft
StackLeniency: 0.8
Mode: 0
LetterboxInBreaks: 1
WidescreenStoryboard: 1

[Editor]
DistanceSpacing: 2
BeatDivisor: 4
GridSize: 8
TimelineZoom: 1

[Metadata]
Title:Love Power (TV Size)
TitleUnicode:Love Power (TV Size)
Artist:Aice5
ArtistUnicode:Aice5
Creator:thedarkboco
Version:Normal
Source:Otome wa Boku ni Koishiteru
Tags:anime opening Otoboku "Otome wa Boku ni Koishiteru" 処女はお姉さまに恋して
BeatmapID:622401
BeatmapSetID:272695

[Difficulty]
HPDrainRate:5
CircleSize:4
OverallDifficulty:5
ApproachRate:5
SliderMultiplier:1.45
SliderTickRate:2

[Events]
//Background and Video events
Video,0,"OtobokuOpening.avi"
0,0,"Otoboku bg.jpg",0,0
//Break Periods
2,19061,20244
//Storyboard Layer 0 (Background)
//Storyboard Layer 1 (Fail)
//Storyboard Layer 2 (Pass)
//Storyboard Layer 3 (Foreground)
//Storyboard Sound Samples

[TimingPoints]
1797,800,4,2,1,100,1,0
10397,-200,4,2,1,100,0,0
16195,333.333333333333,4,2,1,100,1,0
25111,-133.333333333333,4,2,1,100,0,0
59278,-100,4,2,1,100,0,1
82694,-100,4,2,1,100,0,0

[Colours]
Combo1 : 0,64,128
Combo2 : 132,0,0
Combo3 : 255,128,0
Combo4 : 255,255,0
Combo5 : 0,255,255
Combo6 : 128,0,255
Combo7 : 43,0,85

[HitObjects]
80,112,1797,5,0,0:0:0:0:
128,160,2197,1,0,0:0:0:0:
176,208,2597,1,0,0:0:0:0:
208,264,2997,1,0,0:0:0:0:
272,248,3397,2,0,L|272:88,1,145
200,72,4997,5,0,0:0:0:0:
136,144,5797,1,0,0:0:0:0:
56,216,6197,1,0,0:0:0:0:
88,304,6597,2,0,L|208:176,1,145
288,112,7797,1,0,0:0:0:0:
328,64,7997,1,0,0:0:0:0:
0,80,8997,6,0,L|184:80,1,145
8,152,10597,2,0,L|80:208,1,72.5
248,112,11797,1,0,0:0:0:0:
360,176,12197,1,0,0:0:0:0:
232,224,12597,1,0,0:0:0:0:
88,280,12997,1,0,0:0:0:0:
160,288,13397,1,0,0:0:0:0:
368,280,13797,1,0,0:0:0:0:
280,280,14597,1,0,0:0:0:0:
256,192,16195,12,4,18861,0:0:0:0:
88,96,21444,5,0,0:0:0:0:
160,168,22111,1,0,0:0:0:0:
248,216,22611,1,0,0:0:0:0:
344,248,23444,1,0,0:0:0:0:
408,184,24111,1,0,0:0:0:0:
360,136,24444,1,0,0:0:0:0:
192,240,24944,1,0,0:0:0:0:
112,184,25278,2,0,L|104:392,2,145
288,168,26778,5,0,0:0:0:0:
416,48,27361,1,0,0:0:0:0:
424,192,27861,1,0,0:0:0:0:
360,232,28111,1,0,0:0:0:0:
264,264,28445,1,0,0:0:0:0:
192,272,28694,1,0,0:0:0:0:
144,56,29444,5,0,0:0:0:0:
312,72,30028,1,0,0:0:0:0:
240,200,30528,1,0,0:0:0:0:
320,248,30861,1,0,0:0:0:0:
96,72,32111,5,0,0:0:0:0:
160,256,32778,1,0,0:0:0:0:
304,168,33361,1,0,0:0:0:0:
88,128,34111,1,0,0:0:0:0:
176,176,34444,1,0,0:0:0:0:
264,224,34778,2,0,L|128:376,1,145
136,200,35694,1,0,0:0:0:0:
136,104,36028,1,0,0:0:0:0:
152,48,37778,5,0,0:0:0:0:
232,104,38111,1,0,0:0:0:0:
336,240,38694,1,0,0:0:0:0:
264,248,38944,1,0,0:0:0:0:
144,240,39361,1,0,0:0:0:0:
144,120,39778,1,0,0:0:0:0:
72,112,40028,2,0,L|72:304,3,145
72,80,42778,5,0,0:0:0:0:
216,208,43444,1,0,0:0:0:0:
384,160,44028,1,0,0:0:0:0:
384,304,44528,1,0,0:0:0:0:
216,296,45111,1,0,0:0:0:0:
224,176,45528,2,0,L|304:176,2,72.5
432,176,46694,1,0,0:0:0:0:
216,120,47444,5,0,0:0:0:0:
264,232,47861,1,0,0:0:0:0:
336,224,48111,2,0,P|376:256|336:296,1,108.750004148483
280,112,49111,2,0,L|448:208,1,190.312507259846
128,248,50778,1,0,0:0:0:0:
136,56,51444,1,0,0:0:0:0:
208,120,51778,1,0,0:0:0:0:
296,168,52111,2,0,L|344:48,2,108.750004148483
128,272,53444,5,0,0:0:0:0:
216,224,53778,1,0,0:0:0:0:
272,272,54028,1,0,0:0:0:0:
344,208,54361,1,0,0:0:0:0:
360,184,54444,1,0,0:0:0:0:
392,88,54778,1,0,0:0:0:0:
272,112,55194,1,0,0:0:0:0:
232,136,55361,1,0,0:0:0:0:
160,72,55694,6,0,P|232:24|296:48,1,145
328,224,56778,1,0,0:0:0:0:
232,232,57111,1,0,0:0:0:0:
176,184,57361,2,0,L|504:184,1,326.25
392,72,59444,5,0,0:0:0:0:
288,152,59778,1,0,0:0:0:0:
144,80,60194,1,0,0:0:0:0:
152,176,60444,1,0,0:0:0:0:
240,312,60861,2,0,B|224:40|224:40,1,271.875
504,48,62194,1,0,0:0:0:0:
360,264,62861,1,0,0:0:0:0:
248,192,63194,1,0,0:0:0:0:
120,192,63528,1,0,0:0:0:0:
192,88,63861,1,0,0:0:0:0:
320,88,64194,1,0,0:0:0:0:
336,184,64444,1,0,0:0:0:0:
432,184,64694,1,0,0:0:0:0:
368,280,65528,5,0,0:0:0:0:
144,304,66111,2,0,B|128:280|128:256|152:232|168:232,1,72.5
152,72,66694,1,0,0:0:0:0:
216,96,66861,1,0,0:0:0:0:
376,128,67278,1,0,0:0:0:0:
168,216,67861,1,0,0:0:0:0:
256,248,68111,1,0,0:0:0:0:
512,304,68778,1,0,0:0:0:0:
368,232,69194,1,0,0:0:0:0:
344,136,69778,1,0,0:0:0:0:
304,152,70028,1,0,0:0:0:0:
240,184,70444,1,0,0:0:0:0:
208,216,70694,1,0,0:0:0:0:
176,248,70778,5,0,0:0:0:0:
240,312,71194,1,0,0:0:0:0:
312,304,71528,2,0,L|272:136,1,169.166666666667
256,80,72194,1,0,0:0:0:0:
384,64,72861,1,0,0:0:0:0:
368,192,73444,1,0,0:0:0:0:
304,232,73778,1,0,0:0:0:0:
232,248,74111,1,0,0:0:0:0:
144,232,74528,1,0,0:0:0:0:
152,160,74861,2,0,B|192:128|248:160|248:160,1,96.6666666666667
288,160,75278,1,0,0:0:0:0:
464,64,76194,1,0,0:0:0:0:
440,192,76778,1,0,0:0:0:0:
280,280,77611,1,0,0:0:0:0:
208,264,77944,5,0,0:0:0:0:
216,152,78444,1,0,0:0:0:0:
280,120,78778,1,0,0:0:0:0:
416,168,79444,1,0,0:0:0:0:
296,248,80111,1,0,0:0:0:0:
168,240,80694,1,0,0:0:0:0:
136,80,81444,2,0,B|248:168|352:48|432:152,1,314.166666666667
96,112,83694,6,0,L|232:112,3,108.75
464,320,85528,1,0,0:0:0:0:
272,264,86194,1,0,0:0:0:0:
416,120,86861,1,4,0:0:0:0:
