osu file format v14

[General]
AudioFilename: Otome wa Boku ni Koishiteru - Opening HD [Lyrics].-high.mp3
AudioLeadIn: 0
PreviewTime: 59291
Countdown: 2
SampleSet: Soft
StackLeniency: 0.8
Mode: 0
LetterboxInBreaks: 1
WidescreenStoryboard: 1

[Editor]
DistanceSpacing: 0.5
BeatDivisor: 4
GridSize: 8
TimelineZoom: 1

[Metadata]
Title:Love Power (TV Size)
TitleUnicode:Love Power (TV Size)
Artist:Aice5
ArtistUnicode:Aice5
Creator:thedarkboco
Version:Easy
Source:Otome wa Boku ni Koishiteru
Tags:anime opening Otoboku "Otome wa Boku ni Koishiteru" 処女はお姉さまに恋して
BeatmapID:621391
BeatmapSetID:272695

[Difficulty]
HPDrainRate:4
CircleSize:3
OverallDifficulty:4
ApproachRate:4
SliderMultiplier:1.45
SliderTickRate:2

[Events]
//Background and Video events
Video,0,"OtobokuOpening.avi"
0,0,"Otoboku bg.jpg",0,0
//Break Periods
//Storyboard Layer 0 (Background)
//Storyboard Layer 1 (Fail)
//Storyboard Layer 2 (Pass)
//Storyboard Layer 3 (Foreground)
//Storyboard Sound Samples

[TimingPoints]
1797,800,4,2,1,100,1,0
16195,333.333333333333,4,2,1,100,1,0
59278,-100,4,2,1,100,0,1
82694,-100,4,2,1,100,0,0

[Colours]
Combo1 : 0,64,128
Combo2 : 132,0,0
Combo3 : 255,128,0
Combo4 : 255,255,0
Combo5 : 0,255,255
Combo6 : 128,0,255
Combo7 : 43,0,85

[HitObjects]
112,96,1797,5,0,0:0:0:0:
184,160,2197,1,0,0:0:0:0:
240,232,2597,1,0,0:0:0:0:
320,280,2997,1,0,0:0:0:0:
328,184,3397,2,0,L|488:184,1,145
304,104,4997,6,0,P|240:152|248:184,1,108.75
272,232,5797,1,0,0:0:0:0:
320,288,6197,1,0,0:0:0:0:
408,264,6597,2,0,L|408:120,1,145
312,184,7797,2,0,L|272:144,1,36.25
112,304,8997,6,0,P|80:264|144:224,1,145
328,184,10597,2,0,P|360:216|344:264,1,72.5
384,280,11197,1,0,0:0:0:0:
240,296,11797,6,0,P|168:248|216:136,1,217.5
296,112,13397,1,0,0:0:0:0:
392,96,13797,1,0,0:0:0:0:
416,280,14597,1,0,0:0:0:0:
256,192,16195,12,4,20528,0:0:0:0:
72,200,22194,6,0,L|216:104,2,145
272,80,23361,1,0,0:0:0:0:
280,200,24194,1,0,0:0:0:0:
112,288,24528,1,0,0:0:0:0:
208,288,25528,2,0,B|272:240|224:184|360:112|288:32|384:32,1,290
416,184,26861,5,0,0:0:0:0:
280,240,27361,1,0,0:0:0:0:
200,152,27861,1,0,0:0:0:0:
272,104,28194,2,0,P|408:160|368:272,1,290
288,264,29528,1,0,0:0:0:0:
168,208,30528,1,0,0:0:0:0:
280,128,30861,1,0,0:0:0:0:
112,184,32278,5,0,0:0:0:0:
336,192,33278,1,0,0:0:0:0:
168,80,34278,1,0,0:0:0:0:
160,160,34694,2,0,P|216:208|128:280,1,217.5
256,80,35611,1,0,0:0:0:0:
432,144,35944,1,0,0:0:0:0:
272,256,37694,5,0,0:0:0:0:
352,144,39278,1,0,0:0:0:0:
192,152,39861,1,0,0:0:0:0:
240,184,42861,5,0,0:0:0:0:
336,264,43861,1,0,0:0:0:0:
424,184,44278,1,0,0:0:0:0:
336,80,44694,1,0,0:0:0:0:
56,96,45194,1,0,0:0:0:0:
184,232,45528,1,0,0:0:0:0:
256,192,47528,5,0,0:0:0:0:
320,96,49028,1,0,0:0:0:0:
128,96,49361,1,0,0:0:0:0:
144,208,50778,1,0,0:0:0:0:
320,208,51944,1,0,0:0:0:0:
248,192,53444,5,0,0:0:0:0:
344,240,54028,1,0,0:0:0:0:
440,296,54278,1,0,0:0:0:0:
424,168,54861,1,0,0:0:0:0:
328,120,55694,1,0,0:0:0:0:
240,168,56278,1,0,0:0:0:0:
256,192,59528,5,0,0:0:0:0:
192,248,60194,1,0,0:0:0:0:
280,280,60528,1,0,0:0:0:0:
360,216,62194,1,0,0:0:0:0:
304,144,63528,1,0,0:0:0:0:
216,160,64194,1,0,0:0:0:0:
256,192,65528,5,0,0:0:0:0:
384,264,67361,1,0,0:0:0:0:
272,216,68194,1,0,0:0:0:0:
208,160,68861,1,0,0:0:0:0:
112,96,69194,1,0,0:0:0:0:
120,248,69861,1,0,0:0:0:0:
264,264,70528,5,0,0:0:0:0:
328,152,71528,1,0,0:0:0:0:
152,168,72861,1,0,0:0:0:0:
392,280,74861,1,0,0:0:0:0:
392,192,75528,1,0,0:0:0:0:
304,192,76194,1,0,0:0:0:0:
144,120,77528,5,0,0:0:0:0:
176,176,78028,1,0,0:0:0:0:
224,224,78528,1,0,0:0:0:0:
352,200,79528,1,0,0:0:0:0:
200,88,80944,1,0,0:0:0:0:
256,192,83528,5,0,0:0:0:0:
320,248,84194,1,0,0:0:0:0:
144,232,85528,1,0,0:0:0:0:
208,176,86194,1,0,0:0:0:0:
296,200,86861,1,0,0:0:0:0:
