osu file format v12

[General]
AudioFilename: Reflection Moon.mp3
AudioLeadIn: 0
PreviewTime: 47928
Countdown: 0
SampleSet: Soft
StackLeniency: 0.7
Mode: 0
LetterboxInBreaks: 1
WidescreenStoryboard: 0

[Editor]
Bookmarks: 2106
DistanceSpacing: 1.4
BeatDivisor: 4
GridSize: 4

[Metadata]
Title:Reflection Moon
TitleUnicode:Reflection Moon
Artist:AiRI
ArtistUnicode:AiRI
Creator:Laurier
Version:Lauriextra
Source:
Tags:
BeatmapID:306934
BeatmapSetID:119566

[Difficulty]
HPDrainRate:7
CircleSize:4
OverallDifficulty:7
ApproachRate:9
SliderMultiplier:1.6
SliderTickRate:2

[Events]
//Background and Video events
0,0,"bg.jpg",0,0
//Break Periods
2,75662,78561
2,135046,145958
//Storyboard Layer 0 (Background)
//Storyboard Layer 1 (Fail)
//Storyboard Layer 2 (Pass)
//Storyboard Layer 3 (Foreground)
//Storyboard Sound Samples
//Background Colour Transformations
3,100,163,162,255

[TimingPoints]
285,205.479452054795,4,2,1,60,1,0
285,-133.333333333333,4,2,1,60,0,0
1696,205.479452054795,4,2,1,60,1,0
1696,-66.6666666666667,4,2,1,60,0,1
1798,-66.6666666666667,4,2,1,60,0,0
1901,205.479452054795,4,2,1,60,1,0
20599,-100,4,2,1,60,0,0
27534,-100,4,2,3,60,0,0
27637,-100,4,2,1,60,0,0
33955,-200,4,2,1,60,0,0
34520,-200,4,2,4,60,0,0
34623,-200,4,2,1,60,0,0
35188,-200,4,2,1,40,0,0
47517,-133.333333333333,4,2,1,60,0,0
47928,-100,4,2,1,70,0,1
60257,-100,4,2,1,60,0,0
61079,-133.333333333333,4,2,1,60,0,1
61644,-133.333333333333,4,2,4,60,0,1
61746,-133.333333333333,4,2,1,60,0,1
63287,-133.333333333333,4,2,4,60,0,1
63390,-133.333333333333,4,2,1,60,0,1
63596,-133.333333333333,4,2,4,60,0,1
63698,-133.333333333333,4,2,1,60,0,1
64520,-133.333333333333,4,2,4,60,0,1
64623,-133.333333333333,4,2,1,60,0,1
64931,-133.333333333333,4,2,4,60,0,1
65034,-133.333333333333,4,2,1,60,0,1
68733,-133.333333333333,4,2,4,60,0,1
68835,-133.333333333333,4,2,1,60,0,1
75462,-100,4,2,1,5,0,0
79161,-200,4,2,1,60,0,0
80394,-100,4,2,1,60,0,0
81267,-100,4,2,4,60,0,0
81370,-100,4,2,1,60,0,0
83065,-200,4,2,1,60,0,0
84092,-100,4,2,1,60,0,0
93133,-133.333333333333,4,2,1,60,0,0
93955,-200,4,2,1,40,0,0
104794,-200,4,2,4,40,0,0
104897,-200,4,2,1,40,0,0
107106,-100,4,2,1,70,0,1
119435,-100,4,2,1,60,0,0
120257,-133.333333333333,4,2,1,60,0,1
134846,-133.333333333333,4,2,1,60,0,0
146558,410.958904109589,4,2,1,60,1,0
146558,-100,4,2,1,40,0,0
148201,-100,4,2,2,40,0,0
153133,-100,4,2,1,40,0,0
158064,205.479452054795,4,2,1,60,1,0
159091,-100,4,2,2,60,0,0
159296,-100,4,2,1,60,0,0
159707,-100,4,2,1,70,0,1
172036,-100,4,2,1,60,0,0
172858,-133.333333333333,4,2,1,60,0,1
185187,-200,4,2,1,60,0,1
186009,-100,4,2,1,60,0,0
205632,-133.333333333333,4,2,1,60,0,0
205940,-133.333333333333,4,2,1,5,0,0

[Colours]
Combo1 : 219,254,205
Combo2 : 204,255,255
Combo3 : 255,255,210
Combo4 : 252,205,213

[HitObjects]
327,296,285,2,0,L|394:284,1,60.0000022888184,8|0,0:0|0:0,0:0:0:0:
386,285,490,1,12,0:0:0:0:
224,206,695,2,0,L|291:194,1,60.0000022888184,8|0,0:0|0:0,0:0:0:0:
283,195,900,1,12,0:0:0:0:
122,112,1106,5,8,0:0:0:0:
122,112,1312,1,8,0:0:0:0:
122,112,1517,2,0,L|114:180,1,60.0000022888184,8|8,0:0|0:0,0:0:0:0:
121,309,1696,6,0,L|246:284,1,120.000004577637,2|8,0:0|0:0,0:0:0:0:
370,202,1901,6,0,P|375:161|374:115,1,80,2|0,0:0|0:0,0:0:0:0:
276,28,2106,2,0,P|271:69|272:115,1,80,12|0,0:0|0:0,0:0:0:0:
279,276,2311,2,0,P|284:235|283:189,1,80,2|2,0:0|0:0,0:0:0:0:
185,102,2516,2,0,P|180:143|181:189,1,80,8|0,0:0|0:0,0:0:0:0:
196,318,2722,6,0,P|125:348|52:317,2,160,0|8|2,0:0|0:0|0:0,0:0:0:0:
180,181,3236,1,2,0:0:0:0:
61,112,3339,2,0,L|78:195,1,80,8|0,0:0|0:0,0:0:0:0:
173,287,3544,6,0,P|244:317|316:287,1,160,2|8,0:0|0:0,0:0:0:0:
316,287,3853,1,2,0:0:0:0:
465,226,3955,2,0,L|449:314,1,80,2|2,0:0|0:0,0:0:0:0:
394,130,4161,2,0,L|378:218,1,80,8|0,0:0|0:0,0:0:0:0:
244,227,4366,6,0,L|215:70,1,160,2|8,0:0|0:0,0:0:0:0:
215,70,4674,1,2,0:0:0:0:
322,42,4777,2,0,L|306:130,1,80,2|2,0:0|0:0,0:0:0:0:
157,365,4983,2,0,L|171:286,1,80,8|0,0:0|0:0,0:0:0:0:
381,237,5188,6,0,P|309:267|244:227,2,160,2|12|2,0:0|0:0|0:0,0:0:0:0:
444,310,5702,1,0,0:0:0:0:
315,189,5805,2,0,L|299:101,1,80,8|0,0:0|0:0,0:0:0:0:
423,0,6010,6,0,L|387:164,1,160,2|8,0:0|0:0,0:0:0:0:
444,310,6318,1,2,0:0:0:0:
481,127,6421,2,0,L|457:211,1,80,2|2,0:0|0:0,0:0:0:0:
362,351,6627,2,0,L|338:267,1,80,8|0,0:0|0:0,0:0:0:0:
257,337,6832,6,8,P|186:308|114:339,1,160,2|12,0:0|0:0,0:0:0:0:
42,262,7140,1,0,0:0:0:0:
51,158,7243,2,0,P|122:189|194:160,1,160,2|8,0:0|0:0,0:0:0:0:
194,160,7551,1,0,0:0:0:0:
42,262,7654,6,0,L|18:342,2,80,2|0|8,0:0|0:0|0:0,0:0:0:0:
124,101,7962,2,0,P|196:72|267:103,1,160,2|2,0:0|0:0,0:0:0:0:
267,103,8270,2,0,P|282:64|288:20,1,80,8|0,0:0|0:0,0:0:0:0:
194,160,8476,6,0,B|175:231|230:266|230:266|216:302,1,160,2|12,0:0|0:0,0:0:0:0:
215,302,8784,1,0,0:0:0:0:
271,193,8887,2,0,P|310:182|351:177,1,80,0|0,0:0|0:0,0:0:0:0:
419,291,9092,2,0,P|379:285|340:275,1,80,0|0,0:0|0:0,0:0:0:0:
215,134,9298,6,0,P|292:107|376:99,1,160,2|8,0:0|0:0,0:0:0:0:
435,157,9606,1,2,0:0:0:0:
449,69,9709,2,0,P|421:36|384:17,1,80,0|2,0:0|0:0,0:0:0:0:
320,160,9914,2,0,P|353:132|372:95,1,80,8|0,0:0|0:0,0:0:0:0:
374,220,10120,6,0,B|321:266|347:333|347:333|311:358,1,160,2|12,0:0|0:0,0:0:0:0:
419,291,10428,1,2,0:0:0:0:
318,352,10531,2,0,P|277:349|237:343,1,80,2|2,0:0|0:0,0:0:0:0:
138,371,10736,2,0,P|141:329|147:289,1,80,8|0,0:0|0:0,0:0:0:0:
330,81,10942,6,0,P|326:122|320:162,1,80,2|0,0:0|0:0,0:0:0:0:
229,211,11147,1,8,0:0:0:0:
77,125,11250,2,0,P|155:106|237:112,1,160,2|2,0:0|0:0,0:0:0:0:
384,141,11558,2,0,P|380:182|374:222,1,80,8|0,0:0|0:0,0:0:0:0:
229,211,11764,6,0,P|219:291|217:371,2,160,2|12|2,0:0|0:0|0:0,0:0:0:0:
300,159,12277,1,2,0:0:0:0:
454,230,12380,2,0,P|412:226|372:220,1,80,8|0,0:0|0:0,0:0:0:0:
315,316,12585,6,0,P|356:319|396:325,1,80,2|0,0:0|0:0,0:0:0:0:
505,303,12791,1,8,0:0:0:0:
374,221,12894,2,0,P|384:141|386:61,1,160,2|2,0:0|0:0,0:0:0:0:
300,159,13202,2,0,P|294:198|290:238,1,80,8|0,0:0|0:0,0:0:0:0:
213,320,13407,6,0,B|149:342|106:293|106:293|61:317,1,160,2|12,0:0|0:0,0:0:0:0:
69,312,13716,1,2,0:0:0:0:
21,212,13818,2,0,P|25:171|23:128,1,80,2|2,0:0|0:0,0:0:0:0:
113,63,14024,2,0,P|111:102|115:142,1,80,8|0,0:0|0:0,0:0:0:0:
213,320,14229,6,0,P|238:281|254:247,1,80,2|0,0:0|0:0,0:0:0:0:
223,102,14435,5,8,0:0:0:0:
217,91,14538,5,8,0:0:0:0:
206,88,14640,5,8,0:0:0:0:
196,96,14743,5,8,0:0:0:0:
196,108,14846,5,8,0:0:0:0:
206,115,14949,5,8,0:0:0:0:
217,112,15051,6,0,L|392:105,2,160,4|2|8,0:0|0:0|0:0,0:0:0:0:
92,259,15668,1,0,0:0:0:0:
256,357,15873,6,0,P|268:277|268:198,1,160,2|2,0:0|0:0,0:0:0:0:
48,26,16284,2,0,P|36:106|36:185,1,160,8|0,0:0|0:0,0:0:0:0:
92,259,16592,1,0,0:0:0:0:
92,259,16695,5,2,0:0:0:0:
375,192,16901,1,2,0:0:0:0:
179,53,17106,2,0,P|172:97|168:140,1,80,8|0,0:0|0:0,0:0:0:0:
261,209,17311,2,0,P|268:165|272:122,1,80,0|2,0:0|0:0,0:0:0:0:
375,192,17517,6,0,P|301:213|219:242,2,160,2|2|8,0:0|0:0|0:0,0:0:0:0:
375,192,18133,1,2,0:0:0:0:
327,302,18236,1,2,0:0:0:0:
223,240,18339,6,0,P|147:213|70:191,1,160,4|2,0:0|0:0,0:0:0:0:
327,302,18750,2,0,P|353:226|375:149,2,160,8|8|8,0:0|0:0|0:0,0:0:0:0:
327,302,19264,5,8,0:0:0:0:
256,151,19366,1,8,0:0:0:0:
256,151,19572,1,8,0:0:0:0:
256,151,19777,2,0,P|216:137|173:124,1,80,2|0,0:0|0:0,0:0:0:0:
20,96,19983,5,6,0:0:0:0:
257,366,20291,1,6,0:0:0:0:
492,96,20599,1,6,0:0:0:0:
492,96,21010,5,6,0:0:0:0:
421,239,21216,1,8,0:0:0:0:
342,225,21318,1,8,0:0:0:0:
331,145,21421,1,8,0:0:0:0:
401,107,21524,1,8,0:0:0:0:
454,166,21627,6,0,L|292:155,1,160,4|8,0:0|0:0,0:0:0:0:
198,146,21935,1,0,0:0:0:0:
227,300,22037,2,0,P|240:261|242:222,1,80,2|2,0:0|0:0,0:0:0:0:
109,123,22243,2,0,P|111:162|124:200,1,80,8|0,0:0|0:0,0:0:0:0:
227,300,22448,6,0,P|154:274|78:313,1,160,2|8,0:0|0:0,0:0:0:0:
82,307,22757,1,0,0:0:0:0:
294,355,22859,2,0,P|307:316|309:277,1,80,2|2,0:0|0:0,0:0:0:0:
198,146,23065,1,8,0:0:0:0:
259,208,23168,1,0,0:0:0:0:
280,123,23270,6,0,P|354:96|429:117,1,160,2|8,0:0|0:0,0:0:0:0:
429,117,23579,1,0,0:0:0:0:
218,63,23681,2,0,P|179:69|136:73,1,80,2|2,0:0|0:0,0:0:0:0:
19,50,23887,2,0,P|25:89|28:132,1,80,8|0,0:0|0:0,0:0:0:0:
14,249,24092,5,2,0:0:0:0:
14,249,24195,1,0,0:0:0:0:
14,249,24298,2,0,P|53:243|96:240,1,80,8|0,0:0|0:0,0:0:0:0:
262,341,24503,2,0,P|223:347|180:350,1,80,2|2,0:0|0:0,0:0:0:0:
119,155,24709,2,0,P|158:149|201:146,1,80,8|0,0:0|0:0,0:0:0:0:
429,117,24914,6,0,P|483:169|454:243,2,160,2|8|2,0:0|0:0|0:0,0:0:0:0:
338,209,25428,1,2,0:0:0:0:
338,209,25531,2,0,L|414:186,1,80,8|0,0:0|0:0,0:0:0:0:
260,140,25736,6,0,L|241:306,1,160,2|8,0:0|0:0,0:0:0:0:
241,298,26044,1,0,0:0:0:0:
400,276,26147,2,0,L|324:299,1,80,2|2,0:0|0:0,0:0:0:0:
168,250,26353,2,0,L|92:273,1,80,8|0,0:0|0:0,0:0:0:0:
0,158,26558,6,0,P|72:191|139:157,1,160,2|8,0:0|0:0,0:0:0:0:
160,70,26866,1,0,0:0:0:0:
56,27,26969,2,0,L|70:117,1,80,2|2,0:0|0:0,0:0:0:0:
140,157,27174,2,0,L|154:247,1,80,8|0,0:0|0:0,0:0:0:0:
258,335,27380,5,2,0:0:0:0:
257,336,27483,2,0,P|324:375|392:339,1,160,2|2,0:0|0:0,0:0:0:0:
325,293,27791,2,0,P|326:211|335:129,2,160,2|8|2,0:0|0:0|0:0,0:0:0:0:
421,250,28305,5,0,0:0:0:0:
325,293,28407,2,0,P|285:286|246:277,1,80,8|0,0:0|0:0,0:0:0:0:
109,270,28613,2,0,P|116:230|125:191,1,80,2|2,0:0|0:0,0:0:0:0:
222,96,28818,2,0,P|230:134|237:174,1,80,8|0,0:0|0:0,0:0:0:0:
176,304,29024,6,0,P|110:346|42:304,1,160,2|8,0:0|0:0,0:0:0:0:
45,309,29332,1,0,0:0:0:0:
244,362,29435,2,0,P|284:355|323:349,1,80,2|2,0:0|0:0,0:0:0:0:
418,358,29640,1,8,0:0:0:0:
418,358,29743,1,0,0:0:0:0:
480,284,29846,6,0,B|506:251|506:251|438:245|432:170,1,160,2|8,0:0|0:0,0:0:0:0:
432,173,30154,1,0,0:0:0:0:
432,173,30257,2,0,P|448:135|452:97,1,80,2|2,0:0|0:0,0:0:0:0:
356,105,30462,2,0,P|317:89|279:85,1,80,8|0,0:0|0:0,0:0:0:0:
173,188,30668,6,0,P|252:201|339:190,1,160,2|8,0:0|0:0,0:0:0:0:
330,192,30976,1,0,0:0:0:0:
254,322,31079,1,2,0:0:0:0:
254,322,31181,1,2,0:0:0:0:
166,282,31284,2,0,P|125:274|85:269,1,80,8|0,0:0|0:0,0:0:0:0:
24,194,31490,6,0,P|-6:124|43:62,2,160,2|8|2,0:0|0:0|0:0,0:0:0:0:
78,135,32003,1,2,0:0:0:0:
103,211,32106,2,0,L|143:204|183:197,1,80,8|0,0:0|0:0,0:0:0:0:
254,322,32311,6,0,L|215:315|175:308,2,80,2|0|8,0:0|0:0|0:0,0:0:0:0:
361,265,32620,1,0,0:0:0:0:
298,163,32722,2,0,L|277:242,1,80,2|2,0:0|0:0,0:0:0:0:
449,141,32928,2,0,L|378:182,1,80,8|0,0:0|0:0,0:0:0:0:
284,84,33133,6,0,P|214:114|137:85,1,160,2|8,0:0|0:0,0:0:0:0:
138,86,33442,1,8,0:0:0:0:
102,211,33544,1,8,0:0:0:0:
102,211,33647,1,8,0:0:0:0:
102,211,33750,1,8,0:0:0:0:
102,211,33853,1,8,0:0:0:0:
102,211,33955,6,0,L|90:330,1,120,4|0,0:0|0:0,0:0:0:0:
273,203,34366,2,0,L|284:83,1,120,8|0,0:0|0:0,0:0:0:0:
284,83,34777,5,4,0:0:0:0:
284,83,35188,2,0,P|357:106|412:53,1,160,8|2,0:0|0:0,0:0:0:0:
497,97,35805,1,2,0:0:0:0:
440,174,36010,1,2,0:0:0:0:
501,300,36216,6,0,B|441:329|390:281|390:281|357:308,1,160,2|2,0:0|0:0,0:0:0:0:
440,174,36832,1,8,0:0:0:0:
440,174,37243,5,2,0:0:0:0:
365,113,37448,1,2,0:0:0:0:
298,182,37654,1,2,0:0:0:0:
440,174,37859,2,0,P|454:137|456:95,1,80,2|2,0:0|0:0,0:0:0:0:
328,49,38270,5,0,0:0:0:0:
298,182,38476,2,0,P|257:191|210:191,1,80,8|0,0:0|0:0,0:0:0:0:
91,142,38887,5,2,0:0:0:0:
207,71,39092,1,2,0:0:0:0:
75,33,39298,1,2,0:0:0:0:
4,148,39503,2,0,P|15:184|45:218,1,80,2|0,0:0|0:0,0:0:0:0:
42,215,39914,5,2,0:0:0:0:
75,33,40120,2,0,P|71:72|77:114,1,80,8|0,0:0|0:0,0:0:0:0:
153,224,40531,5,2,0:0:0:0:
153,224,40633,1,2,0:0:0:0:
153,224,40736,1,2,0:0:0:0:
285,191,40942,1,2,0:0:0:0:
285,191,41044,1,2,0:0:0:0:
285,191,41147,1,2,0:0:0:0:
260,351,41353,6,0,L|239:270,1,80,4|0,0:0|0:0,0:0:0:0:
341,124,41764,2,0,P|371:197|331:266,1,160,8|2,0:0|0:0,0:0:0:0:
153,224,42380,1,2,0:0:0:0:
285,191,42585,1,2,0:0:0:0:
261,350,42791,2,0,L|177:342,1,80
59,282,43202,5,2,0:0:0:0:
164,194,43407,2,0,P|176:152|181:115,1,80,2|0,0:0|0:0,0:0:0:0:
56,60,43818,6,0,P|132:84|200:44,1,160,2|8,0:0|0:0,0:0:0:0:
197,46,44435,1,2,0:0:0:0:
94,134,44640,6,0,P|82:176|77:213,1,80,2|0,0:0|0:0,0:0:0:0:
122,278,44948,1,0,0:0:0:0:
122,278,45051,2,0,L|282:260,1,160,8|8,0:0|0:0,0:0:0:0:
379,189,45668,5,2,0:0:0:0:
363,307,45873,2,0,P|346:341|336:382,1,80,8|0,0:0|0:0,0:0:0:0:
336,381,46284,5,2,0:0:0:0:
487,195,46592,1,2,0:0:0:0:
315,25,46901,1,2,0:0:0:0:
315,25,47106,6,0,P|270:52|199:46,1,120,8|0,0:0|0:0,0:0:0:0:
54,40,47517,2,0,L|16:27,2,30.0000011444092,4|0|0,0:0|0:0|0:0,0:0:0:0:
118,141,47722,1,8,0:0:0:0:
118,141,47825,1,8,0:0:0:0:
118,141,47928,6,0,P|153:210|125:284,1,160,2|12,0:0|0:0,0:0:0:0:
62,344,48236,1,0,0:0:0:0:
211,351,48339,2,0,P|253:344|292:342,1,80,2|2,0:0|0:0,0:0:0:0:
411,236,48544,2,0,P|369:229|330:227,1,80,8|0,0:0|0:0,0:0:0:0:
63,215,48750,6,0,P|28:146|56:72,2,160,2|8|2,0:0|0:0|0:0,0:0:0:0:
118,141,49264,1,2,0:0:0:0:
156,223,49366,2,0,P|141:260|114:288,1,80,8|0,0:0|0:0,0:0:0:0:
118,141,49572,6,0,P|198:127|278:119,2,160,2|8|2,0:0|0:0|0:0,0:0:0:0:
118,141,50085,1,2,0:0:0:0:
118,141,50188,2,0,P|117:101|112:62,1,80,8|0,0:0|0:0,0:0:0:0:
4,117,50394,6,0,P|5:157|10:196,1,80,2|0,0:0|0:0,0:0:0:0:
269,248,50599,2,0,P|268:208|263:169,1,80,8|0,0:0|0:0,0:0:0:0:
156,224,50805,2,0,P|157:264|162:303,1,80,2|2,0:0|0:0,0:0:0:0:
257,376,51010,1,8,0:0:0:0:
257,376,51113,1,0,0:0:0:0:
345,294,51216,6,0,P|415:260|488:289,2,160,2|12|2,0:0|0:0|0:0,0:0:0:0:
345,294,51729,1,2,0:0:0:0:
358,174,51832,2,0,P|363:135|361:94,1,80,8|0,0:0|0:0,0:0:0:0:
417,343,52037,6,0,P|347:377|274:348,2,160,2|8|2,0:0|0:0|0:0,0:0:0:0:
358,174,52551,1,2,0:0:0:0:
345,294,52654,2,0,P|310:271|283:243,1,80,8|0,0:0|0:0,0:0:0:0:
443,104,52859,6,0,P|446:184|420:264,1,160,2|8,0:0|0:0,0:0:0:0:
345,294,53168,1,0,0:0:0:0:
358,174,53270,2,0,P|317:164|279:160,1,80,2|2,0:0|0:0,0:0:0:0:
199,104,53476,2,0,P|189:142|185:183,1,80,8|0,0:0|0:0,0:0:0:0:
274,319,53681,6,0,P|287:241|280:158,1,160,2|8,0:0|0:0,0:0:0:0:
199,104,53990,1,2,0:0:0:0:
10,159,54092,2,0,L|94:149,1,80,2|2,0:0|0:0,0:0:0:0:
150,74,54298,2,0,L|234:64,1,80,8|0,0:0|0:0,0:0:0:0:
442,105,54503,6,0,B|373:115|336:60|336:60|299:90,1,160,4|8,0:0|0:0,0:0:0:0:
229,141,54811,1,0,0:0:0:0:
276,224,54914,2,0,P|303:193|319:157,1,80,2|2,0:0|0:0,0:0:0:0:
186,217,55120,2,0,P|193:257|212:292,1,80,8|0,0:0|0:0,0:0:0:0:
291,345,55325,6,0,P|218:320|148:357,2,160,2|8|2,0:0|0:0|0:0,0:0:0:0:
359,276,55839,1,2,0:0:0:0:
276,225,55942,2,0,P|271:183|272:145,1,80,8|0,0:0|0:0,0:0:0:0:
437,199,56147,6,0,P|456:277|438:353,1,160,4|8,0:0|0:0,0:0:0:0:
291,345,56455,1,0,0:0:0:0:
359,276,56558,2,0,P|326:253|291:235,1,80,2|2,0:0|0:0,0:0:0:0:
339,150,56764,2,0,P|374:131|407:108,1,80,8|0,0:0|0:0,0:0:0:0:
246,146,56969,6,0,B|177:157|146:101|146:101|105:130,1,160,2|8,0:0|0:0,0:0:0:0:
111,125,57277,1,2,0:0:0:0:
222,66,57380,2,0,P|261:52|304:45,1,80,2|2,0:0|0:0,0:0:0:0:
438,199,57585,2,0,P|398:192|361:178,1,80,8|0,0:0|0:0,0:0:0:0:
146,278,57791,6,0,P|221:255|302:244,2,160,2|8|2,0:0|0:0|0:0,0:0:0:0:
79,348,58305,1,2,0:0:0:0:
50,257,58407,2,0,P|39:218|34:179,1,80,8|0,0:0|0:0,0:0:0:0:
119,17,58613,6,0,P|146:93|153:175,1,160,2|8,0:0|0:0,0:0:0:0:
153,171,58921,1,0,0:0:0:0:
260,116,59024,2,0,P|303:107|340:103,1,80,2|2,0:0|0:0,0:0:0:0:
401,205,59229,2,0,P|358:214|321:218,1,80,8|0,0:0|0:0,0:0:0:0:
142,253,59435,6,0,P|129:329|191:372,2,160,2|8|2,0:0|0:0|0:0,0:0:0:0:
299,282,59948,1,2,0:0:0:0:
199,300,60051,1,8,0:0:0:0:
233,201,60154,1,0,0:0:0:0:
299,282,60257,6,0,P|372:310|430:260,1,160,4|0,0:0|0:0,0:0:0:0:
429,262,60565,1,0,0:0:0:0:
233,200,60668,5,8,0:0:0:0:
221,196,60770,5,8,0:0:0:0:
221,184,60873,5,8,0:0:0:0:
233,180,60976,5,8,0:0:0:0:
240,190,61079,6,0,P|156:213|65:188,1,180.000006866455,4|0,0:0|0:0,0:0:0:0:
145,88,61490,2,0,P|229:65|320:90,1,180.000006866455,8|0,0:0|0:0,0:0:0:0:
378,145,61901,5,2,0:0:0:0:
378,145,62106,1,2,0:0:0:0:
378,145,62311,2,0,P|367:180|363:209,1,60.0000022888184,8|0,0:0|0:0,0:0:0:0:
428,331,62517,2,0,P|439:296|443:267,1,60.0000022888184,0|2,0:0|0:0,0:0:0:0:
349,293,62722,6,0,L|227:274,1,120.000004577637,2|2,0:0|0:0,0:0:0:0:
170,325,63031,1,0,0:0:0:0:
170,325,63133,2,8,P|207:254|153:172,1,180.000006866455,8|10,0:0|0:0,0:0:0:0:
84,154,63544,6,0,L|202:135,1,120.000004577637,8|0,0:0|0:0,0:0:0:0:
257,78,63853,1,2,0:0:0:0:
180,65,63955,2,0,P|140:60|111:53,1,60.0000022888184,2|0,0:0|0:0,0:0:0:0:
317,68,64161,2,0,P|277:73|248:80,1,60.0000022888184,2|0,0:0|0:0,0:0:0:0:
55,236,64366,6,0,P|-2:179|28:92,1,180.000006866455,4|2,0:0|0:0,0:0:0:0:
85,154,64777,2,0,P|143:216|113:296,1,180.000006866455,8|0,0:0|0:0,0:0:0:0:
39,321,65188,5,2,0:0:0:0:
254,297,65394,2,0,L|313:286,1,60.0000022888184,2|0,0:0|0:0,0:0:0:0:
240,205,65599,2,0,P|256:177|260:145,1,60.0000022888184,8|0,0:0|0:0,0:0:0:0:
166,46,65805,2,0,P|171:75|186:101,1,60.0000022888184,2|0,0:0|0:0,0:0:0:0:
319,97,66010,6,0,P|294:79|265:72,1,60.0000022888184,8|0,0:0|0:0,0:0:0:0:
380,158,66216,2,0,P|397:133|404:104,1,60.0000022888184,0|2,0:0|0:0,0:0:0:0:
442,263,66421,2,0,L|324:229,1,120.000004577637,8|2,0:0|0:0,0:0:0:0:
240,205,66729,1,0,0:0:0:0:
254,297,66832,6,0,P|234:322|208:338,2,60.0000022888184,8|0|2,0:0|0:0|0:0,0:0:0:0:
240,205,67140,1,0,0:0:0:0:
114,275,67243,2,0,L|189:265,1,60.0000022888184,8|0,0:0|0:0,0:0:0:0:
41,204,67448,2,0,L|116:194,1,60.0000022888184,2|0,0:0|0:0,0:0:0:0:
240,205,67654,6,0,P|269:155|251:100,1,120.000004577637,12|2,0:0|0:0,0:0:0:0:
250,99,67962,1,2,0:0:0:0:
250,99,68065,2,0,P|281:86|317:76,1,60.0000022888184,8|0,0:0|0:0,0:0:0:0:
381,27,68270,2,0,P|394:57|404:93,1,60.0000022888184,2|2,0:0|0:0,0:0:0:0:
446,211,68476,6,0,P|387:220|318:216,2,120.000004577637,8|2|8,0:0|0:0|0:0,0:0:0:0:
446,211,69092,1,2,0:0:0:0:
273,341,69298,6,0,L|138:323,1,120.000004577637,8|0,0:0|0:0,0:0:0:0:
78,343,69606,1,8,0:0:0:0:
26,284,69709,1,8,0:0:0:0:
75,224,69811,1,8,0:0:0:0:
147,254,69914,5,12,0:0:0:0:
147,254,70325,1,2,0:0:0:0:
256,141,70531,1,8,0:0:0:0:
403,190,70736,2,0,P|371:200|338:198,1,60.0000022888184,2|0,0:0|0:0,0:0:0:0:
256,141,70942,5,2,0:0:0:0:
256,141,71044,2,0,P|234:172|223:200,1,60.0000022888184,0|2,0:0|0:0,0:0:0:0:
136,137,71250,1,2,0:0:0:0:
136,137,71353,2,0,P|143:103|145:75,1,60.0000022888184,8|0,0:0|0:0,0:0:0:0:
45,121,71558,1,0,0:0:0:0:
45,121,71661,1,2,0:0:0:0:
45,121,71764,6,0,P|47:150|53:180,1,60.0000022888184,2|0,0:0|0:0,0:0:0:0:
44,257,71969,2,0,P|103:260|163:253,2,120.000004577637,2|8|2,0:0|0:0|0:0,0:0:0:0:
44,257,72483,1,2,0:0:0:0:
44,257,72585,6,0,P|38:286|35:316,1,60.0000022888184,2|0,0:0|0:0,0:0:0:0:
124,355,72791,1,2,0:0:0:0:
219,341,72894,2,0,L|291:328,1,60.0000022888184,0|8,0:0|0:0,0:0:0:0:
342,258,73099,1,0,0:0:0:0:
247,238,73202,2,0,P|239:209|231:173,1,60.0000022888184,8|0,0:0|0:0,0:0:0:0:
356,49,73407,6,0,P|365:79|372:114,1,60.0000022888184,8|0,0:0|0:0,0:0:0:0:
342,258,73613,2,0,P|334:229|326:193,1,60.0000022888184,0|8,0:0|0:0,0:0:0:0:
451,69,73818,2,0,P|460:99|467:134,1,60.0000022888184,8|0,0:0|0:0,0:0:0:0:
432,218,74024,1,8,0:0:0:0:
432,218,74127,1,8,0:0:0:0:
432,218,74229,5,4,0:0:0:0:
256,192,74281,12,0,75462,0:0:0:0:
416,192,79161,5,4,0:0:0:0:
128,365,79469,1,4,0:0:0:0:
169,31,79777,6,0,P|232:75|308:51,1,160,4|2,0:0|0:0,0:0:0:0:
416,192,80394,1,2,0:0:0:0:
416,192,80496,1,2,0:0:0:0:
416,192,80599,1,8,0:0:0:0:
416,192,80702,1,8,0:0:0:0:
416,192,80805,6,0,P|403:231|392:271,1,80,4|0,0:0|0:0,0:0:0:0:
302,348,81010,2,0,P|291:309|278:271,1,80,8|0,0:0|0:0,0:0:0:0:
199,215,81216,2,0,P|274:236|329:184,2,160,2|8|2,0:0|0:0|0:0,0:0:0:0:
199,215,81729,5,0,0:0:0:0:
199,215,81832,2,0,L|184:297,1,80,8|0,0:0|0:0,0:0:0:0:
134,141,82037,2,0,L|119:223,1,80,8|0,0:0|0:0,0:0:0:0:
69,65,82243,2,0,L|54:147,1,80,2|0,0:0|0:0,0:0:0:0:
107,294,82448,5,8,0:0:0:0:
107,294,83065,2,0,L|157:287,1,40
199,215,83270,6,0,P|214:178|221:133,1,80
166,31,83681,2,0,L|139:26,2,20,2|0|0,0:0|0:0|0:0,0:0:0:0:
242,56,83887,2,0,L|286:50,1,40
400,33,84092,6,0,P|448:93|416:172,1,160,4|8,0:0|0:0,0:0:0:0:
395,241,84401,1,0,0:0:0:0:
395,241,84503,2,0,P|347:181|379:102,2,160,2|8|2,0:0|0:0|0:0,0:0:0:0:
447,322,85017,5,0,0:0:0:0:
350,326,85120,2,0,P|312:334|267:330,1,80,8|0,0:0|0:0,0:0:0:0:
188,379,85325,2,0,P|180:341|184:296,1,80,0|2,0:0|0:0,0:0:0:0:
133,216,85531,2,0,P|171:208|216:212,1,80,8|0,0:0|0:0,0:0:0:0:
101,295,85736,6,0,P|52:237|74:162,1,160,2|8,0:0|0:0,0:0:0:0:
147,130,86044,1,0,0:0:0:0:
147,130,86147,2,0,P|160:91|159:49,1,80,2|2,0:0|0:0,0:0:0:0:
234,137,86353,2,0,P|233:176|246:214,1,80,8|0,0:0|0:0,0:0:0:0:
381,254,86558,5,2,0:0:0:0:
310,167,86661,1,0,0:0:0:0:
399,98,86764,2,0,L|382:179,1,80,8|2,0:0|0:0,0:0:0:0:
357,285,86969,2,0,P|281:275|190:268,2,160,2|8|2,0:0|0:0|0:0,0:0:0:0:
445,214,87483,5,0,0:0:0:0:
356,146,87585,2,0,L|372:67,1,80,8|0,0:0|0:0,0:0:0:0:
480,34,87791,2,0,P|404:55|334:17,1,160,2|8,0:0|0:0,0:0:0:0:
247,89,88099,1,0,0:0:0:0:
20,60,88202,6,0,P|89:23|164:44,1,160,2|8,0:0|0:0,0:0:0:0:
356,147,88510,2,0,P|286:183|211:162,1,160,2|2,0:0|0:0,0:0:0:0:
211,162,88818,2,0,P|213:202|212:248,1,80,8|0,0:0|0:0,0:0:0:0:
130,320,89024,5,2,0:0:0:0:
130,320,89127,1,0,0:0:0:0:
57,235,89229,2,0,P|96:233|142:234,1,80,8|0,0:0|0:0,0:0:0:0:
212,318,89435,2,0,P|251:319|297:318,1,80,2|2,0:0|0:0,0:0:0:0:
395,361,89640,2,0,P|396:321|395:275,1,80,8|0,0:0|0:0,0:0:0:0:
300,219,89846,6,0,B|288:150|336:118|336:118|317:74,1,160,2|8,0:0|0:0,0:0:0:0:
317,76,90154,1,0,0:0:0:0:
379,184,90257,2,0,P|421:192|457:184,1,80,2|2,0:0|0:0,0:0:0:0:
395,76,90462,2,0,P|353:68|317:76,1,80,8|0,0:0|0:0,0:0:0:0:
217,129,90668,6,0,P|145:155|69:124,1,160,2|8,0:0|0:0,0:0:0:0:
70,125,90976,1,0,0:0:0:0:
60,261,91079,2,0,P|77:297|90:340,1,80,0|2,0:0|0:0,0:0:0:0:
187,301,91284,2,0,P|198:262|215:226,1,80,8|0,0:0|0:0,0:0:0:0:
420,297,91490,6,0,P|350:331|279:291,1,160,2|8,0:0|0:0,0:0:0:0:
340,109,91798,2,0,B|355:156|327:184|327:184|353:214|353:214|352:255,1,160,2|2,0:0|0:0,0:0:0:0:
425,166,92106,2,0,P|425:127|419:85,1,80,8|0,0:0|0:0,0:0:0:0:
270,136,92311,6,0,P|191:121|111:114,1,160,2|8,0:0|0:0,0:0:0:0:
111,114,92620,1,0,0:0:0:0:
257,47,92722,2,0,P|297:44|336:31,1,80,2|2,0:0|0:0,0:0:0:0:
426,166,92928,2,0,P|388:153|348:150,1,80,8|0,0:0|0:0,0:0:0:0:
214,220,93133,6,0,L|225:348,1,120.000004577637,4|2,0:0|0:0,0:0:0:0:
24,252,93544,2,0,L|13:132,1,120.000004577637,12|0,0:0|0:0,0:0:0:0:
13,132,93853,1,2,0:0:0:0:
13,132,93955,6,0,P|83:168|155:132,1,160,4|8,0:0|0:0,0:0:0:0:
187,36,94572,1,0,0:0:0:0:
214,220,94777,5,2,0:0:0:0:
287,146,94983,1,2,0:0:0:0:
348,229,95188,1,2,0:0:0:0:
214,220,95394,1,2,0:0:0:0:
348,229,95599,6,0,P|370:194|385:155,1,80,0|2,0:0|0:0,0:0:0:0:
347,60,96010,1,8,0:0:0:0:
287,146,96216,1,0,0:0:0:0:
287,146,96318,1,0,0:0:0:0:
287,146,96421,6,0,P|245:156|205:152,1,80,2|2,0:0|0:0,0:0:0:0:
117,102,96832,1,8,0:0:0:0:
105,205,97037,2,0,L|87:244,2,40,0|0|6,0:0|0:0|0:0,0:0:0:0:
239,77,97448,5,0,0:0:0:0:
187,238,97654,1,8,0:0:0:0:
76,111,97859,1,2,0:0:0:0:
16,270,98065,6,0,P|53:256|97:237,1,80,2|2,0:0|0:0,0:0:0:0:
169,139,98476,1,2,0:0:0:0:
32,36,98681,2,2,P|-10:100|16:174,1,160,2|0,0:0|0:0,0:0:0:0:
169,139,99298,1,8,0:0:0:0:
76,111,99503,1,0,0:0:0:0:
76,111,99606,1,0,0:0:0:0:
76,111,99709,5,2,0:0:0:0:
145,218,99914,1,8,0:0:0:0:
184,222,100017,1,8,0:0:0:0:
220,204,100120,1,8,0:0:0:0:
246,174,100222,1,8,0:0:0:0:
253,134,100325,1,8,0:0:0:0:
245,94,100428,1,8,0:0:0:0:
214,67,100531,6,0,P|176:57|130:66,1,80,4|0,0:0|0:0,0:0:0:0:
301,18,100942,2,0,P|375:49|445:19,1,160,8|2,0:0|0:0,0:0:0:0:
509,120,101558,5,2,0:0:0:0:
396,161,101764,2,0,P|385:200|391:243,1,80,2|2,0:0|0:0,0:0:0:0:
389,238,102072,1,0,0:0:0:0:
389,238,102174,6,0,P|363:269|321:286,1,80,0|2,0:0|0:0,0:0:0:0:
277,367,102585,2,0,P|246:340|229:298,1,80,8|0,0:0|0:0,0:0:0:0:
300,139,102996,5,2,0:0:0:0:
258,225,103202,1,2,0:0:0:0:
134,161,103407,2,0,P|168:152|215:154,1,80,8|0,0:0|0:0,0:0:0:0:
352,206,103818,6,0,P|380:156|365:88,1,120,4|0,0:0|0:0,0:0:0:0:
370,96,104229,2,0,P|449:71|528:57,2,160,8|2|2,0:0|0:0|0:0,0:0:0:0:
299,30,105257,1,0,0:0:0:0:
299,30,105359,1,0,0:0:0:0:
299,30,105462,5,4,0:0:0:0:
124,194,105770,1,6,0:0:0:0:
298,359,106079,1,6,0:0:0:0:
237,255,106284,6,0,L|232:125,1,120,4|8,0:0|0:0,0:0:0:0:
143,59,106695,1,8,0:0:0:0:
143,59,106798,1,8,0:0:0:0:
143,59,106901,1,8,0:0:0:0:
143,59,107003,1,8,0:0:0:0:
143,59,107106,6,0,P|216:86|285:49,1,160,2|12,0:0|0:0,0:0:0:0:
284,49,107414,1,0,0:0:0:0:
334,150,107517,2,0,P|327:190|325:231,1,80,2|2,0:0|0:0,0:0:0:0:
428,185,107722,2,0,P|425:145|418:105,1,80,8|0,0:0|0:0,0:0:0:0:
259,272,107928,6,0,P|328:305|395:262,2,160,2|8|2,0:0|0:0|0:0,0:0:0:0:
334,150,108442,1,2,0:0:0:0:
461,215,108544,2,0,P|471:252|471:295,1,80,8|0,0:0|0:0,0:0:0:0:
327,229,108750,5,2,0:0:0:0:
327,229,108853,1,0,0:0:0:0:
415,148,108955,2,0,P|419:105|414:65,1,80,8|0,0:0|0:0,0:0:0:0:
311,132,109161,2,0,P|268:128|228:133,1,80,2|2,0:0|0:0,0:0:0:0:
291,236,109366,2,0,P|287:279|292:319,1,80,8|0,0:0|0:0,0:0:0:0:
197,342,109572,6,0,B|139:312|81:348|81:348|62:303,1,160,2|8,0:0|0:0,0:0:0:0:
49,226,109880,1,0,0:0:0:0:
134,247,109983,2,0,P|146:205|153:158,1,80,2|2,0:0|0:0,0:0:0:0:
58,52,110188,2,0,P|64:91|75:129,1,80,8|0,0:0|0:0,0:0:0:0:
203,85,110394,6,0,P|282:78|365:84,1,160,2|8,0:0|0:0,0:0:0:0:
449,98,110702,1,0,0:0:0:0:
287,171,110805,2,0,P|277:211|270:256,1,80,2|2,0:0|0:0,0:0:0:0:
358,240,111010,2,0,P|379:275|406:312,1,80,8|0,0:0|0:0,0:0:0:0:
270,249,111216,6,0,P|191:253|106:245,2,160,2|8|2,0:0|0:0|0:0,0:0:0:0:
306,330,111729,1,2,0:0:0:0:
450,231,111832,2,0,P|454:189|451:150,1,80,8|0,0:0|0:0,0:0:0:0:
300,18,112037,6,0,P|296:60|299:99,1,80,2|0,0:0|0:0,0:0:0:0:
358,320,112243,2,0,P|362:278|359:239,1,80,8|0,0:0|0:0,0:0:0:0:
208,107,112448,2,0,P|204:149|207:188,1,80,2|2,0:0|0:0,0:0:0:0:
359,241,112654,2,0,P|438:234|514:199,1,160,8|2,0:0|0:0,0:0:0:0:
510,201,112962,5,0,0:0:0:0:
403,135,113065,2,0,P|362:129|319:126,1,80,8|0,0:0|0:0,0:0:0:0:
281,249,113270,2,0,P|320:246|360:240,1,80,2|2,0:0|0:0,0:0:0:0:
187,222,113476,2,0,P|189:261|195:301,1,80,8|0,0:0|0:0,0:0:0:0:
246,171,113681,6,0,P|173:145|112:197,2,160,4|8|2,0:0|0:0|0:0,0:0:0:0:
246,171,114195,1,2,0:0:0:0:
246,171,114298,2,0,P|263:132|272:94,1,80,8|0,0:0|0:0,0:0:0:0:
337,201,114503,6,0,B|339:247|365:270|365:270|372:311|336:345,1,160,2|8,0:0|0:0,0:0:0:0:
336,344,114811,1,0,0:0:0:0:
420,206,114914,2,0,P|461:195|500:193,1,80,2|2,0:0|0:0,0:0:0:0:
320,97,115120,2,0,P|361:108|400:110,1,80,8|0,0:0|0:0,0:0:0:0:
246,171,115325,6,0,P|169:148|96:176,1,160,2|8,0:0|0:0,0:0:0:0:
97,175,115633,1,0,0:0:0:0:
221,66,115736,2,0,P|260:57|302:43,1,80,2|2,0:0|0:0,0:0:0:0:
337,202,115942,2,0,P|346:241|360:283,1,80,8|0,0:0|0:0,0:0:0:0:
449,187,116147,6,0,P|461:109|468:22,1,160,2|8,0:0|0:0,0:0:0:0:
467,28,116455,1,0,0:0:0:0:
377,107,116558,2,0,P|339:119|300:128,1,80,2|2,0:0|0:0,0:0:0:0:
388,211,116764,2,0,P|426:219|464:232,1,80,8|0,0:0|0:0,0:0:0:0:
317,280,116969,6,0,P|239:288|150:278,2,160,2|8|2,0:0|0:0|0:0,0:0:0:0:
377,108,117483,1,2,0:0:0:0:
289,188,117585,2,0,P|274:146|266:108,1,80,8|0,0:0|0:0,0:0:0:0:
332,39,117791,6,0,P|268:79|188:64,1,160,2|8,0:0|0:0,0:0:0:0:
124,15,118099,1,2,0:0:0:0:
190,163,118202,2,0,P|170:203|149:235,1,80,2|2,0:0|0:0,0:0:0:0:
6,169,118407,2,0,P|46:165|89:170,1,80,8|0,0:0|0:0,0:0:0:0:
202,308,118613,6,0,P|244:240|276:166,1,160,4|8,0:0|0:0,0:0:0:0:
275,166,118921,1,0,0:0:0:0:
314,304,119024,2,0,P|333:339|356:372,1,80,2|2,0:0|0:0,0:0:0:0:
424,218,119229,2,0,P|412:256|405:295,1,80,8|0,0:0|0:0,0:0:0:0:
510,207,119435,6,0,P|491:172|468:139,1,80,2|0,0:0|0:0,0:0:0:0:
360,41,119640,5,8,0:0:0:0:
354,27,119743,5,8,0:0:0:0:
338,23,119846,5,8,0:0:0:0:
325,33,119949,5,8,0:0:0:0:
325,49,120051,5,8,0:0:0:0:
338,59,120154,5,8,0:0:0:0:
354,56,120257,6,0,P|270:83|196:39,1,180.000006866455,4|0,0:0|0:0,0:0:0:0:
195,38,120668,1,8,0:0:0:0:
195,38,120770,2,0,P|205:100|208:158,1,120.000004577637
142,226,121079,5,8,0:0:0:0:
300,143,121284,1,2,0:0:0:0:
124,102,121490,1,8,0:0:0:0:
282,17,121695,1,2,0:0:0:0:
282,17,121798,1,2,0:0:0:0:
282,17,121901,6,0,P|204:54|123:17,1,180.000006866455,8|0,0:0|0:0,0:0:0:0:
8,181,122311,2,0,P|87:144|166:181,1,180.000006866455,8|0,0:0|0:0,0:0:0:0:
190,256,122722,6,0,P|236:224|237:161,1,120.000004577637,8|0,0:0|0:0,0:0:0:0:
238,164,123031,1,2,0:0:0:0:
238,164,123133,2,0,P|274:160|305:159,1,60.0000022888184,8|0,0:0|0:0,0:0:0:0:
382,125,123339,2,0,P|386:160|387:191,1,60.0000022888184
304,304,123544,6,0,B|233:319|191:257|191:257|167:271|161:304,1,180.000006866455,4|0,0:0|0:0,0:0:0:0:
279,220,123955,2,0,P|364:205|458:197,1,180.000006866455,8|0,0:0|0:0,0:0:0:0:
391,307,124366,6,0,P|383:338|367:366,1,60.0000022888184,2|0,0:0|0:0,0:0:0:0:
279,220,124572,2,0,P|273:188|270:155,1,60.0000022888184,2|0,0:0|0:0,0:0:0:0:
373,67,124777,2,0,P|379:99|382:132,1,60.0000022888184,8|0,0:0|0:0,0:0:0:0:
381,126,124983,1,0,0:0:0:0:
381,126,125085,1,0,0:0:0:0:
381,126,125188,6,0,P|439:112|496:91,1,120.000004577637,8|0,0:0|0:0,0:0:0:0:
508,180,125496,1,0,0:0:0:0:
394,255,125599,2,0,P|337:233|279:219,1,120.000004577637,8|0,0:0|0:0,0:0:0:0:
192,197,125907,1,0,0:0:0:0:
192,197,126010,6,0,P|198:165|203:137,1,60.0000022888184,8|0,0:0|0:0,0:0:0:0:
51,141,126216,2,0,P|83:147|111:152,1,60.0000022888184,2|0,0:0|0:0,0:0:0:0:
113,3,126421,2,0,P|107:35|102:63,1,60.0000022888184,8|0,0:0|0:0,0:0:0:0:
254,65,126627,2,0,P|221:58|194:54,1,60.0000022888184,2|0,0:0|0:0,0:0:0:0:
50,140,126832,6,0,P|39:216|39:324,1,180.000006866455,4|0,0:0|0:0,0:0:0:0:
179,292,127243,2,0,P|212:292|244:291,1,60.0000022888184,8|0,0:0|0:0,0:0:0:0:
131,198,127448,2,0,P|164:198|196:197,1,60.0000022888184,2|0,0:0|0:0,0:0:0:0:
352,190,127654,6,0,P|374:137|350:77,2,120.000004577637,0|0|8,0:0|0:0|0:0,0:0:0:0:
352,190,128270,1,2,0:0:0:0:
352,190,128476,5,8,0:0:0:0:
288,235,128579,1,8,0:0:0:0:
318,307,128681,1,8,0:0:0:0:
396,310,128784,2,0,L|426:312,2,30.0000011444092,0|0|2,0:0|0:0|0:0,0:0:0:0:
318,307,128990,1,0,0:0:0:0:
416,235,129092,5,4,0:0:0:0:
416,235,129503,1,2,0:0:0:0:
244,297,129709,1,8,0:0:0:0:
281,96,129914,2,0,L|284:164,1,60.0000022888184,2|0,0:0|0:0,0:0:0:0:
288,234,130120,6,0,P|228:240|166:234,1,120.000004577637,2|0,0:0|0:0,0:0:0:0:
168,233,130428,1,0,0:0:0:0:
318,307,130531,2,0,P|325:338|327:371,1,60.0000022888184,8|0,0:0|0:0,0:0:0:0:
416,235,130736,1,0,0:0:0:0:
416,235,130839,1,2,0:0:0:0:
416,235,130942,5,2,0:0:0:0:
215,366,131147,1,2,0:0:0:0:
259,129,131353,1,2,0:0:0:0:
318,306,131558,2,0,L|332:239,1,60.0000022888184,2|0,0:0|0:0,0:0:0:0:
376,154,131764,6,0,P|319:138|252:130,1,120.000004577637,2|0,0:0|0:0,0:0:0:0:
259,129,132072,1,0,0:0:0:0:
363,60,132174,2,0,P|394:61|425:59,1,60.0000022888184,8|0,0:0|0:0,0:0:0:0:
477,236,132380,2,0,P|446:235|415:237,1,60.0000022888184
215,366,132585,6,0,L|203:306,1,60.0000022888184,4|0,0:0|0:0,0:0:0:0:
377,154,132791,2,0,L|365:214,1,60.0000022888184,0|8,0:0|0:0,0:0:0:0:
215,366,132996,6,0,L|203:306,1,60.0000022888184,8|0,0:0|0:0,0:0:0:0:
377,154,133202,2,0,L|365:214,1,60.0000022888184,8|0,0:0|0:0,0:0:0:0:
319,305,133407,5,4,0:0:0:0:
256,192,133459,12,4,134846,0:0:0:0:
206,316,146558,6,0,P|126:324|43:315,1,160,4|0,0:0|0:0,0:0:0:0:
47,315,147174,1,0,0:0:0:0:
131,199,147379,2,0,P|211:191|294:200,1,160
460,292,148201,6,0,P|477:255|488:216,1,80,4|0,0:0|0:0,0:0:0:0:
391,214,148612,2,0,P|376:175|357:140,1,80
279,85,149023,1,0,0:0:0:0:
279,85,149229,1,0,0:0:0:0:
367,48,149434,2,0,P|407:42|446:40,1,80
279,85,149845,6,0,B|216:113|166:69|166:69|129:102,1,160,4|0,0:0|0:0,0:0:0:0:
137,94,150462,1,0,0:0:0:0:
341,182,150667,2,0,P|389:122|360:41,1,160
28,193,151489,6,0,P|17:231|10:275,1,80,4|0,0:0|0:0,0:0:0:0:
105,255,151900,2,0,P|124:289|150:325,1,80
222,262,152311,2,0,P|295:235|372:260,1,160
329,70,153133,6,0,P|256:97|179:72,1,160,4|0,0:0|0:0,0:0:0:0:
180,73,153749,1,0,0:0:0:0:
180,73,153955,2,0,P|169:111|159:155,1,80
243,340,154366,2,0,P|233:301|222:262,1,80
303,151,154777,5,4,0:0:0:0:
381,279,154982,2,0,P|307:277|221:263,1,160
110,191,155599,1,2,0:0:0:0:
181,369,156010,1,0,0:0:0:0:
297,216,156421,5,2,0:0:0:0:
297,216,157653,1,0,0:0:0:0:
297,216,157756,1,0,0:0:0:0:
297,216,157859,1,0,0:0:0:0:
297,216,157962,1,0,0:0:0:0:
297,216,158064,5,6,0:0:0:0:
129,43,158373,1,6,0:0:0:0:
9,250,158681,1,6,0:0:0:0:
146,169,158886,5,2,0:0:0:0:
142,328,159091,2,0,L|130:366,2,40,2|0|0,0:0|0:0|0:0,0:0:0:0:
9,250,159296,1,8,0:0:0:0:
9,250,159399,1,8,0:0:0:0:
9,250,159502,1,8,0:0:0:0:
9,250,159605,1,8,0:0:0:0:
9,250,159707,6,0,P|48:248|94:239,1,80,4|0,0:0|0:0,0:0:0:0:
231,267,159913,2,0,P|229:228|220:182,1,80,8|0,0:0|0:0,0:0:0:0:
144,129,160118,2,0,P|217:157|281:111,1,160,2|8,0:0|0:0,0:0:0:0:
330,205,160427,1,0,0:0:0:0:
375,112,160529,6,0,P|384:71|385:27,1,80,2|0,0:0|0:0,0:0:0:0:
423,200,160735,2,0,P|458:177|490:146,1,80,8|0,0:0|0:0,0:0:0:0:
330,205,160940,1,2,0:0:0:0:
375,112,161043,1,2,0:0:0:0:
376,289,161146,2,0,P|337:298|297:292,1,80,8|0,0:0|0:0,0:0:0:0:
212,196,161351,6,0,P|160:258|187:327,1,160,2|8,0:0|0:0,0:0:0:0:
185,325,161659,1,0,0:0:0:0:
82,305,161762,2,0,P|41:296|2:288,1,80,2|2,0:0|0:0,0:0:0:0:
40,189,161968,2,0,P|79:180|118:172,1,80,8|0,0:0|0:0,0:0:0:0:
375,112,162173,6,0,P|380:72|381:31,1,80,2|0,0:0|0:0,0:0:0:0:
282,70,162379,2,0,P|277:110|276:151,1,80,8|0,0:0|0:0,0:0:0:0:
345,227,162584,1,2,0:0:0:0:
345,227,162687,1,2,0:0:0:0:
290,316,162790,2,0,P|251:313|211:305,1,80,8|0,0:0|0:0,0:0:0:0:
132,236,162995,6,0,P|60:266|-14:304,2,160,2|8|2,0:0|0:0|0:0,0:0:0:0:
128,341,163509,1,2,0:0:0:0:
243,226,163611,2,0,P|247:187|247:147,1,80,8|0,0:0|0:0,0:0:0:0:
345,227,163817,6,0,P|336:311|342:389,1,160,4|8,0:0|0:0,0:0:0:0:
341,386,164125,1,0,0:0:0:0:
431,278,164228,2,0,P|435:239|435:199,1,80,2|2,0:0|0:0,0:0:0:0:
475,68,164433,2,0,P|436:64|396:64,1,80,8|0,0:0|0:0,0:0:0:0:
303,115,164639,6,0,B|246:129|206:93|206:93|188:109|183:144,1,160,2|8,0:0|0:0,0:0:0:0:
183,142,164947,1,0,0:0:0:0:
345,228,165050,2,0,P|416:220|504:215,1,160,2|8,0:0|0:0,0:0:0:0:
504,214,165358,1,0,0:0:0:0:
381,323,165461,6,0,P|336:324|301:319,1,80,2|0,0:0|0:0,0:0:0:0:
250,228,165666,1,8,0:0:0:0:
371,83,165769,2,0,B|380:134|335:170|335:170|329:199|347:231,1,160,2|2,0:0|0:0,0:0:0:0:
214,93,166077,2,0,P|259:92|294:97,1,80,8|0,0:0|0:0,0:0:0:0:
145,166,166283,6,0,P|67:179|-11:164,1,160,4|8,0:0|0:0,0:0:0:0:
31,87,166591,1,0,0:0:0:0:
109,269,166694,2,0,P|124:306|126:348,1,80,2|2,0:0|0:0,0:0:0:0:
219,269,166899,2,0,P|221:229|236:192,1,80,8|0,0:0|0:0,0:0:0:0:
452,241,167105,6,0,P|377:258|293:244,1,160,2|8,0:0|0:0,0:0:0:0:
295,245,167413,1,0,0:0:0:0:
402,164,167516,2,0,P|418:127|427:89,1,80,2|2,0:0|0:0,0:0:0:0:
427,88,167721,1,8,0:0:0:0:
427,88,167824,1,0,0:0:0:0:
427,88,167927,6,0,B|442:147|488:160|488:160|493:195|462:222,1,160,2|8,0:0|0:0,0:0:0:0:
414,284,168235,1,0,0:0:0:0:
342,233,168337,2,0,P|301:224|263:223,1,80,2|2,0:0|0:0,0:0:0:0:
170,172,168543,2,0,P|161:213|162:251,1,80,8|0,0:0|0:0,0:0:0:0:
264,222,168748,6,0,P|273:145|273:63,1,160,2|8,0:0|0:0,0:0:0:0:
272,62,169057,1,2,0:0:0:0:
360,117,169159,2,0,P|401:124|440:123,1,80,2|2,0:0|0:0,0:0:0:0:
495,34,169365,2,0,P|455:33|415:40,1,80,8|0,0:0|0:0,0:0:0:0:
273,63,169570,6,0,P|197:82|119:58,1,160,2|8,0:0|0:0,0:0:0:0:
50,137,169879,1,0,0:0:0:0:
113,218,169981,2,0,P|120:259|122:297,1,80,2|2,0:0|0:0,0:0:0:0:
224,322,170187,2,0,P|199:355|174:384,1,80,8|0,0:0|0:0,0:0:0:0:
205,232,170392,6,0,P|283:218|368:209,2,160,2|8|2,0:0|0:0|0:0,0:0:0:0:
33,272,170906,1,2,0:0:0:0:
113,218,171009,2,0,P|128:178|136:140,1,80,8|0,0:0|0:0,0:0:0:0:
27,61,171214,6,0,P|35:100|49:137,1,80,2|0,0:0|0:0,0:0:0:0:
222,299,171420,2,0,P|237:259|245:221,1,80,8|0,0:0|0:0,0:0:0:0:
136,142,171625,2,0,P|144:181|158:218,2,80,2|0|8,0:0|0:0|0:0,0:0:0:0:
206,65,171933,1,0,0:0:0:0:
333,151,172036,6,0,L|245:137,2,80,2|2|2,0:0|0:0|0:0,0:0:0:0:
405,76,172344,1,0,0:0:0:0:
500,33,172447,2,0,P|505:75|505:113,1,80,2|0,0:0|0:0,0:0:0:0:
463,209,172653,1,8,0:0:0:0:
463,209,172755,1,8,0:0:0:0:
463,209,172858,6,0,P|412:278|454:353,1,180.000006866455,4|0,0:0|0:0,0:0:0:0:
452,352,173269,2,0,P|367:360|261:344,1,180.000006866455,8|0,0:0|0:0,0:0:0:0:
259,252,173680,5,8,0:0:0:0:
98,357,173885,1,2,0:0:0:0:
196,191,174091,1,8,0:0:0:0:
189,382,174296,2,0,L|170:305,1,60.0000022888184,2|0,0:0|0:0,0:0:0:0:
109,252,174502,6,0,P|112:190|108:133,1,120.000004577637,8|2,0:0|0:0,0:0:0:0:
54,52,174810,1,0,0:0:0:0:
54,52,174913,2,0,P|130:95|210:55,1,180.000006866455,8|2,0:0|0:0,0:0:0:0:
207,58,175324,5,8,0:0:0:0:
207,58,175427,1,0,0:0:0:0:
259,139,175529,2,0,L|265:205,1,60.0000022888184,2|0,0:0|0:0,0:0:0:0:
359,182,175734,2,0,L|365:248,1,60.0000022888184,8|0,0:0|0:0,0:0:0:0:
459,225,175939,2,0,L|465:291,1,60.0000022888184,2|0,0:0|0:0,0:0:0:0:
291,316,176146,6,0,P|212:305|106:301,1,180.000006866455
147,211,176557,2,0,P|154:183|157:153,1,60.0000022888184,8|0,0:0|0:0,0:0:0:0:
62,77,176762,2,0,P|64:106|72:135,1,60.0000022888184,2|0,0:0|0:0,0:0:0:0:
207,58,176968,6,0,P|265:42|328:33,1,120.000004577637,8|2,0:0|0:0,0:0:0:0:
412,115,177276,1,0,0:0:0:0:
459,225,177379,2,0,P|401:241|338:250,2,120.000004577637,8|2|8,0:0|0:0|0:0,0:0:0:0:
240,326,177995,6,0,P|209:319|179:310,1,60.0000022888184,2|0,0:0|0:0,0:0:0:0:
82,243,178200,1,2,0:0:0:0:
38,221,178303,1,2,0:0:0:0:
26,174,178406,1,2,0:0:0:0:
37,127,178509,1,2,0:0:0:0:
75,99,178611,6,0,P|98:87|133:76,2,60.0000022888184
150,172,178920,2,0,P|173:184|208:195,2,60.0000022888184,0|8|0,0:0|0:0|0:0,0:0:0:0:
216,51,179228,2,0,P|222:81|214:114,1,60.0000022888184,2|0,0:0|0:0,0:0:0:0:
160,258,179433,6,0,P|214:240|281:244,1,120.000004577637,4|2,0:0|0:0,0:0:0:0:
363,269,179742,1,0,0:0:0:0:
363,269,179844,2,0,L|377:142,1,120.000004577637,8|0,0:0|0:0,0:0:0:0:
457,109,180153,1,2,0:0:0:0:
457,109,180255,5,8,0:0:0:0:
277,243,180461,1,2,0:0:0:0:
141,60,180666,2,0,P|110:53|79:52,1,60.0000022888184,8|0,0:0|0:0,0:0:0:0:
97,141,180872,2,0,P|90:172|89:203,1,60.0000022888184,2|0,0:0|0:0,0:0:0:0:
177,180,181077,6,0,P|236:161|313:151,1,120.000004577637,12|0,0:0|0:0,0:0:0:0:
469,216,181385,2,0,P|440:218|410:217,1,60.0000022888184,8|0,0:0|0:0,0:0:0:0:
140,60,181694,1,4,0:0:0:0:
140,60,182105,5,2,0:0:0:0:
258,194,182310,1,8,0:0:0:0:
328,28,182516,2,0,P|298:39|270:50,1,60.0000022888184,2|0,0:0|0:0,0:0:0:0:
209,114,182721,6,0,P|131:147|57:96,2,180.000006866455,4|0|0,0:0|0:0|0:0,0:0:0:0:
258,194,183440,6,0,P|303:188|326:186,2,60.0000022888184
163,310,183748,1,8,0:0:0:0:
163,310,183851,1,8,0:0:0:0:
163,310,183954,1,8,0:0:0:0:
163,310,184057,1,8,0:0:0:0:
163,310,184159,2,0,L|166:277|163:244,1,60.0000022888184
279,295,184365,6,0,L|414:278,1,120.000004577637,6|0,0:0|0:0,0:0:0:0:
191,203,184673,2,0,L|326:186,1,120.000004577637
446,195,184981,1,0,0:0:0:0:
446,195,185084,1,0,0:0:0:0:
446,195,185187,6,0,P|484:124|454:53,1,160,4|8,0:0|0:0,0:0:0:0:
399,117,185700,1,8,0:0:0:0:
399,117,185803,1,8,0:0:0:0:
399,117,185906,1,8,0:0:0:0:
399,117,186009,6,0,P|330:140|259:93,2,160,4|8|2,0:0|0:0|0:0,0:0:0:0:
337,54,186522,1,2,0:0:0:0:
399,117,186625,2,0,P|387:157|381:195,1,80,8|0,0:0|0:0,0:0:0:0:
486,345,186831,6,0,P|479:305|468:267,1,80,2|0,0:0|0:0,0:0:0:0:
284,202,187036,2,0,P|303:238|326:269,1,80,8|0,0:0|0:0,0:0:0:0:
257,349,187242,1,2,0:0:0:0:
257,349,187344,1,2,0:0:0:0:
176,282,187447,2,0,P|130:276|92:272,1,80,8|0,0:0|0:0,0:0:0:0:
196,179,187653,6,0,B|226:110|179:66|179:66|201:27,2,160,4|8|2,0:0|0:0|0:0,0:0:0:0:
120,133,188166,1,2,0:0:0:0:
97,47,188269,2,0,P|63:64|38:97,1,80,8|0,0:0|0:0,0:0:0:0:
49,184,188474,6,0,P|79:209|117:219,1,80,2|0,0:0|0:0,0:0:0:0:
197,178,188680,1,8,0:0:0:0:
278,212,188783,2,0,L|259:374,1,160,2|2,0:0|0:0,0:0:0:0:
370,192,189091,2,0,L|363:274,1,80,8|0,0:0|0:0,0:0:0:0:
259,370,189296,6,0,P|178:374|90:362,2,160,4|8|2,0:0|0:0|0:0,0:0:0:0:
474,317,189810,1,2,0:0:0:0:
363,271,189913,2,0,L|370:192,1,80,8|0,0:0|0:0,0:0:0:0:
439,113,190118,6,0,P|367:141|294:106,1,160,2|8,0:0|0:0,0:0:0:0:
371,47,190427,1,0,0:0:0:0:
279,19,190529,2,0,P|241:36|216:66,1,80,2|2,0:0|0:0,0:0:0:0:
122,86,190735,2,0,P|139:124|169:149,1,80,8|0,0:0|0:0,0:0:0:0:
247,202,190940,6,0,L|88:188,1,160,2|8,0:0|0:0,0:0:0:0:
87,187,191248,1,0,0:0:0:0:
205,287,191351,2,0,L|284:293,1,80,2|2,0:0|0:0,0:0:0:0:
102,311,191557,2,0,L|153:371,1,80,8|0,0:0|0:0,0:0:0:0:
285,293,191762,6,0,P|335:234|323:155,2,160,2|8|2,0:0|0:0|0:0,0:0:0:0:
379,369,192276,1,2,0:0:0:0:
476,298,192379,2,0,P|456:257|450:219,1,80,8|0,0:0|0:0,0:0:0:0:
379,369,192584,6,0,P|305:344|223:327,1,160,4|8,0:0|0:0,0:0:0:0:
102,311,192892,1,0,0:0:0:0:
180,219,192995,2,0,L|199:177,2,40,2|0|0,0:0|0:0|0:0,0:0:0:0:
94,134,193200,2,0,L|79:93,2,40,8|0|0,0:0|0:0|0:0,0:0:0:0:
203,80,193406,6,0,P|281:91|359:69,1,160,4|8,0:0|0:0,0:0:0:0:
358,69,193714,1,0,0:0:0:0:
474,38,193817,2,0,P|463:74|457:118,1,80,2|2,0:0|0:0,0:0:0:0:
373,303,194022,2,0,P|367:263|356:225,1,80,8|0,0:0|0:0,0:0:0:0:
245,182,194228,6,0,P|181:154|94:135,2,160,2|8|2,0:0|0:0|0:0,0:0:0:0:
183,256,194742,1,2,0:0:0:0:
280,343,194844,2,0,P|280:303|277:264,1,80,8|0,0:0|0:0,0:0:0:0:
93,218,195050,6,0,P|92:257|96:297,1,80,2|0,0:0|0:0,0:0:0:0:
183,256,195255,1,8,0:0:0:0:
244,182,195358,2,0,B|258:115|211:78|211:78|233:29,1,160,2|2,0:0|0:0,0:0:0:0:
321,65,195666,2,0,P|363:58|403:57,1,80,8|0,0:0|0:0,0:0:0:0:
342,261,195872,6,0,P|263:268|180:256,2,160,4|8|2,0:0|0:0|0:0,0:0:0:0:
412,195,196385,1,2,0:0:0:0:
436,288,196488,2,0,L|412:369,1,80,8|0,0:0|0:0,0:0:0:0:
342,261,196694,6,0,P|338:182|343:101,1,160,2|8,0:0|0:0,0:0:0:0:
342,101,197002,1,2,0:0:0:0:
241,203,197105,2,0,P|205:210|157:215,1,80,2|2,0:0|0:0,0:0:0:0:
178,119,197310,2,0,P|147:98|110:68,1,80,8|0,0:0|0:0,0:0:0:0:
46,162,197516,6,0,P|72:237|41:308,1,160,2|8,0:0|0:0,0:0:0:0:
41,307,197824,1,0,0:0:0:0:
153,309,197927,2,0,P|196:302|232:300,1,80,2|0,0:0|0:0,0:0:0:0:
436,298,198132,2,0,P|429:255|427:219,1,80,8|0,0:0|0:0,0:0:0:0:
470,42,198337,5,8,0:0:0:0:
470,42,198440,1,8,0:0:0:0:
470,42,198543,1,8,0:0:0:0:
470,42,198646,1,8,0:0:0:0:
470,42,198748,1,8,0:0:0:0:
470,42,198851,1,8,0:0:0:0:
470,42,198954,1,8,0:0:0:0:
470,42,199057,1,8,0:0:0:0:
470,42,199159,5,10,0:0:0:0:
77,311,200598,6,0,L|249:302,1,160,4|2,0:0|0:0,0:0:0:0:
256,58,202447,5,6,0:0:0:0:
440,343,203885,6,0,L|448:183,1,160,4|2,0:0|0:0,0:0:0:0:
87,87,205324,1,8,0:0:0:0:
50,193,205427,1,8,0:0:0:0:
159,173,205529,1,8,0:0:0:0:
159,173,205632,6,0,P|249:155|337:154,1,180.000006866455,2|0,0:0|0:0,0:0:0:0:
