osu file format v12

[General]
AudioFilename: otome.mp3
AudioLeadIn: 1000
PreviewTime: 57225
Countdown: 0
SampleSet: Soft
StackLeniency: 0.7
Mode: 0
LetterboxInBreaks: 0

[Editor]
Bookmarks: 40296,40832
DistanceSpacing: 0.5
BeatDivisor: 6
GridSize: 4

[Metadata]
Title:Otome Gokoro 1000000%
TitleUnicode:Otome Gokoro 1000000%
Artist:AiRI
ArtistUnicode:AiRI
Creator:Laurier
Version:Lauriextra
Source:Love-ressive
Tags:SakiK SMILE
BeatmapID:237742
BeatmapSetID:86462

[Difficulty]
HPDrainRate:7
CircleSize:4
OverallDifficulty:8
ApproachRate:9
SliderMultiplier:1.7
SliderTickRate:1

[Events]
//Background and Video events
Video,0,"otome.avi"
0,0,"love.jpg",0,0
//Break Periods
//Storyboard Layer 0 (Background)
//Storyboard Layer 1 (Fail)
//Storyboard Layer 2 (Pass)
//Storyboard Layer 3 (Foreground)
//Storyboard Sound Samples
//Background Colour Transformations
3,100,163,162,255

[TimingPoints]
654,214.285714285714,4,2,1,60,1,0
7082,-100,4,2,2,60,0,0
7296,-100,4,2,1,60,0,0
56796,-100,4,2,2,60,0,0
56904,-100,4,2,1,60,0,0
70511,-100,4,2,2,60,0,0
70725,-100,4,2,1,60,0,0
77796,-100,4,2,1,40,0,0
78225,-100,4,2,1,60,0,0
108653,-100,4,2,1,50,0,0
110368,-100,4,2,1,40,0,0
112082,-100,4,2,1,30,0,0
113796,-100,4,2,1,20,0,0
115511,-100,4,2,1,10,0,0
116903,-100,4,2,1,50,0,0

[Colours]
Combo1 : 255,255,191
Combo2 : 185,255,185
Combo3 : 202,226,255
Combo4 : 255,206,255

[HitObjects]
256,192,654,6,0,B|220:212|252:260|208:288|208:288|172:240,2,170,0|0|0,0:0|0:0|0:0,0:0:0:0:
256,192,1296,5,2,0:0:0:0:
444,200,1403,2,0,P|404:256|312:240,1,170,2|2,0:0|0:0,0:0:0:0:
264,100,1725,1,2,0:0:0:0:
290,90,1778,1,0,0:0:0:0:
318,87,1832,1,0,0:0:0:0:
345,93,1885,1,0,0:0:0:0:
372,108,1939,2,0,P|376:148|368:196,1,85,2|0,0:0|0:0,0:0:0:0:
244,356,2153,2,0,P|240:316|248:268,1,85,2|0,0:0|0:0,0:0:0:0:
168,192,2368,6,0,B|144:144|92:136|92:136|80:176|40:184,2,170,2|2|2,0:0|0:0|0:0,0:0:0:0:
168,192,3011,1,2,0:0:0:0:
120,292,3118,1,0,0:0:0:0:
168,192,3225,2,0,P|184:144|192:108,1,85,2|0,0:0|0:0,0:0:0:0:
44,184,3439,2,0,P|28:232|20:268,1,85,2|0,0:0|0:0,0:0:0:0:
120,292,3653,6,0,P|200:268|284:292,1,170,2|2,0:0|0:0,0:0:0:0:
380,344,3975,1,0,0:0:0:0:
380,344,4082,2,0,L|376:252,1,85,2|0,0:0|0:0,0:0:0:0:
488,260,4296,2,0,L|484:168,1,85,2|0,0:0|0:0,0:0:0:0:
476,64,4511,2,0,P|412:20|340:64,1,170,2|2,0:0|0:0,0:0:0:0:
352,152,4832,1,0,0:0:0:0:
256,212,4939,6,0,P|244:168|244:128,1,85,2|0,0:0|0:0,0:0:0:0:
352,152,5153,2,0,P|364:196|364:236,1,85,0|2,0:0|0:0,0:0:0:0:
256,320,5368,2,0,P|220:336|172:336,1,85,2|0,0:0|0:0,0:0:0:0:
68,248,5582,2,0,P|104:232|152:232,1,85,2|0,0:0|0:0,0:0:0:0:
256,320,5796,6,0,B|304:348|304:348|336:276|384:272|384:272|384:316|416:352,1,255,4|0,0:0|0:0,0:0:0:0:
484,276,6225,2,0,P|492:232|484:192,1,85,2|0,0:0|0:0,0:0:0:0:
453,51,6439,2,0,B|381:91|381:91|445:127|405:183|405:183|349:151,1,255,4|0,0:0|0:0,0:0:0:0:
256,116,6868,2,0,P|248:72|256:32,1,85,8|0,0:0|0:0,0:0:0:0:
328,276,7082,2,0,P|336:320|328:360,1,85,8|0,0:0|0:0,0:0:0:0:
192,376,7296,1,0,0:0:0:0:
192,376,7350,1,0,0:0:0:0:
192,376,7403,1,0,0:0:0:0:
192,376,7457,1,0,0:0:0:0:
192,376,7511,6,0,P|160:348|120:332,1,85,4|0,0:0|0:0,0:0:0:0:
120,332,7725,1,8,0:0:0:0:
120,332,7832,1,0,0:0:0:0:
120,332,7939,2,0,P|128:288|128:244,1,85,2|0,0:0|0:0,0:0:0:0:
64,44,8153,2,0,P|56:88|56:132,1,85,8|0,0:0|0:0,0:0:0:0:
216,200,8368,6,0,P|180:176|140:164,2,85,2|0|8,0:0|0:0|0:0,0:0:0:0:
256,292,8689,1,0,0:0:0:0:
320,152,8796,2,0,P|360:140|408:136,1,85,2|0,0:0|0:0,0:0:0:0:
400,268,9011,6,0,P|340:316|248:284,2,170,8|2|8,0:0|0:0|0:0,0:0:0:0:
320,152,9546,1,0,0:0:0:0:
228,196,9653,2,0,P|196:220|172:264,1,85,2|0,0:0|0:0,0:0:0:0:
284,372,9868,2,0,P|316:348|340:304,1,85,8|0,0:0|0:0,0:0:0:0:
320,152,10082,5,2,0:0:0:0:
236,96,10189,2,0,B|192:88|176:48|176:48|76:48,1,170,2|2,0:0|0:0,0:0:0:0:
32,192,10511,2,0,L|104:140,1,85,2|0,0:0|0:0,0:0:0:0:
236,96,10725,2,0,L|308:44,1,85,8|0,0:0|0:0,0:0:0:0:
320,152,10939,6,0,P|320:196|332:236,1,85,2|0,0:0|0:0,0:0:0:0:
484,288,11153,2,0,P|452:256|416:237,1,85,8|0,0:0|0:0,0:0:0:0:
256,288,11368,2,0,P|176:316|96:284,1,170,2|8,0:0|0:0,0:0:0:0:
32,192,11689,1,0,0:0:0:0:
120,64,11796,2,0,P|152:140|104:212,2,170,2|8|2,0:0|0:0|0:0,0:0:0:0:
120,64,12439,5,4,0:0:0:0:
120,64,12868,1,4,0:0:0:0:
340,40,13082,2,0,L|516:20,1,170,2|8,0:0|0:0,0:0:0:0:
496,132,13403,1,0,0:0:0:0:
404,196,13511,2,0,P|392:152|396:112,1,85,2|0,0:0|0:0,0:0:0:0:
472,272,13725,2,0,P|469:317|453:354,1,85,8|0,0:0|0:0,0:0:0:0:
328,268,13939,2,0,P|256:236|176:276,1,170,2|8,0:0|0:0,0:0:0:0:
178,273,14261,1,8,0:0:0:0:
178,273,14368,6,0,B|176:228|144:200|144:200|140:152|188:128,2,170,4|8|2,0:0|0:0|0:0,0:0:0:0:
112,352,14903,1,0,0:0:0:0:
16,264,15011,2,0,P|56:256|100:264,1,85,8|0,0:0|0:0,0:0:0:0:
237,331,15225,6,0,P|203:308|177:271,1,85,2|0,0:0|0:0,0:0:0:0:
260,176,15439,1,8,0:0:0:0:
320,288,15546,2,0,P|328:336|320:372,2,85,0|2|0,0:0|0:0|0:0,0:0:0:0:
260,176,15868,6,0,B|244:128|284:96|284:96|272:56|232:40,2,170,8|2|8,0:0|0:0|0:0,0:0:0:0:
268,268,16403,1,0,0:0:0:0:
407,203,16511,2,0,P|343:155|255:183,1,170,2|8,0:0|0:0,0:0:0:0:
160,292,16832,6,0,P|78:313|14:265,1,170,2|2,0:0|0:0,0:0:0:0:
60,92,17153,2,0,P|76:128|72:176,1,85,8|0,0:0|0:0,0:0:0:0:
28,348,17368,2,0,P|12:312|16:264,1,85,2|0,0:0|0:0,0:0:0:0:
168,192,17582,1,8,0:0:0:0:
168,192,17689,1,0,0:0:0:0:
168,192,17796,6,0,B|216:168|252:208|252:208|304:192|320:152,1,170,4|8,0:0|0:0,0:0:0:0:
280,24,18118,1,0,0:0:0:0:
280,24,18225,2,0,P|264:64|264:108,1,85,2|0,0:0|0:0,0:0:0:0:
360,240,18439,1,8,0:0:0:0:
416,112,18546,6,0,P|340:76|256:116,1,170,2|0,0:0|0:0,0:0:0:0:
168,192,18868,2,0,P|124:200|80:192,1,85,8|0,0:0|0:0,0:0:0:0:
24,88,19082,2,0,P|68:80|112:88,1,85,2|0,0:0|0:0,0:0:0:0:
168,192,19296,1,8,0:0:0:0:
286,285,19403,6,0,P|358:325|434:285,1,170,4|0,0:0|0:0,0:0:0:0:
480,136,19725,2,0,L|456:224,1,85,2|0,0:0|0:0,0:0:0:0:
364,44,19939,2,0,L|387:132,1,85,2|0,0:0|0:0,0:0:0:0:
216,28,20153,2,0,L|280:92,1,85,2|0,0:0|0:0,0:0:0:0:
76,72,20368,2,0,L|164:95,1,85,2|0,0:0|0:0,0:0:0:0:
256,176,20582,6,0,P|264:220|256:264,1,85
72,268,20796,2,0,P|116:260|164:272,1,85
260,352,21011,2,0,P|344:376|428:352,1,170
440,332,21278,1,0,0:0:0:0:
440,332,21332,2,0,P|459:289|479:257,1,85
216,28,21653,5,8,0:0:0:0:
152,96,21761,1,8,0:0:0:0:
320,176,21975,1,8,0:0:0:0:
260,352,22189,1,8,0:0:0:0:
158,340,22296,1,2,0:0:0:0:
129,340,22368,1,2,0:0:0:0:
100,340,22439,1,2,0:0:0:0:
70,340,22511,2,2,B|48:300|48:300|120:240|84:160|84:160|36:120,1,255
216,28,22939,6,0,P|264:24|308:24,1,85,4|0,0:0|0:0,0:0:0:0:
352,120,23153,2,0,P|304:124|260:124,1,85,2|0,0:0|0:0,0:0:0:0:
140,88,23368,1,8,0:0:0:0:
140,88,23582,1,8,0:0:0:0:
208,176,23689,6,0,P|244:244|212:328,1,170,2|0,0:0|0:0,0:0:0:0:
213,326,24011,2,0,P|256:320|300:320,1,85,2|0,0:0|0:0,0:0:0:0:
480,192,24225,2,0,P|437:198|393:198,1,85,8|0,0:0|0:0,0:0:0:0:
396,198,24439,1,0,0:0:0:0:
395,198,24546,1,0,0:0:0:0:
256,104,24653,6,0,P|172:100|124:168,2,170,2|8|2,0:0|0:0|0:0,0:0:0:0:
256,104,25296,1,8,0:0:0:0:
336,240,25403,2,0,P|420:268|468:208,1,170,2|0,0:0|0:0,0:0:0:0:
268,192,25725,2,0,P|252:232|260:280,1,85,8|0,0:0|0:0,0:0:0:0:
396,200,25939,2,0,P|412:160|404:112,2,85,8|0|2,0:0|0:0|0:0,0:0:0:0:
396,200,26368,6,0,P|356:268|392:344,1,170,2|8,0:0|0:0,0:0:0:0:
512,272,26689,2,0,P|484:268|440:272,1,85,0|2,0:0|0:0,0:0:0:0:
427,274,27011,1,8,0:0:0:0:
337,147,27118,6,0,P|265:111|193:155,1,170,2|0,0:0|0:0,0:0:0:0:
271,276,27439,2,0,L|267:189,1,85,8|0,0:0|0:0,0:0:0:0:
139,98,27653,2,0,P|118:180|186:235,1,170,2|8,0:0|0:0,0:0:0:0:
268,192,27975,1,0,0:0:0:0:
352,252,28082,6,0,P|352:296|336:336,1,85,2|0,0:0|0:0,0:0:0:0:
368,156,28296,2,0,P|408:172|436:208,1,85,8|0,0:0|0:0,0:0:0:0:
272,276,28511,2,0,P|192:308|116:276,1,170,2|8,0:0|0:0,0:0:0:0:
138,98,28832,6,0,P|157:59|161:14,2,85,0|2|0,0:0|0:0|0:0,0:0:0:0:
28,228,29153,2,0,P|60:200|100:184,1,85,8|0,0:0|0:0,0:0:0:0:
230,204,29368,1,0,0:0:0:0:
241,213,29439,1,0,0:0:0:0:
254,219,29510,1,0,0:0:0:0:
268,221,29582,1,0,0:0:0:0:
282,219,29653,1,0,0:0:0:0:
295,214,29725,1,0,0:0:0:0:
307,209,29796,6,0,B|352:192|344:144|344:144|344:144|392:120|432:144,1,170,4|0,0:0|0:0,0:0:0:0:
452,252,30118,1,0,0:0:0:0:
356,304,30225,2,0,P|280:320|188:304,1,170,8|0,0:0|0:0,0:0:0:0:
104,128,30546,2,0,P|180:112|272:128,1,170,2|0,0:0|0:0,0:0:0:0:
428,144,30868,2,0,P|444:104|448:60,1,85,2|0,0:0|0:0,0:0:0:0:
308,208,31082,2,0,P|311:250|326:292,1,85,8|0,0:0|0:0,0:0:0:0:
452,252,31296,1,0,0:0:0:0:
415,356,31403,1,0,0:0:0:0:
452,252,31511,6,0,P|476:216|508:184,1,85,0|0,0:0|0:0,0:0:0:0:
276,128,31725,2,0,P|320:128|364:140,1,85,0|0,0:0|0:0,0:0:0:0:
356,304,31939,2,0,P|284:340|204:300,1,170,8|0,0:0|0:0,0:0:0:0:
0,192,32261,2,0,P|76:156|152:192,1,170,2|0,0:0|0:0,0:0:0:0:
77,319,32582,2,0,P|69:279|77:231,1,85,2|0,0:0|0:0,0:0:0:0:
224,148,32796,2,0,P|232:188|224:236,2,85,8|0|2,0:0|0:0|0:0,0:0:0:0:
140,72,33118,1,0,0:0:0:0:
224,148,33225,6,0,P|300:184|372:148,1,170,2|2,0:0|0:0,0:0:0:0:
371,148,33546,1,0,0:0:0:0:
371,148,33653,2,0,B|376:216|448:220|448:220|416:268,1,170,8|0,0:0|0:0,0:0:0:0:
300,332,33975,2,0,P|340:260|420:264,1,170,2|0,0:0|0:0,0:0:0:0:
456,340,34296,2,0,P|412:344|372:320,1,85,2|0,0:0|0:0,0:0:0:0:
256,240,34511,2,0,P|221:221|177:225,2,85,8|0|2,0:0|0:0|0:0,0:0:0:0:
200,304,34832,1,0,0:0:0:0:
120,280,34939,6,0,P|108:192|168:148,1,170,0|2,0:0|0:0,0:0:0:0:
256,64,35261,1,0,0:0:0:0:
140,36,35368,2,0,P|96:32|56:36,1,85,8|0,0:0|0:0,0:0:0:0:
167,148,35582,1,0,0:0:0:0:
316,208,35689,6,0,P|364:144|344:60,1,170,2|0,0:0|0:0,0:0:0:0:
232,208,36011,2,0,P|240:248|272:280,1,85,8|0,0:0|0:0,0:0:0:0:
432,280,36225,2,0,P|392:268|352:280,1,85,2|0,0:0|0:0,0:0:0:0:
208,352,36439,2,0,P|168:364|128:352,1,85,2|0,0:0|0:0,0:0:0:0:
84,252,36653,6,0,L|72:76,1,170,2|2,0:0|0:0,0:0:0:0:
167,148,36975,1,0,0:0:0:0:
208,352,37082,2,0,L|204:264,1,85,8|0,0:0|0:0,0:0:0:0:
167,148,37296,1,2,0:0:0:0:
256,56,37403,6,0,P|332:20|408:56,1,170,2|0,0:0|0:0,0:0:0:0:
372,152,37725,2,0,P|364:192|372:236,1,85,2|0,0:0|0:0,0:0:0:0:
480,96,37939,2,0,P|488:56|480:12,2,85,8|0|2,0:0|0:0|0:0,0:0:0:0:
372,152,38261,1,0,0:0:0:0:
372,152,38314,1,0,0:0:0:0:
372,152,38368,6,0,P|332:160|288:152,1,85,2|0,0:0|0:0,0:0:0:0:
168,60,38582,1,2,0:0:0:0:
168,60,38796,2,0,P|204:128|156:204,1,170,8|2,0:0|0:0,0:0:0:0:
100,316,39118,2,0,B|120:368|120:368|176:328|236:364,1,170,2|0,0:0|0:0,0:0:0:0:
320,272,39439,2,0,P|300:236|296:192,1,85,2|0,0:0|0:0,0:0:0:0:
440,228,39653,2,0,P|452:272|444:312,1,85,8|0,0:0|0:0,0:0:0:0:
320,272,39868,1,2,0:0:0:0:
372,152,39975,1,8,0:0:0:0:
372,152,40028,1,0,0:0:0:0:
372,152,40082,6,0,P|376:104|372:68,1,85,2|0,0:0|0:0,0:0:0:0:
188,152,40296,2,0,P|184:192|188:236,1,85,2|0,0:0|0:0,0:0:0:0:
320,272,40511,2,0,P|396:232|468:268,1,170,8|0,0:0|0:0,0:0:0:0:
364,340,40832,6,0,P|288:380|217:346,1,170,2|0,0:0|0:0,0:0:0:0:
120,188,41153,2,0,P|160:208|188:240,1,85,2|0,0:0|0:0,0:0:0:0:
76,304,41368,1,8,0:0:0:0:
28,216,41475,1,0,0:0:0:0:
56,120,41582,2,0,P|140:96|200:144,1,170,2|2,0:0|0:0,0:0:0:0:
199,143,41903,5,0,0:0:0:0:
199,143,42011,2,0,P|224:108|236:68,1,85,2|0,0:0|0:0,0:0:0:0:
120,188,42225,1,8,0:0:0:0:
168,276,42332,1,0,0:0:0:0:
256,224,42439,1,0,0:0:0:0:
256,224,42493,1,0,0:0:0:0:
256,224,42546,2,0,P|332:192|408:224,1,170,2|0,0:0|0:0,0:0:0:0:
448,320,42868,1,2,0:0:0:0:
448,320,43082,5,2,0:0:0:0:
408,224,43189,1,2,0:0:0:0:
488,160,43296,2,0,P|490:115|488:76,1,85,2|0,0:0|0:0,0:0:0:0:
352,92,43511,6,0,B|316:72|300:32|300:32|260:24|200:36,2,170,4|2|8,0:0|0:0|0:0,0:0:0:0:
352,92,44153,1,0,0:0:0:0:
280,164,44261,2,0,P|244:236|276:316,1,170
274,314,44582,2,0,P|232:312|184:320,1,85,2|0,0:0|0:0,0:0:0:0:
188,216,44796,2,0,P|149:234|111:265,1,85,8|0,0:0|0:0,0:0:0:0:
64,172,45011,2,0,P|40:207|23:253,1,85,2|0,0:0|0:0,0:0:0:0:
68,340,45225,5,8,0:0:0:0:
68,340,45439,2,0,P|112:328|152:324,1,85,2|0,0:0|0:0,0:0:0:0:
274,314,45653,1,8,0:0:0:0:
274,314,45761,2,0,P|297:272|303:231,1,85,0|2,0:0|0:0,0:0:0:0:
256,144,45975,1,0,0:0:0:0:
256,144,46082,1,8,0:0:0:0:
256,144,46189,1,0,0:0:0:0:
256,144,46296,6,0,B|304:128|308:84|308:84|376:84|392:120,2,170,2|8|2,0:0|0:0|0:0,0:0:0:0:
228,64,46832,1,0,0:0:0:0:
172,128,46939,2,0,P|192:208|272:228,1,170,8|2,0:0|0:0,0:0:0:0:
364,188,47261,1,0,0:0:0:0:
448,132,47368,2,0,P|456:88|456:44,2,85,8|0|2,0:0|0:0|0:0,0:0:0:0:
452,232,47689,1,0,0:0:0:0:
396,316,47796,6,0,P|316:344|236:312,2,170,8|2|8,0:0|0:0|0:0,0:0:0:0:
364,188,48332,1,0,0:0:0:0:
236,140,48439,2,0,P|236:184|244:228,1,85,2|0,0:0|0:0,0:0:0:0:
308,84,48653,6,0,P|240:52|160:92,1,170,4|0,0:0|0:0,0:0:0:0:
148,228,48975,1,0,0:0:0:0:
148,228,49082,2,0,P|80:260|0:220,1,170,4|0,0:0|0:0,0:0:0:0:
40,92,49403,2,0,L|72:176,1,85,0|4,0:0|0:0,0:0:0:0:
70,171,49725,5,4,0:0:0:0:
256,372,49939,2,0,P|264:328|256:288,1,85,8|8,0:0|0:0,0:0:0:0:
220,156,50153,2,0,P|212:116|220:72,1,85,8|8,0:0|0:0,0:0:0:0:
356,48,50368,6,0,B|404:36|404:36|428:104|504:80,2,170,4|8|2,0:0|0:0|0:0,0:0:0:0:
312,140,50903,1,0,0:0:0:0:
380,240,51011,2,0,P|392:200|400:152,1,85,8|0,0:0|0:0,0:0:0:0:
220,156,51225,6,0,B|168:176|168:176|128:128|56:152,2,170,2|8|2,0:0|0:0|0:0,0:0:0:0:
312,140,51761,1,0,0:0:0:0:
276,304,51868,2,0,P|268:260|276:216,1,85,8|0,0:0|0:0,0:0:0:0:
464,220,52082,6,0,P|452:296|364:324,1,170,2|8,0:0|0:0,0:0:0:0:
276,304,52403,1,0,0:0:0:0:
192,244,52511,2,0,P|120:212|40:252,1,170,2|8,0:0|0:0,0:0:0:0:
60,348,52832,1,0,0:0:0:0:
42,249,52939,6,0,L|12:72,1,170,2|8,0:0|0:0,0:0:0:0:
124,128,53261,1,0,0:0:0:0:
192,244,53368,2,0,L|184:336,1,85,2|0,0:0|0:0,0:0:0:0:
60,348,53582,1,8,0:0:0:0:
60,348,53689,1,0,0:0:0:0:
184,328,53796,6,0,P|228:324|276:324,1,85,2|0,0:0|0:0,0:0:0:0:
270,203,54011,1,8,0:0:0:0:
270,203,54118,1,0,0:0:0:0:
394,183,54225,6,0,P|438:179|486:179,1,85,2|0,0:0|0:0,0:0:0:0:
444,292,54439,1,8,0:0:0:0:
444,292,54546,1,0,0:0:0:0:
344,360,54653,2,0,L|336:276,1,85
320,136,54868,2,0,P|240:124|188:188,2,170,0|2|8,0:0|0:0|0:0,0:0:0:0:
184,272,55511,6,0,P|120:232|120:144,1,170,4|8,0:0|0:0,0:0:0:0:
270,203,55832,1,8,0:0:0:0:
264,320,55939,2,0,P|232:352|184:364,1,85,2|0,0:0|0:0,0:0:0:0:
270,203,56153,2,0,P|312:208|348:236,1,85,8|8,0:0|0:0,0:0:0:0:
184,272,56368,5,4,0:0:0:0:
184,272,56582,1,0,0:0:0:0:
272,51,56796,2,0,P|304:127|271:203,1,170,8|0,0:0|0:0,0:0:0:0:
270,203,57225,5,4,0:0:0:0:
270,203,57653,1,4,0:0:0:0:
270,203,58082,1,4,0:0:0:0:
340,276,58189,2,0,P|416:312|488:272,1,170,2|0,0:0|0:0,0:0:0:0:
432,188,58511,2,0,P|424:144|424:104,1,85,2|0,0:0|0:0,0:0:0:0:
270,203,58725,6,8,B|208:252|152:204|152:204|112:232,2,170,2|2|2,0:0|0:0|0:0,0:0:0:0:
328,120,59261,1,0,0:0:0:0:
224,68,59368,2,0,P|212:108|208:156,1,85,8|0,0:0|0:0,0:0:0:0:
324,360,59582,2,0,P|336:320|340:272,1,85,2|0,0:0|0:0,0:0:0:0:
270,204,59796,5,8,0:0:0:0:
216,312,59903,2,0,P|142:349|70:313,1,170
112,188,60225,2,0,L|144:276,1,85,8|0,0:0|0:0,0:0:0:0:
180,104,60439,2,0,L|212:192,2,85,2|0|2,0:0|0:0|0:0,0:0:0:0:
260,268,60868,5,0,0:0:0:0:
260,268,61082,2,0,B|292:296|336:280|336:280|360:324|336:368,2,170,8|2|8,0:0|0:0|0:0,0:0:0:0:
304,176,61618,1,0,0:0:0:0:
309,163,61671,1,0,0:0:0:0:
314,151,61725,1,0,0:0:0:0:
319,138,61778,1,0,0:0:0:0:
322,125,61832,1,0,0:0:0:0:
325,111,61885,1,0,0:0:0:0:
327,98,61939,2,0,P|324:52|312:4,1,85,8|2,0:0|0:0,0:0:0:0:
200,108,62153,6,0,P|128:144|56:104,2,170,4|0|2,0:0|0:0|0:0,0:0:0:0:
444,32,62796,2,0,P|452:72|456:120,1,85,8|0,0:0|0:0,0:0:0:0:
392,312,63011,2,0,P|384:272|380:224,1,85,2|0,0:0|0:0,0:0:0:0:
332,72,63225,6,0,P|304:40|268:12,1,85,8|0,0:0|0:0,0:0:0:0:
114,110,63439,2,0,P|156:112|201:107,2,85,2|0|8,0:0|0:0|0:0,0:0:0:0:
114,110,63868,2,0,P|121:152|123:199,1,85,8|0,0:0|0:0,0:0:0:0:
247,312,64082,6,0,P|323:349|395:309,2,170,4|2|8,0:0|0:0|0:0,0:0:0:0:
251,209,64618,1,0,0:0:0:0:
352,204,64725,2,0,P|376:168|392:120,1,85,2|0,0:0|0:0,0:0:0:0:
204,112,64939,2,0,L|292:112,1,85,8|0,0:0|0:0,0:0:0:0:
352,204,65153,1,2,0:0:0:0:
251,209,65261,1,8,0:0:0:0:
248,312,65368,2,0,L|160:312,1,85,8|0,0:0|0:0,0:0:0:0:
136,156,65582,6,0,B|108:88|158:47|158:47|120:8,2,170,4|8|0,0:0|0:0|0:0,0:0:0:0:
251,209,66118,1,0,0:0:0:0:
352,112,66225,2,0,P|284:76|204:112,1,170,2|2,0:0|0:0,0:0:0:0:
24,232,66546,1,2,0:0:0:0:
24,232,66653,6,0,P|92:268|172:232,2,170,8|2|8,0:0|0:0|0:0,0:0:0:0:
80,104,67189,1,0,0:0:0:0:
80,104,67296,2,0,P|96:144|96:188,1,85,2|0,0:0|0:0,0:0:0:0:
200,336,67511,2,0,L|380:320,1,170,8|2,0:0|0:0,0:0:0:0:
324,228,67832,1,2,0:0:0:0:
424,244,67939,2,0,P|436:200|440:160,1,85,8|0,0:0|0:0,0:0:0:0:
368,28,68153,2,0,P|356:72|352:112,1,85,2|2,0:0|0:0,0:0:0:0:
324,228,68368,6,0,P|280:240|236:240,1,85,8|0,0:0|0:0,0:0:0:0:
80,104,68582,2,0,P|164:72|244:96,2,170,2|8|2,0:0|0:0|0:0,0:0:0:0:
36,196,69118,1,0,0:0:0:0:
152,320,69225,2,0,P|152:272|144:232,1,85,8|0,0:0|0:0,0:0:0:0:
36,196,69439,1,8,0:0:0:0:
36,196,69546,1,0,0:0:0:0:
144,236,69653,6,0,L|188:244|232:244,1,85,8|0,0:0|0:0,0:0:0:0:
408,124,69868,2,0,L|364:116|320:116,1,85,8|0,0:0|0:0,0:0:0:0:
352,236,70082,6,0,P|348:280|348:320,1,85,8|0,0:0|0:0,0:0:0:0:
200,136,70296,2,0,P|204:92|204:52,1,85,8|0,0:0|0:0,0:0:0:0:
56,44,70511,1,8,0:0:0:0:
36,196,70618,1,0,0:0:0:0:
144,236,70725,2,0,P|188:236|232:240,1,85,2|0,0:0|0:0,0:0:0:0:
316,124,70939,6,0,B|380:148|432:96|432:96|456:148,1,170,4|8,0:0|0:0,0:0:0:0:
352,236,71261,1,0,0:0:0:0:
416,336,71368,2,0,P|436:296|444:256,1,85,2|0,0:0|0:0,0:0:0:0:
256,272,71582,2,0,P|236:312|228:352,1,85,8|0,0:0|0:0,0:0:0:0:
108,356,71796,5,2,0:0:0:0:
144,236,71903,2,0,P|136:192|120:144,1,85,0|8,0:0|0:0,0:0:0:0:
36,196,72118,1,0,0:0:0:0:
8,292,72225,2,0,P|16:336|32:384,1,85,2|0,0:0|0:0,0:0:0:0:
180,308,72439,6,0,P|256:292|348:308,2,170,8|2|8,0:0|0:0|0:0,0:0:0:0:
108,236,72975,1,0,0:0:0:0:
196,188,73082,2,0,P|212:144|216:100,1,85,2|0,0:0|0:0,0:0:0:0:
92,24,73296,2,0,P|76:68|72:112,1,85,8|0,0:0|0:0,0:0:0:0:
108,236,73511,5,2,0:0:0:0:
196,188,73618,2,0,B|236:156|236:156|292:196|352:152,1,170
440,28,73939,2,0,P|424:68|416:116,1,85,2|0,0:0|0:0,0:0:0:0:
436,236,74153,2,0,P|428:277|412:317,2,85,8|0|2,0:0|0:0|0:0,0:0:0:0:
436,236,74582,1,8,0:0:0:0:
436,236,74796,2,0,P|376:192|292:224,1,170,2|8,0:0|0:0,0:0:0:0:
344,312,75118,1,0,0:0:0:0:
244,332,75225,6,0,P|160:362|100:318,2,170,2|8|2,0:0|0:0|0:0,0:0:0:0:
200,240,75761,1,0,0:0:0:0:
60,232,75868,2,2,P|24:156|64:88,2,170,4|0|8,0:0|0:0|0:0,0:0:0:0:
200,240,76403,1,0,0:0:0:0:
176,124,76511,2,0,P|136:140|100:164,1,85,2|0,0:0|0:0,0:0:0:0:
56,340,76725,2,0,P|96:324|132:300,1,85,8|0,0:0|0:0,0:0:0:0:
260,160,76939,6,0,P|294:136|334:120,1,85,2|0,0:0|0:0,0:0:0:0:
448,196,77153,2,0,P|413:219|373:235,1,85,8|0,0:0|0:0,0:0:0:0:
288,252,77368,1,8,0:0:0:0:
200,240,77475,1,8,0:0:0:0:
168,160,77582,1,8,0:0:0:0:
208,84,77689,1,8,0:0:0:0:
292,68,77796,5,0,0:0:0:0:
311,68,77867,1,0,0:0:0:0:
331,68,77938,1,0,0:0:0:0:
351,68,78010,1,0,0:0:0:0:
371,68,78081,1,0,0:0:0:0:
391,68,78153,1,0,0:0:0:0:
412,68,78225,2,0,P|468:108|446:197,1,170,4|0,0:0|0:0,0:0:0:0:
446,198,78653,6,0,P|400:192|364:200,1,85,2|2,0:0|0:0,0:0:0:0:
288,252,78868,1,0,0:0:0:0:
208,300,78975,2,0,P|161:306|125:298,2,85,2|0|0,0:0|0:0|0:0,0:0:0:0:
168,160,79296,2,0,P|96:128|16:164,2,170,4|2|8,0:0|0:0|0:0,0:0:0:0:
96,220,79832,1,0,0:0:0:0:
64,352,79939,2,0,P|100:332|124:296,1,85,2|8,0:0|0:0,0:0:0:0:
228,104,80153,2,0,P|192:124|168:160,1,85,0|8,0:0|0:0,0:0:0:0:
208,300,80368,6,0,L|292:300,1,85,2|0,0:0|0:0,0:0:0:0:
288,208,80582,2,0,L|372:208,1,85,8|0,0:0|0:0,0:0:0:0:
436,276,80796,2,0,P|448:320|448:360,1,85,2|0,0:0|0:0,0:0:0:0:
288,208,81011,2,0,P|276:164|276:124,1,85,8|0,0:0|0:0,0:0:0:0:
444,28,81225,6,0,P|488:96|444:172,1,170,4|8,0:0|0:0,0:0:0:0:
368,124,81546,1,0,0:0:0:0:
292,68,81653,2,0,P|220:36|156:88,1,170,2|8,0:0|0:0,0:0:0:0:
176,224,81975,2,0,P|112:276|40:244,1,170,2|0,0:0|0:0,0:0:0:0:
39,243,82296,2,0,P|48:288|44:328,1,85,8|0,0:0|0:0,0:0:0:0:
180,356,82511,2,0,P|224:347|264:351,1,85,2|0,0:0|0:0,0:0:0:0:
292,220,82725,2,0,P|283:175|287:135,1,85,8|0,0:0|0:0,0:0:0:0:
444,192,82939,6,0,P|476:256|444:344,1,170,2|8,0:0|0:0,0:0:0:0:
352,300,83261,1,0,0:0:0:0:
292,220,83368,2,0,P|248:216|204:220,1,85,2|0,0:0|0:0,0:0:0:0:
164,312,83582,2,0,P|120:316|76:312,1,85,8|0,0:0|0:0,0:0:0:0:
252,296,83796,6,0,P|248:336|252:380,1,85,2|0,0:0|0:0,0:0:0:0:
120,236,84011,2,0,P|123:195|119:151,1,85,8|0,0:0|0:0,0:0:0:0:
196,88,84225,2,0,B|232:76|244:40|244:40|344:40,1,170,2|8,0:0|0:0,0:0:0:0:
343,40,84546,1,0,0:0:0:0:
343,40,84653,6,0,P|332:80|328:128,1,85,4|0,0:0|0:0,0:0:0:0:
428,336,84868,2,0,P|439:296|443:248,1,85,8|0,0:0|0:0,0:0:0:0:
292,220,85082,2,0,L|112:220,1,170,2|8,0:0|0:0,0:0:0:0:
122,220,85403,1,0,0:0:0:0:
122,220,85511,6,0,B|104:184|120:140|120:140|104:96|52:96,2,170,2|8|2,0:0|0:0|0:0,0:0:0:0:
184,300,86046,1,0,0:0:0:0:
272,176,86153,2,0,P|228:168|188:176,1,85,8|0,0:0|0:0,0:0:0:0:
48,288,86368,6,0,P|52:328|48:372,1,85,2|0,0:0|0:0,0:0:0:0:
184,300,86582,2,0,P|224:296|268:300,1,85,4|0,0:0|0:0,0:0:0:0:
188,168,86796,2,0,P|184:127|188:84,1,85,2|0,0:0|0:0,0:0:0:0:
328,16,87011,2,0,P|332:56|328:100,1,85,4|0,0:0|0:0,0:0:0:0:
352,252,87225,6,0,P|408:304|484:264,2,170,2|4|2,0:0|0:0|0:0,0:0:0:0:
272,176,87761,1,0,0:0:0:0:
128,232,87868,2,0,P|84:236|44:232,1,85,8|0,0:0|0:0,0:0:0:0:
80,64,88082,6,0,P|160:36|240:64,1,170,4|8,0:0|0:0,0:0:0:0:
272,176,88403,1,0,0:0:0:0:
420,232,88511,2,0,B|452:196|452:196|408:140|456:80,2,170,2|2|8,0:0|0:0|0:0,0:0:0:0:
336,316,89046,1,8,0:0:0:0:
228,264,89153,1,8,0:0:0:0:
228,264,89207,1,0,0:0:0:0:
228,264,89261,1,0,0:0:0:0:
124,324,89368,2,0,P|80:328|40:324,1,85,8|0,0:0|0:0,0:0:0:0:
80,212,89582,6,0,B|64:172|64:172|112:172|120:116|120:116|64:116|64:116|88:72|88:72|80:40|80:40|100:12|100:12|136:44,1,340,4|2,0:0|0:0,0:0:0:0:
140,48,90225,1,2,0:0:0:0:
140,48,90439,1,2,0:0:0:0:
140,48,90653,1,2,0:0:0:0:
140,48,90868,6,0,P|186:57|226:49,1,85
316,92,91082,2,0,P|404:76|488:92,2,170,0|0|4,0:0|0:0|0:0,0:0:0:0:
256,196,91618,1,0,0:0:0:0:
356,300,91725,2,0,P|360:252|356:216,1,85,2|0,0:0|0:0,0:0:0:0:
212,120,91939,2,0,P|172:192|204:268,1,170,8|0,0:0|0:0,0:0:0:0:
203,267,92261,6,0,P|136:304|48:288,1,170,2|0,0:0|0:0,0:0:0:0:
40,132,92582,2,0,L|76:212,1,85,2|0,0:0|0:0,0:0:0:0:
212,120,92796,2,0,P|292:144|376:120,1,170,8|0,0:0|0:0,0:0:0:0:
373,121,93118,1,0,0:0:0:0:
373,121,93225,2,0,P|360:164|356:212,1,85,2|0,0:0|0:0,0:0:0:0:
440,344,93439,2,0,P|453:301|457:253,1,85,2|0,0:0|0:0,0:0:0:0:
320,300,93653,2,0,P|240:276|156:304,1,170,8|0,0:0|0:0,0:0:0:0:
52,120,93975,6,0,P|132:144|216:116,1,170,2|0,0:0|0:0,0:0:0:0:
312,16,94296,2,0,P|296:56|292:100,1,85,2|0,0:0|0:0,0:0:0:0:
396,276,94511,2,0,P|412:236|416:192,1,85,8|0,0:0|0:0,0:0:0:0:
208,236,94725,2,0,P|192:276|188:320,1,85,8|0,0:0|0:0,0:0:0:0:
104,200,94939,6,0,P|136:120|104:40,2,170,2|2|8,0:0|0:0|0:0,0:0:0:0:
28,360,95475,2,0,P|16:320|12:272,1,85,0|2,0:0|0:0,0:0:0:0:
148,324,95689,6,0,P|232:344|312:324,1,170,2|0,0:0|0:0,0:0:0:0:
452,356,96011,2,0,P|472:312|480:272,1,85,2|0,0:0|0:0,0:0:0:0:
444,136,96225,2,0,P|400:116|360:108,1,85,8|0,0:0|0:0,0:0:0:0:
220,104,96439,2,0,P|200:148|192:188,1,85,8|0,0:0|0:0,0:0:0:0:
324,248,96653,5,2,0:0:0:0:
324,248,96868,1,8,0:0:0:0:
220,104,97082,2,2,P|144:80|56:104,1,170,2|10,0:0|0:0,0:0:0:0:
104,192,97403,1,0,0:0:0:0:
44,276,97511,5,2,0:0:0:0:
44,276,97564,1,0,0:0:0:0:
44,276,97618,1,0,0:0:0:0:
144,280,97725,2,0,P|148:324|144:368,2,85,2|2|8,0:0|0:0|0:0,0:0:0:0:
296,60,98368,6,0,B|328:32|328:32|388:76|448:32,1,170,4|2,0:0|0:0,0:0:0:0:
445,33,98689,1,0,0:0:0:0:
445,33,98796,2,0,P|424:104|484:176,1,170,2|8,0:0|0:0,0:0:0:0:
384,272,99118,6,0,P|316:312|240:272,1,170,2|0,0:0|0:0,0:0:0:0:
196,144,99439,2,0,P|152:136|104:144,1,85,2|0,0:0|0:0,0:0:0:0:
36,268,99653,2,0,P|80:276|128:268,1,85,2|0,0:0|0:0,0:0:0:0:
312,232,99868,2,0,P|320:188|312:140,1,85,8|0,0:0|0:0,0:0:0:0:
132,0,100082,6,0,P|84:60|120:148,1,170,2|8,0:0|0:0,0:0:0:0:
208,240,100403,1,0,0:0:0:0:
128,352,100511,2,0,P|80:356|40:352,2,85,2|0|8,0:0|0:0|0:0,0:0:0:0:
260,320,100832,1,0,0:0:0:0:
260,320,100886,1,0,0:0:0:0:
260,320,100939,6,0,P|300:292|336:276,1,85,2|0,0:0|0:0,0:0:0:0:
512,312,101153,2,0,P|472:340|436:356,1,85,8|0,0:0|0:0,0:0:0:0:
400,160,101368,2,0,P|424:196|440:240,1,85,2|0,0:0|0:0,0:0:0:0:
372,56,101582,2,0,P|414:64|456:84,1,85,8|0,0:0|0:0,2:0:0:0:
304,192,101796,6,0,P|224:220|144:192,1,170,2|8,0:0|0:0,0:0:0:0:
104,100,102118,1,0,0:0:0:0:
146,193,102225,2,0,P|152:236|148:280,1,85
76,348,102439,1,8,0:0:0:0:
40,212,102546,6,0,L|4:44,1,170,2|0,0:0|0:0,0:0:0:0:
160,36,102868,2,0,P|204:32|248:36,1,85,8|0,0:0|0:0,0:0:0:0:
260,188,103082,2,0,P|304:192|348:188,1,85,2|0,0:0|0:0,0:0:0:0:
448,52,103296,6,0,P|412:124|452:200,2,170,4|2|2,0:0|0:0|0:0,0:0:0:0:
508,128,103832,1,0,0:0:0:0:
480,276,103939,2,0,P|436:280|396:260,1,85,2|0,0:0|0:0,0:0:0:0:
292,112,104153,2,0,P|325:140|340:182,1,85,2|0,0:0|0:0,0:0:0:0:
304,344,104368,6,0,P|300:300|320:260,1,85,2|0,0:0|0:0,0:0:0:0:
292,112,104582,2,0,P|263:145|221:160,1,85,2|0,0:0|0:0,0:0:0:0:
72,104,104796,2,0,P|116:100|156:120,1,85,2|0,0:0|0:0,0:0:0:0:
204,268,105011,2,0,P|170:239|155:197,1,85,2|0,0:0|0:0,0:0:0:0:
224,60,105225,6,0,P|300:28|368:72,1,170,2|2,0:0|0:0,0:0:0:0:
367,71,105493,1,0,0:0:0:0:
367,71,105546,1,0,0:0:0:0:
367,71,105600,1,0,0:0:0:0:
367,71,105653,2,0,P|376:116|392:152,1,85,2|0,0:0|0:0,0:0:0:0:
452,296,105868,2,0,P|412:280|368:272,1,85,2|2,0:0|0:0,0:0:0:0:
260,168,106082,6,0,P|224:192|196:224,1,85,2|2,0:0|0:0,0:0:0:0:
44,244,106296,2,0,P|84:260|128:268,1,85,2|2,0:0|0:0,0:0:0:0:
236,372,106510,2,0,P|272:348|300:316,2,85,2|2|2,0:0|0:0|0:0,0:0:0:0:
236,372,106832,1,4,0:0:0:0:
256,192,106886,12,0,116903,0:0:0:0:
