osu file format v12

[General]
AudioFilename: otome.mp3
AudioLeadIn: 1000
PreviewTime: 57225
Countdown: 0
SampleSet: Soft
StackLeniency: 0.7
Mode: 0
LetterboxInBreaks: 0
WidescreenStoryboard: 0

[Editor]
DistanceSpacing: 1.1
BeatDivisor: 2
GridSize: 4

[Metadata]
Title:Otome Gokoro 1000000%
TitleUnicode:Otome Gokoro 1000000%
Artist:AiRI
ArtistUnicode:AiRI
Creator:Laurier
Version:Easy
Source:Love-ressive
Tags:SakiK SMILE
BeatmapID:238045
BeatmapSetID:86462

[Difficulty]
HPDrainRate:2
CircleSize:3
OverallDifficulty:2
ApproachRate:3
SliderMultiplier:0.8
SliderTickRate:1

[Events]
//Background and Video events
Video,0,"otome.avi"
0,0,"love.jpg",0,0
//Break Periods
//Storyboard Layer 0 (Background)
//Storyboard Layer 1 (Fail)
//Storyboard Layer 2 (Pass)
//Storyboard Layer 3 (Foreground)
//Storyboard Sound Samples
//Background Colour Transformations
3,100,163,162,255

[TimingPoints]
654,428.571428571429,4,2,1,60,1,0
7082,-100,4,2,2,60,0,0
7296,-100,4,2,1,60,0,0
56796,-100,4,2,2,60,0,0
57011,-100,4,2,1,60,0,0
70511,-100,4,2,2,60,0,0
70725,-100,4,2,1,60,0,0
108654,-100,4,2,1,50,0,0
110368,-100,4,2,1,40,0,0
112082,-100,4,2,1,30,0,0
113796,-100,4,2,1,20,0,0
115511,-100,4,2,1,10,0,0
116796,-100,4,2,1,50,0,0

[Colours]
Combo1 : 255,255,191
Combo2 : 185,255,185
Combo3 : 202,226,255
Combo4 : 255,206,255

[HitObjects]
60,228,654,2,0,P|172:268|256:192,1,240,2|2,0:0|0:0,0:0:0:0:
272,108,2368,2,0,P|354:35|466:75,1,240,2|2,0:0|0:0,0:0:0:0:
480,160,4082,5,2,0:0:0:0:
480,252,4511,1,2,0:0:0:0:
480,340,4939,2,0,P|396:348|312:324,1,160,2|4,0:0|0:0,0:0:0:0:
256,216,6439,2,0,L|256:92,1,120,4|8,0:0|0:0,0:0:0:0:
172,64,7511,6,0,P|96:52|36:108,1,160,4|2,0:0|0:0,0:0:0:0:
52,192,8796,1,8,0:0:0:0:
124,140,9225,2,0,P|172:240|104:340,1,240,2|8,0:0|0:0,0:0:0:0:
280,360,11368,5,8,0:0:0:0:
352,308,11796,2,0,P|412:296|472:308,1,120,2|4,0:0|0:0,0:0:0:0:
492,176,13082,1,8,0:0:0:0:
404,192,13511,2,0,L|308:192,1,80,2|8,0:0|0:0,0:0:0:0:
256,136,14368,6,0,P|248:88|256:52,1,80,4|8,0:0|0:0,0:0:0:0:
172,32,15225,2,0,P|92:28|48:96,1,160,2|2,0:0|0:0,0:0:0:0:
100,160,16511,1,8,0:0:0:0:
172,212,16939,2,0,L|164:296,2,80,2|8|2,0:0|0:0|0:0,0:0:0:0:
256,184,18225,5,8,0:0:0:0:
328,236,18654,2,0,L|424:228,1,80,2|8,0:0|0:0,0:0:0:0:
384,144,19511,2,0,L|428:76,2,80,2|2|2,0:0|0:0|0:0,0:0:0:0:
316,88,20796,6,0,L|232:88,1,80
148,80,21654,2,0,P|76:56|-4:96,1,160,8|8,0:0|0:0,0:0:0:0:
52,164,22939,6,0,L|48:256,1,80,4|8,0:0|0:0,0:0:0:0:
136,260,23796,2,0,L|132:352,1,80,2|8,0:0|0:0,0:0:0:0:
220,352,24654,2,0,P|336:360|392:256,1,240,0|8,0:0|0:0,0:0:0:0:
336,196,26368,6,0,P|332:152|336:116,1,80,2|8,0:0|0:0,0:0:0:0:
300,36,27225,2,0,P|256:40|220:36,1,80,2|8,0:0|0:0,0:0:0:0:
132,36,28082,2,0,P|76:132|136:236,1,240,2|8,0:0|0:0,0:0:0:0:
212,192,29796,6,0,L|296:184,2,80,4|8|2,0:0|0:0|0:0,0:0:0:0:
208,280,31082,1,8,0:0:0:0:
296,276,31511,2,0,P|300:316|296:356,2,80,2|8|2,0:0|0:0|0:0,0:0:0:0:
368,228,32796,1,8,0:0:0:0:
444,184,33225,6,0,P|440:140|444:96,1,80,2|8,0:0|0:0,0:0:0:0:
368,60,34082,1,0,0:0:0:0:
284,40,34511,2,0,P|248:52|208:80,1,80,8|2,0:0|0:0,0:0:0:0:
260,148,35368,2,0,P|190:184|118:156,1,160,8|8,0:0|0:0,0:0:0:0:
40,192,36654,6,0,L|52:280,1,80,2|8,0:0|0:0,0:0:0:0:
128,316,37511,2,0,L|208:336,1,80,0|8,0:0|0:0,0:0:0:0:
256,264,38368,2,0,L|340:244,2,80,2|8|2,0:0|0:0|0:0,0:0:0:0:
124,148,40082,6,0,P|120:104|124:64,1,80,2|8,0:0|0:0,0:0:0:0:
203,32,40939,2,0,P|207:76|203:116,1,80,2|8,0:0|0:0,0:0:0:0:
248,188,41796,2,0,P|360:184|404:76,1,240,2|8,0:0|0:0,0:0:0:0:
328,36,43511,5,4,0:0:0:0:
268,100,43939,1,8,0:0:0:0:
208,36,44368,2,0,L|128:36,1,80,8|8,0:0|0:0,0:0:0:0:
60,92,45225,6,0,P|4:192|64:296,1,240,8|8,0:0|0:0,0:0:0:0:
144,264,46939,1,8,0:0:0:0:
196,192,47368,2,0,L|280:192,2,80,8|8|8,0:0|0:0|0:0,0:0:0:0:
144,120,48654,5,4,0:0:0:0:
212,64,49082,1,4,0:0:0:0:
300,64,49511,1,4,0:0:0:0:
372,120,49939,1,4,0:0:0:0:
372,208,50368,6,0,B|372:248|412:272|412:272|372:300|372:344,1,160,4|2,0:0|0:0,0:0:0:0:
288,360,51654,1,8,0:0:0:0:
256,280,52082,2,0,P|156:224|56:296,1,240,2|8,0:0|0:0,0:0:0:0:
116,356,53796,5,4,0:0:0:0:
204,356,54225,1,8,0:0:0:0:
160,280,54654,2,0,L|160:112,1,160,2|4,0:0|0:0,0:0:0:0:
224,56,55939,5,8,0:0:0:0:
288,116,56368,2,0,L|368:116,1,80,2|8,0:0|0:0,0:0:0:0:
420,188,57225,6,0,P|408:228|404:268,1,80,4|8,0:0|0:0,0:0:0:0:
320,296,58082,2,0,P|244:328|168:308,1,160,2|0,0:0|0:0,0:0:0:0:
140,228,59368,1,8,0:0:0:0:
228,236,59796,2,0,L|244:156,1,80,2|8,0:0|0:0,0:0:0:0:
108,44,61082,2,0,L|92:124,1,80,2|8,0:0|0:0,0:0:0:0:
40,244,62154,6,0,P|56:304|104:340,1,120,4|8,0:0|0:0,0:0:0:0:
176,292,63225,2,0,L|256:276,1,80,2|8,0:0|0:0,0:0:0:0:
332,236,64082,6,0,P|384:132|328:28,1,240,4|8,0:0|0:0,0:0:0:0:
256,76,65796,2,0,P|216:84|176:76,1,80,2|8,0:0|0:0,0:0:0:0:
100,32,66654,1,2,0:0:0:0:
64,112,67082,2,0,P|60:152|64:200,1,80,8|4,0:0|0:0,0:0:0:0:
108,268,67939,5,8,0:0:0:0:
172,208,68368,2,0,P|280:168|392:212,1,240,2|8,0:0|0:0,0:0:0:0:
356,292,70082,2,0,P|360:336|356:372,1,80,2|8,0:0|0:0,0:0:0:0:
268,356,70939,6,0,L|180:356,1,80,4|8,0:0|0:0,0:0:0:0:
180,268,71796,2,0,L|16:268,1,160,2|2,0:0|0:0,0:0:0:0:
4,180,73082,1,8,0:0:0:0:
68,120,73511,2,0,P|80:72|80:24,2,80,2|8|2,0:0|0:0|0:0,0:0:0:0:
144,164,74796,5,8,0:0:0:0:
184,84,75225,2,0,L|320:76,1,120,2|4,0:0|0:0,0:0:0:0:
372,192,76511,1,8,0:0:0:0:
296,232,76939,2,0,P|276:272|268:308,1,80,2|8,0:0|0:0,0:0:0:0:
188,340,77796,6,0,L|104:332,2,80,4|8|2,0:0|0:0|0:0,0:0:0:0:
104,240,79296,2,0,P|80:136|144:76,1,200,4|0,0:0|0:0,0:0:0:0:
200,140,80796,1,8,0:0:0:0:
272,192,81225,6,0,L|356:192,1,80,4|8,0:0|0:0,0:0:0:0:
424,144,82082,2,0,P|432:104|432:64,2,80,2|8|2,0:0|0:0|0:0,0:0:0:0:
428,232,83368,1,8,0:0:0:0:
348,272,83796,2,0,L|188:272,1,160,2|4,0:0|0:0,0:0:0:0:
156,192,85082,5,8,0:0:0:0:
116,112,85511,2,0,L|96:72|76:32,2,80,2|8|2,0:0|0:0|0:0,0:0:0:0:
64,180,86796,2,0,P|32:288|136:344,1,240,8|4,0:0|0:0,0:0:0:0:
192,284,88511,2,0,P|272:236|364:284,1,200,2|4,0:0|0:0,0:0:0:0:
440,320,90011,6,0,P|456:256|448:196,1,120,2|2,0:0|0:0,0:0:0:0:
372,164,91082,2,0,P|368:120|372:80,1,80,0|4,0:0|0:0,0:0:0:0:
296,40,91939,5,8,0:0:0:0:
228,96,92368,2,0,L|144:88,1,80,2|8,0:0|0:0,0:0:0:0:
96,160,93225,2,0,L|12:152,2,80,2|8|2,0:0|0:0|0:0,0:0:0:0:
164,216,94511,1,8,0:0:0:0:
224,280,94939,6,0,L|308:272,1,80,2|8,0:0|0:0,0:0:0:0:
340,192,95796,2,0,L|424:184,1,80,2|8,0:0|0:0,0:0:0:0:
456,104,96654,5,2,0:0:0:0:
420,24,97082,1,8,0:0:0:0:
344,68,97511,2,0,L|264:68,1,80,2|8,0:0|0:0,0:0:0:0:
204,132,98368,6,0,L|124:132,1,80,4|8,0:0|0:0,0:0:0:0:
52,184,99225,2,0,P|24:256|76:316,1,160,2|2,0:0|0:0,0:0:0:0:
148,272,100511,1,8,0:0:0:0:
228,312,100939,2,0,L|308:312,1,80,2|8,0:0|0:0,0:0:0:0:
344,232,101796,6,0,P|356:192|376:156,1,80,2|8,0:0|0:0,0:0:0:0:
464,156,102654,2,0,P|452:96|412:44,1,120,2|4,0:0|0:0,0:0:0:0:
336,76,103725,6,0,P|296:80|248:76,1,80,2|2,0:0|0:0,0:0:0:0:
216,60,104368,2,0,P|176:56|128:60,1,80,2|2,0:0|0:0,0:0:0:0:
104,140,105225,2,0,P|76:264|196:328,1,280,2|2,0:0|0:0,0:0:0:0:
256,192,106939,12,0,116796,0:0:0:0:
