osu file format v13

[General]
AudioFilename: AiRI - Dash out!! (Minamijuujisei Renka Featured Song).mp3
AudioLeadIn: 0
PreviewTime: 64742
Countdown: 0
SampleSet: None
StackLeniency: 0.7
Mode: 0
LetterboxInBreaks: 0
WidescreenStoryboard: 0

[Editor]
Bookmarks: 135479,143690,161848
DistanceSpacing: 0.8
BeatDivisor: 4
GridSize: 4
TimelineZoom: 2.3

[Metadata]
Title:Dash out!!
TitleUnicode:Dash out!!
Artist:AiRI
ArtistUnicode:AiRI
Creator:Laurier
Version:Letlit
Source:Minamijuujisei Renka
Tags:
BeatmapID:573135
BeatmapSetID:249281

[Difficulty]
HPDrainRate:7
CircleSize:4
OverallDifficulty:7
ApproachRate:9
SliderMultiplier:1.8
SliderTickRate:2

[Events]
//Background and Video events
0,0,"bg.jpg",0,0
//Break Periods
//Storyboard Layer 0 (Background)
//Storyboard Layer 1 (Fail)
//Storyboard Layer 2 (Pass)
//Storyboard Layer 3 (Foreground)
//Storyboard Sound Samples

[TimingPoints]
-152,315.789473684211,4,2,1,60,1,0
1111,-125,4,2,1,60,0,0
2848,-125,4,2,2,40,0,0
3163,-125,4,2,1,60,0,0
4742,-100,4,2,1,60,0,0
5690,-100,4,2,1,40,0,0
6163,-100,4,2,1,60,0,0
9953,-166.666666666667,4,2,1,60,0,0
11216,-100,4,2,1,60,0,0
15795,-100,4,2,1,40,0,0
16269,-100,4,2,1,60,0,0
22426,-100,4,2,2,30,0,0
22584,-100,4,2,1,60,0,0
23532,-90.9090909090909,4,2,1,60,0,0
23848,-100,4,2,1,60,0,0
32848,-100,4,2,2,60,0,0
33005,-100,4,2,1,60,0,0
33163,-100,4,2,2,60,0,0
33321,-100,4,2,1,60,0,0
42321,-100,4,2,1,40,0,0
42795,-100,4,2,1,60,0,0
64742,-166.666666666667,4,2,1,40,0,0
65532,-100,4,2,1,70,0,0
74848,-100,4,2,1,40,0,0
75637,-100,4,2,1,70,0,0
80216,-100,4,2,1,40,0,0
80690,-100,4,2,1,70,0,0
86216,-100,4,2,1,50,0,0
86532,-100,4,2,1,70,0,0
86848,-100,4,2,1,50,0,0
87163,-100,4,2,1,70,0,0
87953,-83.3333333333333,4,2,1,60,0,0
88269,-100,4,2,1,60,0,0
97269,-100,4,2,2,60,0,0
97426,-100,4,2,1,60,0,0
97584,-100,4,2,2,60,0,0
97742,-100,4,2,1,60,0,0
102321,-125,4,2,1,60,0,0
102795,-100,4,2,1,60,0,0
106742,-100,4,2,1,40,0,0
107216,-100,4,2,1,60,0,0
124269,-100,4,2,1,40,0,0
124900,-100,4,2,1,60,0,0
129163,-166.666666666667,4,2,1,40,0,0
129953,-100,4,2,1,70,0,0
150163,-100,4,2,1,60,0,0
172584,-142.857142857143,4,2,1,40,0,0
172900,-100,4,2,1,70,0,0
182216,-100,4,2,1,40,0,0
183005,-100,4,2,1,70,0,0
196742,-100,4,2,1,40,0,0
197216,-100,4,2,1,20,0,0
197690,-100,4,2,1,70,0,0
200058,-100,4,2,1,60,0,0
204637,-100,4,2,2,60,0,0
204795,-100,4,2,1,60,0,0
204953,-100,4,2,2,60,0,0
205111,-100,4,2,1,60,0,0
209690,-100,4,2,2,60,0,0
209848,-100,4,2,1,60,0,0
210005,-100,4,2,2,60,0,0
210163,-100,4,2,1,60,0,0
213242,-100,4,2,1,30,0,0
215848,-100,4,2,1,40,0,0

[Colours]
Combo1 : 255,236,176
Combo2 : 166,255,166
Combo3 : 179,213,255
Combo4 : 250,163,175

[HitObjects]
86,106,1111,6,0,B|119:125|160:78|160:78|168:137|202:142|202:142|199:168|207:193,1,216,6|0,0:0|0:0,0:0:0:0:
241,290,1742,1,0,0:0:0:0:
286,191,1900,1,0,0:0:0:0:
278,298,2058,1,8,0:0:0:0:
160,382,2216,6,0,P|128:317|133:246,1,144,6|0,0:0|0:0,0:0:0:0:
206,189,2690,1,0,0:0:0:0:
278,298,2848,2,0,L|388:285,1,108,8|0,0:0|0:0,0:0:0:0:
428,280,3163,1,8,0:0:0:0:
286,191,3321,1,8,0:0:0:0:
476,109,3479,1,8,0:0:0:0:
429,281,3637,5,6,0:0:0:0:
374,19,3795,1,6,0:0:0:0:
379,8,4269,1,6,0:0:0:0:
286,191,4426,1,6,0:0:0:0:
483,104,4742,6,0,P|396:99|293:93,1,180,6|8,0:0|0:0,0:0:0:0:
114,44,5216,1,8,0:0:0:0:
193,141,5374,1,8,0:0:0:0:
213,0,5532,1,8,0:0:0:0:
46,4,5690,1,2,0:0:0:0:
37,24,5768,1,2,0:0:0:0:
34,46,5847,1,2,0:0:0:0:
37,68,5926,1,2,0:0:0:0:
47,89,6005,1,2,0:0:0:0:
62,105,6084,1,2,0:0:0:0:
81,117,6163,6,0,L|60:253,1,135,6|0,0:0|0:0,0:0:0:0:
85,309,6479,2,0,L|100:213,1,90,8|0,0:0|0:0,0:0:0:0:
114,44,6795,1,2,0:0:0:0:
193,141,6953,2,0,L|237:162,1,45,2|0,0:0|0:0,0:0:0:0:
312,178,7111,2,0,P|347:150|372:113,1,90,8|0,0:0|0:0,0:0:0:0:
413,13,7426,5,2,0:0:0:0:
469,154,7584,2,0,L|476:207,1,45,2|0,0:0|0:0,0:0:0:0:
471,276,7742,2,0,L|448:369,1,90,8|8,0:0|0:0,0:0:0:0:
245,291,8058,1,2,0:0:0:0:
383,226,8216,1,2,0:0:0:0:
279,360,8374,2,0,P|213:359|170:310,1,135,8|0,0:0|0:0,0:0:0:0:
154,234,8690,5,8,0:0:0:0:
24,316,8848,1,2,0:0:0:0:
77,83,9005,1,2,0:0:0:0:
65,217,9163,1,2,0:0:0:0:
65,217,9242,1,0,0:0:0:0:
65,217,9321,2,0,P|101:227|160:233,1,90,2|0,0:0|0:0,0:0:0:0:
368,314,9637,2,0,P|378:278|384:219,1,90,8|0,0:0|0:0,0:0:0:0:
259,38,9953,5,6,0:0:0:0:
259,38,11216,5,6,0:0:0:0:
175,177,11374,1,8,0:0:0:0:
328,296,11532,1,2,0:0:0:0:
277,142,11690,1,8,0:0:0:0:
149,316,11848,1,2,0:0:0:0:
149,316,12005,1,8,0:0:0:0:
283,225,12163,1,2,0:0:0:0:
192,90,12321,1,8,0:0:0:0:
246,342,12479,5,2,0:0:0:0:
175,177,12637,1,8,0:0:0:0:
392,191,12795,1,2,0:0:0:0:
283,225,12953,1,8,0:0:0:0:
283,225,13032,1,0,0:0:0:0:
283,225,13111,1,2,0:0:0:0:
378,93,13269,1,8,0:0:0:0:
460,244,13426,2,0,P|423:267|378:273,1,90,2|8,0:0|0:0,0:0:0:0:
175,177,13742,5,6,0:0:0:0:
246,342,13900,1,8,0:0:0:0:
314,147,14058,1,2,0:0:0:0:
199,262,14216,1,8,0:0:0:0:
241,70,14374,1,2,0:0:0:0:
282,224,14532,1,8,0:0:0:0:
266,62,14690,1,2,0:0:0:0:
114,120,14848,1,8,0:0:0:0:
114,120,14926,1,0,0:0:0:0:
113,120,15005,6,0,P|96:161|97:205,1,90,6|8,0:0|0:0,0:0:0:0:
183,347,15321,2,0,P|200:305|199:261,1,90,2|8,0:0|0:0,0:0:0:0:
175,177,15558,1,0,0:0:0:0:
175,177,15637,1,0,0:0:0:0:
310,329,15795,1,8,0:0:0:0:
334,339,15873,1,8,0:0:0:0:
361,342,15952,1,8,0:0:0:0:
388,340,16031,1,8,0:0:0:0:
413,331,16110,1,8,0:0:0:0:
436,316,16190,1,8,0:0:0:0:
454,297,16269,6,0,P|459:229|468:162,1,135,6|0,0:0|0:0,0:0:0:0:
504,95,16584,1,8,0:0:0:0:
372,218,16742,1,8,0:0:0:0:
379,3,16900,2,0,P|392:68|394:136,1,135,2|0,0:0|0:0,0:0:0:0:
372,218,17216,2,0,P|330:229|283:233,1,90,8|0,0:0|0:0,0:0:0:0:
91,195,17532,5,8,0:0:0:0:
209,59,17690,1,8,0:0:0:0:
209,59,17769,1,8,0:0:0:0:
209,59,17848,1,2,0:0:0:0:
198,331,18005,2,0,L|189:196,1,135,6|0,0:0|0:0,0:0:0:0:
184,150,18321,1,8,0:0:0:0:
102,286,18479,1,8,0:0:0:0:
294,215,18637,6,0,P|382:213|446:154,1,180,6|2,0:0|0:0,0:0:0:0:
463,112,19032,1,0,0:0:0:0:
463,112,19111,1,8,0:0:0:0:
356,34,19269,1,0,0:0:0:0:
356,34,19348,1,0,0:0:0:0:
356,34,19426,2,0,P|342:74|340:126,1,90,8|2,0:0|0:0,0:0:0:0:
372,218,19742,1,0,0:0:0:0:
471,367,19900,6,0,P|382:350|293:357,1,180,6|8,0:0|0:0,0:0:0:0:
293,357,20295,1,8,0:0:0:0:
293,357,20374,1,8,0:0:0:0:
372,218,20532,1,8,0:0:0:0:
372,218,20611,1,8,0:0:0:0:
372,218,20690,1,8,0:0:0:0:
163,162,20848,1,8,0:0:0:0:
269,263,21005,1,8,0:0:0:0:
269,263,21084,1,8,0:0:0:0:
269,263,21163,1,8,0:0:0:0:
269,263,21242,1,8,0:0:0:0:
269,263,21321,5,6,0:0:0:0:
266,66,21479,1,8,0:0:0:0:
463,191,21637,1,8,0:0:0:0:
463,191,21953,1,8,0:0:0:0:
291,158,22111,1,8,0:0:0:0:
426,24,22269,2,0,P|424:68|419:113,1,90,8|8,0:0|0:0,0:0:0:0:
366,285,22584,5,2,0:0:0:0:
291,158,22742,1,8,0:0:0:0:
224,328,22900,1,8,0:0:0:0:
131,104,23058,1,8,0:0:0:0:
17,334,23216,1,2,0:0:0:0:
99,215,23374,1,0,0:0:0:0:
224,327,23532,2,0,P|299:312|375:279,1,148.50000453186,4|0,0:0|0:0,0:0:0:0:
429,233,23848,5,6,0:0:0:0:
291,158,24005,1,0,0:0:0:0:
424,31,24163,2,0,P|423:78|417:132,1,90,8|0,0:0|0:0,0:0:0:0:
301,311,24479,1,2,0:0:0:0:
258,154,24637,1,2,0:0:0:0:
428,233,24795,2,0,P|384:231|339:226,1,90,8|2,0:0|0:0,0:0:0:0:
295,68,25111,6,0,P|250:69|205:74,1,90,8|2,0:0|0:0,0:0:0:0:
46,229,25426,2,0,P|90:233|135:235,1,90,8|2,0:0|0:0,0:0:0:0:
301,311,25742,2,0,B|320:272|312:208|312:208|336:224,1,135,8|0,0:0|0:0,0:0:0:0:
428,232,26058,2,0,P|436:188|440:136,1,90,8|2,0:0|0:0,0:0:0:0:
303,23,26374,6,0,P|295:67|291:119,1,90,6|2,0:0|0:0,0:0:0:0:
301,311,26690,2,0,P|257:303|205:299,1,90,8|2,0:0|0:0,0:0:0:0:
0,190,27005,2,0,P|66:176|132:166,1,135,12|0,0:0|0:0,0:0:0:0:
214,154,27321,1,8,0:0:0:0:
301,311,27479,6,0,P|368:304|434:289,1,135,6|0,0:0|0:0,0:0:0:0:
503,244,27795,1,2,0:0:0:0:
361,164,27953,1,8,0:0:0:0:
495,43,28111,1,2,0:0:0:0:
427,209,28269,1,8,0:0:0:0:
283,82,28426,1,2,0:0:0:0:
373,33,28584,1,8,0:0:0:0:
382,66,28662,1,8,0:0:0:0:
382,100,28741,1,8,0:0:0:0:
375,133,28820,1,8,0:0:0:0:
360,163,28900,6,0,P|321:187|278:198,1,90,6|2,0:0|0:0,0:0:0:0:
102,154,29216,1,8,0:0:0:0:
209,298,29374,1,2,0:0:0:0:
283,82,29532,1,8,0:0:0:0:
179,206,29690,1,2,0:0:0:0:
283,365,29848,2,0,P|295:321|297:277,1,90,8|2,0:0|0:0,0:0:0:0:
371,96,30163,6,0,P|327:83|283:81,1,90,8|2,0:0|0:0,0:0:0:0:
103,154,30479,1,8,0:0:0:0:
184,14,30637,1,2,0:0:0:0:
209,298,30795,1,8,0:0:0:0:
252,141,30953,1,2,0:0:0:0:
46,97,31111,2,0,P|27:138|29:183,1,90,8|2,0:0|0:0,0:0:0:0:
167,284,31426,6,0,L|217:300,1,45,6|0,0:0|0:0,0:0:0:0:
302,329,31584,2,0,P|326:323|352:310,1,45
409,263,31742,2,0,P|453:258|497:264,1,90,8|2,0:0|0:0,0:0:0:0:
497,264,32058,1,12,0:0:0:0:
340,139,32216,2,0,P|295:146|251:140,1,90,2|8,0:0|0:0,0:0:0:0:
45,97,32532,6,0,B|93:139|72:217|72:217|94:191|130:191,1,180,6|8,0:0|0:0,0:0:0:0:
252,140,33005,1,8,0:0:0:0:
217,251,33163,1,8,0:0:0:0:
115,192,33321,1,8,0:0:0:0:
232,50,33479,1,8,0:0:0:0:
217,251,33637,1,8,0:0:0:0:
217,251,33716,1,8,0:0:0:0:
217,251,33795,1,8,0:0:0:0:
169,114,33953,5,8,0:0:0:0:
339,111,34111,2,0,L|324:205,1,90,6|0,0:0|0:0,0:0:0:0:
231,384,34426,2,0,L|216:235,1,135,6|0,0:0|0:0,0:0:0:0:
211,209,34742,1,2,0:0:0:0:
130,348,34900,1,8,0:0:0:0:
130,348,34979,1,8,0:0:0:0:
130,348,35058,1,8,0:0:0:0:
317,318,35216,6,0,P|382:306|438:341,1,135,6|0,0:0|0:0,0:0:0:0:
461,375,35532,1,2,0:0:0:0:
512,241,35690,1,0,0:0:0:0:
371,198,35848,2,0,P|315:233|250:221,1,135,2|0,0:0|0:0,0:0:0:0:
211,209,36163,1,2,0:0:0:0:
301,96,36321,1,0,0:0:0:0:
448,179,36479,6,0,P|441:227|417:262,1,90,2|0,0:0|0:0,0:0:0:0:
278,255,36795,2,0,P|239:283|197:291,1,90,2|0,0:0|0:0,0:0:0:0:
24,242,37111,1,2,0:0:0:0:
24,242,37426,1,2,0:0:0:0:
113,355,37584,1,0,0:0:0:0:
211,209,37742,6,0,B|206:164|226:116|226:116|191:135,1,135,2|0,0:0|0:0,0:0:0:0:
118,142,38058,2,0,L|23:129,1,90,2|0,0:0|0:0,0:0:0:0:
210,209,38374,1,2,0:0:0:0:
118,142,38532,1,0,0:0:0:0:
193,19,38690,2,0,P|236:28|281:31,1,90,2|0,0:0|0:0,0:0:0:0:
464,131,39005,6,0,P|375:126|297:169,1,180,2|2,0:0|0:0,0:0:0:0:
248,285,39479,1,0,0:0:0:0:
278,384,39637,2,0,P|306:324|297:258,1,135,2|0,0:0|0:0,0:0:0:0:
247,285,39953,2,0,P|204:294|160:284,1,90,2|0,0:0|0:0,0:0:0:0:
51,111,40269,6,0,P|90:90|135:86,1,90,6|0,0:0|0:0,0:0:0:0:
290,12,40584,2,0,P|332:25|367:54,1,90,8|0,0:0|0:0,0:0:0:0:
408,174,40900,1,2,0:0:0:0:
294,310,41058,2,0,L|296:158,1,135,8|0,0:0|0:0,0:0:0:0:
298,101,41374,5,6,0:0:0:0:
405,288,41690,1,6,0:0:0:0:
297,101,42005,2,0,P|254:126|139:64,1,180,2|8,0:0|0:0,0:0:0:0:
144,77,42400,1,8,0:0:0:0:
144,77,42479,1,8,0:0:0:0:
144,77,42558,1,8,0:0:0:0:
144,77,42637,1,8,0:0:0:0:
144,77,42716,1,8,0:0:0:0:
144,77,42795,6,0,P|131:120|126:164,1,90,6|0,0:0|0:0,0:0:0:0:
181,362,43111,1,8,0:0:0:0:
81,270,43269,1,0,0:0:0:0:
306,194,43426,1,2,0:0:0:0:
197,257,43584,1,2,0:0:0:0:
256,30,43742,1,8,0:0:0:0:
395,168,43900,6,0,P|383:233|334:278,1,135,6|0,0:0|0:0,0:0:0:0:
266,304,44216,1,2,0:0:0:0:
81,270,44374,2,0,L|81:173,1,90,8|0,0:0|0:0,0:0:0:0:
306,194,44690,1,2,0:0:0:0:
196,336,44848,1,2,0:0:0:0:
149,98,45005,1,8,0:0:0:0:
149,98,45084,1,8,0:0:0:0:
149,98,45163,1,8,0:0:0:0:
160,252,45321,6,0,P|226:253|283:217,1,135,6|0,0:0|0:0,0:0:0:0:
306,194,45637,1,2,0:0:0:0:
149,98,45795,1,8,0:0:0:0:
310,19,45953,2,0,P|376:14|432:49,1,135,2|0,0:0|0:0,0:0:0:0:
458,74,46269,1,2,0:0:0:0:
306,194,46426,1,8,0:0:0:0:
468,323,46584,5,2,0:0:0:0:
420,177,46742,2,0,L|386:269,1,90,8|2,0:0|0:0,0:0:0:0:
458,74,47058,1,0,0:0:0:0:
390,262,47216,2,0,L|356:354,1,90,2|0,0:0|0:0,0:0:0:0:
306,194,47532,1,2,0:0:0:0:
360,346,47690,1,8,0:0:0:0:
490,236,47848,6,0,P|500:193|503:148,1,90,2|0,0:0|0:0,0:0:0:0:
378,15,48163,2,0,P|367:58|364:103,1,90,2|8,0:0|0:0,0:0:0:0:
392,261,48479,1,2,0:0:0:0:
306,194,48637,2,0,L|208:190,1,90,0|2,0:0|0:0,0:0:0:0:
365,104,48953,1,0,0:0:0:0:
392,261,49111,6,0,B|354:285|345:326|345:326|306:315|278:335|278:335|265:322|242:320,1,180,2|2,0:0|0:0,0:0:0:0:
83,364,49584,1,8,0:0:0:0:
170,260,49742,2,0,P|177:210|182:164,1,90
57,3,50058,2,0,P|50:53|45:99,1,90,8|0,0:0|0:0,0:0:0:0:
124,321,50374,6,0,P|188:332|239:292,1,135,6|0,0:0|0:0,0:0:0:0:
260,219,50690,2,0,P|297:243|312:284,1,90,8|0,0:0|0:0,0:0:0:0:
411,192,51005,1,2,0:0:0:0:
310,52,51163,2,0,P|269:68|224:74,1,90,8|0,0:0|0:0,0:0:0:0:
24,23,51479,6,0,P|41:89|43:156,1,135,2|0,0:0|0:0,0:0:0:0:
121,126,51795,2,0,P|120:171|106:214,1,90,2|0,0:0|0:0,0:0:0:0:
21,364,52111,2,0,B|87:347|161:342|161:342|126:301,1,180,6|8,0:0|0:0,0:0:0:0:
45,157,52584,1,8,0:0:0:0:
4,266,52742,1,8,0:0:0:0:
161,343,52900,6,0,B|263:324|263:324|232:300,1,135,6|0,0:0|0:0,0:0:0:0:
187,248,53216,2,0,P|183:225|185:198,1,45,8|0,0:0|0:0,0:0:0:0:
236,137,53374,2,0,P|248:120|268:106,1,45
341,129,53532,2,0,P|385:134|428:122,1,90,2|2,0:0|0:0,0:0:0:0:
512,11,53848,1,8,0:0:0:0:
365,33,54005,6,0,P|277:46|203:0,1,180,6|2,0:0|0:0,0:0:0:0:
85,84,54479,2,0,P|63:124|52:168,1,90,8|0,0:0|0:0,0:0:0:0:
121,339,54795,1,2,0:0:0:0:
124,343,54874,1,2,0:0:0:0:
126,346,54953,1,2,0:0:0:0:
183,241,55111,1,2,0:0:0:0:
186,245,55190,1,2,0:0:0:0:
188,248,55269,1,2,0:0:0:0:
303,335,55426,6,0,B|354:354|447:315|447:315|414:297,1,180,6|0,0:0|0:0,0:0:0:0:
419,299,55900,1,2,0:0:0:0:
361,140,56058,2,0,P|341:172|325:223,1,90,2|0,0:0|0:0,0:0:0:0:
474,169,56374,2,0,P|466:102|427:47,1,135,8|0,0:0|0:0,0:0:0:0:
393,36,56690,5,2,0:0:0:0:
263,150,56848,2,0,P|218:158|174:158,1,90,2|0,0:0|0:0,0:0:0:0:
34,115,57163,1,2,0:0:0:0:
88,287,57321,2,0,P|134:277|183:280,1,90,2|0,0:0|0:0,0:0:0:0:
339,359,57637,2,0,L|327:257,1,90,8|0,0:0|0:0,0:0:0:0:
299,49,57953,5,2,0:0:0:0:
299,49,58426,1,2,0:0:0:0:
377,125,58584,2,0,P|444:129|498:91,1,135,2|0,0:0|0:0,0:0:0:0:
503,55,58900,1,8,0:0:0:0:
299,49,59058,6,0,B|234:69|170:29|170:29|188:51|191:68,1,180,6|0,0:0|0:0,0:0:0:0:
114,229,59532,1,8,0:0:0:0:
240,140,59690,1,8,0:0:0:0:
54,52,59848,1,8,0:0:0:0:
54,52,59926,1,8,0:0:0:0:
54,52,60005,1,8,0:0:0:0:
136,202,60163,1,8,0:0:0:0:
300,49,60321,1,8,0:0:0:0:
300,49,60400,1,8,0:0:0:0:
300,49,60479,6,0,P|344:54|389:51,1,90,6|0,0:0|0:0,0:0:0:0:
468,205,60795,2,0,P|423:199|378:202,1,90,8|0,0:0|0:0,0:0:0:0:
227,262,61111,2,0,P|200:298|183:340,1,90,2|0,0:0|0:0,0:0:0:0:
46,196,61426,2,0,P|111:210|175:190,1,135,8|0,0:0|0:0,0:0:0:0:
240,140,61742,5,2,0:0:0:0:
318,281,61900,1,0,0:0:0:0:
100,384,62058,2,0,P|92:339|99:293,1,90,8|0,0:0|0:0,0:0:0:0:
112,114,62374,1,2,0:0:0:0:
228,264,62532,1,8,0:0:0:0:
228,264,62611,1,8,0:0:0:0:
228,264,62690,1,8,0:0:0:0:
319,106,62848,1,8,0:0:0:0:
319,106,62926,1,8,0:0:0:0:
320,107,63005,6,0,P|270:63|204:64,1,135,6|0,0:0|0:0,0:0:0:0:
111,113,63321,2,0,P|105:69|117:26,1,90,8|0,0:0|0:0,0:0:0:0:
239,140,63637,2,0,P|255:204|227:264,1,135,8|0,0:0|0:0,0:0:0:0:
136,305,63953,2,0,P|129:261|143:219,1,90,8|0,0:0|0:0,0:0:0:0:
344,340,64269,5,8,0:0:0:0:
240,141,64426,1,8,0:0:0:0:
136,305,64584,1,8,0:0:0:0:
228,264,64742,6,0,L|356:238,1,107.999996704102
417,173,65216,2,0,L|349:160,1,53.9999983520508
168,63,65532,6,0,L|133:152,1,90,6|8,0:0|0:0,0:0:0:0:
240,141,65848,1,0,0:0:0:0:
56,128,66005,2,0,B|57:183|39:247|39:247|57:223|88:215,1,180,8|8,0:0|0:0,0:0:0:0:
241,142,66479,2,0,L|245:237,1,90,2|8,0:0|0:0,0:0:0:0:
122,365,66795,5,2,0:0:0:0:
290,302,66953,1,8,0:0:0:0:
159,178,67111,1,0,0:0:0:0:
247,376,67269,2,0,P|332:372|372:296,1,180,8|8,0:0|0:0,0:0:0:0:
410,131,67742,2,0,P|370:151|337:182,1,90,2|8,0:0|0:0,0:0:0:0:
453,365,68058,6,0,P|466:322|467:277,1,90,6|8,0:0|0:0,0:0:0:0:
436,37,68374,1,2,0:0:0:0:
339,183,68532,1,8,0:0:0:0:
512,162,68690,1,2,0:0:0:0:
319,76,68848,1,8,0:0:0:0:
372,295,69005,1,2,0:0:0:0:
512,161,69163,6,0,P|449:185|382:185,1,135,8|0,0:0|0:0,0:0:0:0:
339,183,69479,1,8,0:0:0:0:
319,76,69637,1,2,0:0:0:0:
227,230,69795,1,8,0:0:0:0:
339,183,69953,1,2,0:0:0:0:
256,342,70111,1,8,0:0:0:0:
94,223,70269,1,8,0:0:0:0:
108,195,70347,1,8,0:0:0:0:
114,164,70426,1,8,0:0:0:0:
110,133,70505,1,8,0:0:0:0:
97,104,70584,6,0,L|236:84,1,135,6|0,0:0|0:0,0:0:0:0:
319,76,70900,1,8,0:0:0:0:
227,229,71058,2,0,P|192:287|149:340,1,135,6|0,0:0|0:0,0:0:0:0:
104,342,71374,1,2,0:0:0:0:
108,195,71532,1,8,0:0:0:0:
302,286,71690,6,0,P|313:242|311:197,1,90,2|0,0:0|0:0,0:0:0:0:
198,52,72005,2,0,P|187:96|189:141,1,90,2|8,0:0|0:0,0:0:0:0:
389,153,72321,2,0,B|448:160|512:106|512:106|499:136|501:149,1,180,6|8,0:0|0:0,0:0:0:0:
501,148,72716,1,8,0:0:0:0:
501,148,72795,1,8,0:0:0:0:
401,368,72953,6,0,L|395:217,1,135,6|0,0:0|0:0,0:0:0:0:
390,153,73269,1,2,0:0:0:0:
494,274,73426,1,8,0:0:0:0:
303,287,73584,2,0,L|297:136,1,135,6|0,0:0|0:0,0:0:0:0:
294,77,73900,1,2,0:0:0:0:
209,209,74058,1,8,0:0:0:0:
28,84,74216,6,0,B|69:82|104:49|104:49|146:58|181:100,1,180,6|2,0:0|0:0,0:0:0:0:
181,100,74611,1,2,0:0:0:0:
181,100,74690,1,2,0:0:0:0:
317,158,74848,1,2,0:0:0:0:
339,142,74926,1,2,0:0:0:0:
358,123,75005,1,2,0:0:0:0:
370,99,75084,1,2,0:0:0:0:
372,72,75163,1,2,0:0:0:0:
367,46,75242,1,2,0:0:0:0:
355,22,75321,1,2,0:0:0:0:
381,29,75400,1,2,0:0:0:0:
407,36,75479,1,2,0:0:0:0:
434,37,75558,1,2,0:0:0:0:
460,31,75637,6,0,P|464:76|456:121,1,90,6|8,0:0|0:0,0:0:0:0:
384,224,75953,1,0,0:0:0:0:
294,76,76111,2,0,P|228:89|166:66,1,135,8|0,0:0|0:0,0:0:0:0:
125,4,76426,1,8,0:0:0:0:
121,243,76584,1,2,0:0:0:0:
38,147,76742,1,8,0:0:0:0:
224,89,76900,5,2,0:0:0:0:
211,252,77058,2,0,P|166:248|121:243,1,90,8|0,0:0|0:0,0:0:0:0:
226,352,77374,2,0,L|361:335,1,135,8|0,0:0|0:0,0:0:0:0:
401,353,77690,1,8,0:0:0:0:
353,186,77848,1,2,0:0:0:0:
307,262,78005,1,8,0:0:0:0:
465,256,78163,6,0,P|476:213|476:168,1,90,6|8,0:0|0:0,0:0:0:0:
326,0,78479,2,0,P|314:43|314:88,1,90,2|8,0:0|0:0,0:0:0:0:
384,262,78795,1,2,0:0:0:0:
215,171,78953,2,0,P|170:177|125:174,1,90,8|0,0:0|0:0,0:0:0:0:
28,347,79269,6,0,B|128:325|128:325|82:298,1,135,8|0,0:0|0:0,0:0:0:0:
47,251,79584,2,0,L|43:198,1,45,8|0,0:0|0:0,0:0:0:0:
34,129,79742,2,0,L|30:76,1,45
22,9,79900,1,8,0:0:0:0:
126,175,80058,1,2,0:0:0:0:
238,71,80216,1,8,0:0:0:0:
260,84,80294,1,8,0:0:0:0:
286,92,80373,1,8,0:0:0:0:
313,92,80452,1,8,0:0:0:0:
339,84,80531,1,8,0:0:0:0:
362,70,80610,1,8,0:0:0:0:
380,50,80690,6,0,L|346:184,1,135,6|0,0:0|0:0,0:0:0:0:
324,254,81005,1,8,0:0:0:0:
449,166,81163,1,8,0:0:0:0:
469,384,81321,2,0,P|403:381|364:329,1,135,6|0,0:0|0:0,0:0:0:0:
324,254,81637,2,0,L|230:252,1,90,8|0,0:0|0:0,0:0:0:0:
72,253,81953,5,8,0:0:0:0:
194,126,82111,1,8,0:0:0:0:
199,118,82190,1,8,0:0:0:0:
204,110,82269,1,8,0:0:0:0:
69,7,82426,2,0,P|20:77|61:152,1,180,6|2,0:0|0:0,0:0:0:0:
62,153,82821,1,2,0:0:0:0:
62,153,82900,1,2,0:0:0:0:
62,153,82979,1,2,0:0:0:0:
62,153,83058,6,0,L|203:125,1,135,6|0,0:0|0:0,0:0:0:0:
268,158,83374,1,2,0:0:0:0:
423,60,83532,2,0,L|434:155,1,90,8|0,0:0|0:0,0:0:0:0:
297,353,83848,1,2,0:0:0:0:
411,264,84005,2,0,L|506:253,1,90,8|0,0:0|0:0,0:0:0:0:
304,261,84321,6,0,P|237:254|184:213,1,135,6|0,0:0|0:0,0:0:0:0:
160,137,84637,1,8,0:0:0:0:
99,302,84795,1,8,0:0:0:0:
54,72,84953,1,8,0:0:0:0:
184,214,85111,1,8,0:0:0:0:
184,214,85426,2,0,L|90:212,1,90,2|0,0:0|0:0,0:0:0:0:
254,126,85742,5,8,0:0:0:0:
199,300,85900,1,8,0:0:0:0:
31,152,86058,1,2,0:0:0:0:
183,214,86216,1,8,0:0:0:0:
183,214,86295,1,8,0:0:0:0:
183,214,86374,1,8,0:0:0:0:
136,8,86532,1,8,0:0:0:0:
184,214,86690,1,2,0:0:0:0:
128,124,86848,1,8,0:0:0:0:
128,124,86926,1,8,0:0:0:0:
128,124,87005,5,8,0:0:0:0:
341,71,87163,1,0,0:0:0:0:
274,218,87321,1,8,0:0:0:0:
235,17,87479,1,8,0:0:0:0:
381,173,87637,1,8,0:0:0:0:
381,173,87953,2,0,B|430:224|397:295|397:295|376:315,1,161.999995056153,2|0,0:0|0:0,0:0:0:0:
293,309,88269,5,6,0:0:0:0:
253,135,88426,1,2,0:0:0:0:
174,332,88584,1,8,0:0:0:0:
274,218,88742,1,0,0:0:0:0:
64,98,88900,2,0,P|51:141|43:185,1,90,8|2,0:0|0:0,0:0:0:0:
174,331,89216,2,0,P|186:287|194:243,1,90,8|2,0:0|0:0,0:0:0:0:
152,35,89532,5,8,0:0:0:0:
253,135,89690,1,2,0:0:0:0:
106,256,89848,1,8,0:0:0:0:
162,124,90005,1,2,0:0:0:0:
274,218,90163,1,8,0:0:0:0:
145,152,90321,1,2,0:0:0:0:
238,42,90479,2,0,P|261:45|283:49,1,45,8|0,0:0|0:0,0:0:0:0:
349,112,90637,2,0,P|371:109|393:105,1,45
474,93,90795,5,6,0:0:0:0:
391,232,90953,1,2,0:0:0:0:
321,20,91111,1,8,0:0:0:0:
253,135,91269,1,2,0:0:0:0:
467,284,91426,2,0,P|475:239|473:194,1,90,12|2,0:0|0:0,0:0:0:0:
348,112,91742,1,8,0:0:0:0:
322,307,91900,6,0,P|256:294|192:312,1,135,6|0,0:0|0:0,0:0:0:0:
156,340,92216,1,2,0:0:0:0:
66,239,92374,1,0,0:0:0:0:
253,135,92532,1,2,0:0:0:0:
167,239,92690,1,8,0:0:0:0:
130,45,92848,1,0,0:0:0:0:
117,161,93005,1,8,0:0:0:0:
117,161,93084,1,8,0:0:0:0:
117,161,93163,1,8,0:0:0:0:
67,356,93321,6,0,P|110:343|154:340,1,90,6|0,0:0|0:0,0:0:0:0:
329,368,93637,1,8,0:0:0:0:
257,225,93795,2,0,L|252:130,1,90,0|8,0:0|0:0,0:0:0:0:
381,176,94111,1,2,0:0:0:0:
173,329,94269,2,0,L|168:234,1,90,8|2,0:0|0:0,0:0:0:0:
381,176,94584,5,8,0:0:0:0:
256,87,94742,1,2,0:0:0:0:
260,310,94900,1,8,0:0:0:0:
304,154,95058,1,2,0:0:0:0:
445,231,95216,2,0,P|408:254|363:259,1,90,8|2,0:0|0:0,0:0:0:0:
182,246,95532,2,0,P|144:222|99:217,1,90,8|2,0:0|0:0,0:0:0:0:
256,87,95848,6,0,L|318:64,1,45,6|0,0:0|0:0,0:0:0:0:
197,29,96005,2,0,P|183:46|173:67,1,45
197,145,96163,1,8,0:0:0:0:
273,221,96321,2,0,L|260:310,1,90,0|6,0:0|0:0,0:0:0:0:
292,379,96558,1,0,0:0:0:0:
292,379,96637,2,0,L|305:290,1,90,0|8,0:0|0:0,0:0:0:0:
343,130,96953,6,0,P|408:144|462:107,1,135,6|0,0:0|0:0,0:0:0:0:
479,75,97269,1,8,0:0:0:0:
434,217,97426,1,8,0:0:0:0:
343,131,97584,1,8,0:0:0:0:
424,253,97742,1,8,0:0:0:0:
479,75,97900,1,8,0:0:0:0:
343,131,98058,1,8,0:0:0:0:
333,130,98137,1,8,0:0:0:0:
323,129,98216,1,8,0:0:0:0:
479,75,98374,5,8,0:0:0:0:
506,255,98532,2,0,L|479:348,1,90,6|0,0:0|0:0,0:0:0:0:
347,302,98848,2,0,L|208:335,1,135,6|0,0:0|0:0,0:0:0:0:
180,340,99163,1,2,0:0:0:0:
72,262,99321,2,0,L|25:249,2,45,2|0|0,0:0|0:0|0:0,0:0:0:0:
207,128,99637,5,8,0:0:0:0:
150,347,99795,1,8,0:0:0:0:
73,261,99953,1,0,0:0:0:0:
171,252,100111,1,0,0:0:0:0:
116,171,100269,1,0,0:0:0:0:
79,262,100426,1,0,0:0:0:0:
177,247,100584,1,0,0:0:0:0:
110,173,100742,6,0,B|120:110|69:47|69:47|89:57|111:60,1,180,6|2,0:0|0:0,0:0:0:0:
207,128,101216,2,0,L|305:113,1,90,6|0,0:0|0:0,0:0:0:0:
362,40,101532,1,0,0:0:0:0:
368,33,101690,1,2,0:0:0:0:
429,135,101848,1,2,0:0:0:0:
429,135,101926,1,2,0:0:0:0:
429,135,102005,1,2,0:0:0:0:
208,128,102163,5,6,0:0:0:0:
333,128,102321,2,0,P|326:199|320:271,1,144
429,135,102795,1,8,0:0:0:0:
401,325,102953,2,0,P|363:350|320:362,1,90,2|0,0:0|0:0,0:0:0:0:
168,237,103269,6,0,P|101:230|44:263,1,135,6|0,0:0|0:0,0:0:0:0:
15,298,103584,1,8,0:0:0:0:
101,362,103742,5,8,0:0:0:0:
225,342,103900,5,8,0:0:0:0:
323,236,104058,5,8,0:0:0:0:
304,74,104216,5,8,0:0:0:0:
132,19,104374,5,8,0:0:0:0:
132,19,104453,1,8,0:0:0:0:
132,19,104532,1,8,0:0:0:0:
259,150,104690,6,0,P|325:153|377:113,1,135,6|0,0:0|0:0,0:0:0:0:
436,57,105005,2,0,L|501:119,1,90,8|0,0:0|0:0,0:0:0:0:
304,74,105321,1,2,0:0:0:0:
410,207,105479,2,0,P|410:251|398:295,1,90,8|0,0:0|0:0,0:0:0:0:
225,331,105795,6,0,L|90:314,1,135,6|0,0:0|0:0,0:0:0:0:
27,248,106111,2,0,L|118:227,1,90,6|0,0:0|0:0,0:0:0:0:
253,188,106426,2,0,P|282:106|236:32,1,180,6|2,0:0|0:0,0:0:0:0:
236,32,106821,1,2,0:0:0:0:
236,32,106900,1,2,0:0:0:0:
236,32,106979,1,2,0:0:0:0:
236,32,107058,1,2,0:0:0:0:
236,32,107137,1,2,0:0:0:0:
236,32,107216,6,0,L|205:122,1,90,6|0,0:0|0:0,0:0:0:0:
293,272,107532,2,0,L|261:361,1,90,8|0,0:0|0:0,0:0:0:0:
253,189,107848,1,2,0:0:0:0:
264,355,108005,1,2,0:0:0:0:
448,263,108163,1,8,0:0:0:0:
376,113,108321,6,0,L|368:247,1,135,6|0,0:0|0:0,0:0:0:0:
366,320,108637,1,2,0:0:0:0:
407,160,108795,2,0,L|409:70,1,90,8|0,0:0|0:0,0:0:0:0:
294,105,109111,1,2,0:0:0:0:
360,233,109269,1,8,0:0:0:0:
487,107,109426,1,8,0:0:0:0:
487,107,109505,1,8,0:0:0:0:
487,107,109584,1,8,0:0:0:0:
329,18,109742,6,0,P|271:52|204:49,1,135,6|0,0:0|0:0,0:0:0:0:
171,35,110058,1,8,0:0:0:0:
86,140,110216,1,0,0:0:0:0:
229,290,110374,1,2,0:0:0:0:
215,155,110532,1,2,0:0:0:0:
113,243,110690,1,8,0:0:0:0:
236,298,110848,1,0,0:0:0:0:
212,165,111005,6,0,L|343:134,1,135,2|0,0:0|0:0,0:0:0:0:
378,124,111321,1,8,0:0:0:0:
265,49,111479,1,0,0:0:0:0:
243,305,111637,1,2,0:0:0:0:
210,173,111795,1,2,0:0:0:0:
76,316,111953,2,0,P|120:319|163:306,1,90,8|0,0:0|0:0,0:0:0:0:
340,285,112269,6,0,L|347:145,1,135,2|0,0:0|0:0,0:0:0:0:
378,124,112584,2,0,L|372:223,1,90,8|0,0:0|0:0,0:0:0:0:
305,361,112900,1,2,0:0:0:0:
275,229,113058,1,2,0:0:0:0:
458,305,113216,2,0,P|413:312|368:309,1,90,8|0,0:0|0:0,0:0:0:0:
233,301,113532,6,0,P|166:294|102:315,1,135,2|0,0:0|0:0,0:0:0:0:
75,340,113848,1,8,0:0:0:0:
14,183,114005,2,0,P|101:198|179:157,1,180,2|8,0:0|0:0,0:0:0:0:
255,34,114479,1,8,0:0:0:0:
255,34,114558,1,8,0:0:0:0:
255,34,114637,1,8,0:0:0:0:
94,38,114795,6,0,B|75:35|59:16|59:16|70:63|55:108,1,135,6|0,0:0|0:0,0:0:0:0:
14,182,115111,2,0,L|17:275,1,90,8|0,0:0|0:0,0:0:0:0:
121,371,115426,1,2,0:0:0:0:
182,232,115584,2,0,P|225:221|270:220,1,90,8|0,0:0|0:0,0:0:0:0:
441,368,115900,6,0,L|412:234,1,135,2|0,0:0|0:0,0:0:0:0:
448,167,116216,2,0,L|468:73,1,90,2|0,0:0|0:0,0:0:0:0:
313,92,116532,2,0,B|250:110|187:68|187:68|199:98|194:124,1,180,6|8,0:0|0:0,0:0:0:0:
115,267,117005,1,8,0:0:0:0:
246,172,117163,1,8,0:0:0:0:
124,8,117321,6,0,P|105:48|103:93,1,90,6|0,0:0|0:0,0:0:0:0:
174,331,117637,2,0,P|193:290|195:246,1,90,8|0,0:0|0:0,0:0:0:0:
187,69,117953,1,2,0:0:0:0:
83,193,118111,1,2,0:0:0:0:
296,298,118269,1,8,0:0:0:0:
246,171,118426,6,0,P|183:196|116:197,1,135,6|0,0:0|0:0,0:0:0:0:
83,193,118742,1,2,0:0:0:0:
187,69,118900,1,8,0:0:0:0:
345,124,119058,2,0,L|334:213,1,90
483,67,119374,1,8,0:0:0:0:
461,209,119532,1,8,0:0:0:0:
461,209,119611,1,8,0:0:0:0:
461,209,119690,1,8,0:0:0:0:
344,124,119848,6,0,P|277:129|218:98,1,135,6|0,0:0|0:0,0:0:0:0:
176,158,120163,2,0,L|187:69,1,90,0|2,0:0|0:0,0:0:0:0:
157,250,120479,2,0,B|172:347|172:347|206:313,1,135,2|0,0:0|0:0,0:0:0:0:
265,356,120795,2,0,P|268:311|255:269,1,90,8|0,0:0|0:0,0:0:0:0:
86,182,121111,6,0,L|41:166,1,45,2|0,0:0|0:0,0:0:0:0:
11,96,121269,2,0,L|107:78,1,90,2|0,0:0|0:0,0:0:0:0:
292,129,121584,2,0,L|321:169,1,45,2|0,0:0|0:0,0:0:0:0:
386,201,121742,2,0,L|405:107,1,90,2|0,0:0|0:0,0:0:0:0:
454,278,122058,2,0,P|413:294|368:300,1,90,8|0,0:0|0:0,0:0:0:0:
181,240,122374,6,0,B|112:244|63:296|63:296|83:310|103:318,1,180,2|0,0:0|0:0,0:0:0:0:
264,355,122848,1,2,0:0:0:0:
292,129,123005,1,2,0:0:0:0:
339,274,123163,2,0,P|382:284|426:278,1,90,0|8,0:0|0:0,0:0:0:0:
449,91,123479,6,0,P|384:76|323:103,1,135,6|0,0:0|0:0,0:0:0:0:
292,129,123795,1,0,0:0:0:0:
454,277,123953,1,8,0:0:0:0:
265,355,124111,1,8,0:0:0:0:
383,191,124269,1,2,0:0:0:0:
383,191,124348,1,2,0:0:0:0:
383,191,124426,1,2,0:0:0:0:
383,191,124505,1,2,0:0:0:0:
383,191,124584,2,0,L|374:247,1,45,2|2,0:0|0:0,0:0:0:0:
286,231,124742,2,0,L|277:287,1,45,2|2,0:0|0:0,0:0:0:0:
265,355,124900,5,6,0:0:0:0:
179,216,125058,1,0,0:0:0:0:
362,55,125216,2,0,P|318:66|272:63,1,90,8|0,0:0|0:0,0:0:0:0:
144,38,125532,2,0,L|161:178,1,135,2|0,0:0|0:0,0:0:0:0:
179,216,125848,2,0,L|161:306,1,90,8|0,0:0|0:0,0:0:0:0:
268,144,126163,6,0,L|285:232,1,90,2|0,0:0|0:0,0:0:0:0:
362,55,126479,1,8,0:0:0:0:
285,231,126637,1,0,0:0:0:0:
152,109,126795,1,2,0:0:0:0:
268,144,126953,1,8,0:0:0:0:
268,144,127032,1,8,0:0:0:0:
268,144,127111,2,0,L|361:138,1,90,8|8,0:0|0:0,0:0:0:0:
428,105,127348,1,8,0:0:0:0:
428,105,127426,6,0,B|462:206|462:206|423:193,1,135,6|0,0:0|0:0,0:0:0:0:
379,249,127742,2,0,P|362:291|330:322,1,90,8|0,0:0|0:0,0:0:0:0:
136,351,128058,2,0,P|152:309|185:278,1,90,8|2,0:0|0:0,0:0:0:0:
268,144,128374,2,0,P|284:185|285:231,1,90,8|2,0:0|0:0,0:0:0:0:
186,111,128690,5,8,0:0:0:0:
379,249,128848,1,8,0:0:0:0:
121,221,129005,1,8,0:0:0:0:
238,45,129163,6,0,P|267:90|269:144,1,107.999996704102
109,77,129637,2,0,P|123:54|146:39,1,53.9999983520508
242,223,129953,6,0,P|287:224|325:201,1,90,6|8,0:0|0:0,0:0:0:0:
186,111,130269,1,0,0:0:0:0:
177,291,130426,2,0,B|102:362|102:362|155:356,1,135,8|0,0:0|0:0,0:0:0:0:
209,373,130742,1,8,0:0:0:0:
121,221,130900,1,2,0:0:0:0:
13,364,131058,1,8,0:0:0:0:
177,291,131216,5,2,0:0:0:0:
186,111,131374,1,8,0:0:0:0:
300,197,131532,1,2,0:0:0:0:
121,221,131690,2,0,L|321:195,1,180,8|8,0:0|0:0,0:0:0:0:
434,329,132163,2,0,L|336:311,1,90,2|8,0:0|0:0,0:0:0:0:
58,155,132479,6,0,P|38:196|34:241,1,90,6|8,0:0|0:0,0:0:0:0:
239,363,132795,2,0,P|258:322|263:277,1,90,2|8,0:0|0:0,0:0:0:0:
187,111,133111,1,2,0:0:0:0:
177,291,133269,1,8,0:0:0:0:
346,191,133426,1,2,0:0:0:0:
218,41,133584,6,0,P|152:42|113:94,1,135,8|0,0:0|0:0,0:0:0:0:
132,169,133900,1,8,0:0:0:0:
346,191,134058,2,0,L|443:184,1,90,2|8,0:0|0:0,0:0:0:0:
356,74,134374,1,2,0:0:0:0:
253,235,134532,1,8,0:0:0:0:
249,267,134610,1,8,0:0:0:0:
246,298,134689,1,8,0:0:0:0:
242,329,134768,1,8,0:0:0:0:
239,361,134848,2,8,L|179:370,1,45
124,313,135005,6,0,B|23:279|23:279|54:259,1,135,6|0,0:0|0:0,0:0:0:0:
109,218,135321,1,8,0:0:0:0:
268,100,135479,2,0,L|253:242,1,135,6|0,0:0|0:0,0:0:0:0:
249,267,135795,1,2,0:0:0:0:
170,135,135953,1,8,0:0:0:0:
418,193,136111,6,0,L|385:294,1,90,2|0,0:0|0:0,0:0:0:0:
278,353,136426,2,0,L|245:252,1,90,2|8,0:0|0:0,0:0:0:0:
208,34,136742,2,0,P|125:62|50:18,1,180,6|2,0:0|0:0,0:0:0:0:
50,18,137216,1,8,0:0:0:0:
110,219,137374,6,0,B|120:269|81:326|81:326|100:318,1,135,6|0,0:0|0:0,0:0:0:0:
177,306,137690,1,2,0:0:0:0:
28,186,137848,1,2,0:0:0:0:
131,49,138005,2,0,L|115:189,1,135,2|0,0:0|0:0,0:0:0:0:
110,219,138321,1,2,0:0:0:0:
225,133,138479,1,8,0:0:0:0:
301,291,138637,6,0,P|380:326|459:289,1,180,6|8,0:0|0:0,0:0:0:0:
459,289,139032,1,8,0:0:0:0:
459,289,139111,1,8,0:0:0:0:
454,91,139269,1,8,0:0:0:0:
456,87,139348,1,8,0:0:0:0:
458,83,139426,1,8,0:0:0:0:
365,200,139584,1,8,0:0:0:0:
321,210,139662,1,8,0:0:0:0:
278,201,139741,1,8,0:0:0:0:
243,173,139820,1,8,0:0:0:0:
224,133,139899,1,8,0:0:0:0:
353,28,140058,6,0,L|326:114,1,90,6|8,0:0|0:0,0:0:0:0:
245,38,140374,1,2,0:0:0:0:
278,201,140532,2,0,L|295:334,1,135,8|0,0:0|0:0,0:0:0:0:
302,370,140848,1,8,0:0:0:0:
176,272,141005,1,2,0:0:0:0:
365,200,141163,1,8,0:0:0:0:
302,370,141321,5,2,0:0:0:0:
278,201,141479,2,0,L|282:104,1,90,8|2,0:0|0:0,0:0:0:0:
153,37,141795,2,0,B|94:78|28:24|28:24|48:73,1,180,8|8,0:0|0:0,0:0:0:0:
75,206,142269,2,0,L|60:294,1,90,2|8,0:0|0:0,0:0:0:0:
254,304,142584,6,0,L|386:280,1,135,6|0,0:0|0:0,0:0:0:0:
453,220,142900,2,0,L|365:199,1,90,2|8,0:0|0:0,0:0:0:0:
155,156,143216,1,6,0:0:0:0:
283,112,143374,2,0,P|286:156|277:200,1,90,8|2,0:0|0:0,0:0:0:0:
122,327,143690,6,0,L|254:303,1,135,8|0,0:0|0:0,0:0:0:0:
335,295,144005,2,0,P|354:307|370:326,1,45
443,309,144163,2,0,P|454:265|452:220,1,90,2|8,0:0|0:0,0:0:0:0:
292,24,144479,2,0,P|280:67|282:112,1,90,2|8,0:0|0:0,0:0:0:0:
282,112,144716,1,8,0:0:0:0:
282,112,144795,1,8,0:0:0:0:
199,235,144953,1,8,0:0:0:0:
199,235,145032,1,8,0:0:0:0:
199,235,145111,6,0,L|94:253,1,90,6|2,0:0|0:0,0:0:0:0:
303,218,145426,1,8,0:0:0:0:
172,144,145584,1,8,0:0:0:0:
170,316,145742,2,0,P|214:318|254:299,1,90,6|0,0:0|0:0,0:0:0:0:
416,93,146058,2,0,P|391:130|388:174,1,90,8|0,0:0|0:0,0:0:0:0:
497,362,146374,5,8,0:0:0:0:
377,252,146532,1,8,0:0:0:0:
495,141,146690,1,2,0:0:0:0:
433,311,146848,2,0,P|370:331|312:299,1,135,6|0,0:0|0:0,0:0:0:0:
304,219,147163,2,0,L|303:127,1,90,2|8,0:0|0:0,0:0:0:0:
137,41,147479,6,0,P|70:55|66:162,1,180,6|2,0:0|0:0,0:0:0:0:
131,311,147953,2,0,P|170:291|198:256,1,90,8|0,0:0|0:0,0:0:0:0:
3,218,148269,1,8,0:0:0:0:
116,110,148426,2,0,P|155:130|182:165,1,90,2|0,0:0|0:0,0:0:0:0:
67,376,148742,6,0,P|52:333|51:288,1,90,6|0,0:0|0:0,0:0:0:0:
116,110,149058,1,2,0:0:0:0:
198,255,149216,1,8,0:0:0:0:
3,218,149374,1,8,0:0:0:0:
217,147,149532,1,8,0:0:0:0:
217,147,149611,1,8,0:0:0:0:
217,147,149690,1,8,0:0:0:0:
217,147,149769,1,8,0:0:0:0:
217,147,149848,2,0,L|169:174,1,45,8|8,0:0|0:0,0:0:0:0:
123,229,150005,2,0,L|75:256,1,45,8|8,0:0|0:0,0:0:0:0:
198,254,150163,6,0,P|284:239|362:282,1,180,6|2,0:0|0:0,0:0:0:0:
362,282,150637,1,8,0:0:0:0:
475,167,150795,1,2,0:0:0:0:
442,325,150953,2,0,P|409:355|366:369,1,90,8|2,0:0|0:0,0:0:0:0:
283,241,151269,1,8,0:0:0:0:
384,95,151426,6,0,L|374:184,1,90,2|8,0:0|0:0,0:0:0:0:
275,352,151742,2,0,P|232:343|187:343,1,90,2|8,0:0|0:0,0:0:0:0:
53,369,152058,1,2,0:0:0:0:
160,242,152216,1,8,0:0:0:0:
1,138,152374,1,2,0:0:0:0:
162,63,152532,1,8,0:0:0:0:
73,291,152690,6,0,L|73:124,1,135,6|0,0:0|0:0,0:0:0:0:
103,107,153005,2,0,L|103:197,1,90,2|8,0:0|0:0,0:0:0:0:
227,292,153321,1,2,0:0:0:0:
246,137,153479,2,0,L|204:152,1,45,8|0,0:0|0:0,0:0:0:0:
265,50,153637,2,0,L|365:62,1,90,2|8,0:0|0:0,0:0:0:0:
493,192,153953,5,6,0:0:0:0:
358,209,154111,2,0,P|345:251|340:296,1,90,8|0,0:0|0:0,0:0:0:0:
493,192,154426,2,0,P|501:170|501:140,1,45,8|0,0:0|0:0,0:0:0:0:
486,66,154584,2,0,P|447:90|426:129,1,90,2|8,0:0|0:0,0:0:0:0:
436,267,154900,1,8,0:0:0:0:
436,267,154979,1,8,0:0:0:0:
436,267,155058,1,8,0:0:0:0:
256,218,155216,6,0,P|216:223|160:212,1,90,6|8,0:0|0:0,0:0:0:0:
253,351,155532,1,2,0:0:0:0:
88,211,155690,1,8,0:0:0:0:
8,320,155848,1,2,0:0:0:0:
253,351,156005,2,0,P|266:283|256:217,1,135,8|0,0:0|0:0,0:0:0:0:
212,154,156321,2,0,P|202:141|190:109,1,45,12|0,0:0|0:0,0:0:0:0:
244,57,156479,6,0,L|332:42,1,90,2|8,0:0|0:0,0:0:0:0:
475,158,156795,2,0,L|386:149,1,90,2|8,0:0|0:0,0:0:0:0:
212,154,157111,1,2,0:0:0:0:
209,157,157190,1,0,0:0:0:0:
206,160,157269,1,8,0:0:0:0:
203,163,157348,1,0,0:0:0:0:
200,166,157426,1,2,0:0:0:0:
197,169,157505,1,0,0:0:0:0:
194,172,157584,1,8,0:0:0:0:
348,342,157742,6,0,P|360:299|355:254,1,90,6|8,0:0|0:0,0:0:0:0:
127,124,158058,2,0,P|114:166|119:211,1,90,2|8,0:0|0:0,0:0:0:0:
197,295,158374,2,0,L|286:284,1,90,2|8,0:0|0:0,0:0:0:0:
412,167,158690,2,0,L|323:156,1,90,2|8,0:0|0:0,0:0:0:0:
126,124,159005,5,2,0:0:0:0:
197,295,159163,2,0,P|210:253|205:208,1,90,8|0,0:0|0:0,0:0:0:0:
51,75,159479,2,0,P|38:117|43:162,1,90,12|8,0:0|0:0,0:0:0:0:
68,181,159716,1,8,0:0:0:0:
85,207,159795,1,8,0:0:0:0:
90,237,159874,1,8,0:0:0:0:
90,268,159953,1,8,0:0:0:0:
85,299,160032,1,8,0:0:0:0:
67,325,160111,1,8,0:0:0:0:
43,345,160190,1,8,0:0:0:0:
12,351,160269,6,0,L|106:342,1,90,6|8,0:0|0:0,0:0:0:0:
190,212,160584,2,0,L|284:221,1,90,2|8,0:0|0:0,0:0:0:0:
460,251,160900,2,0,P|459:293|445:348,1,90,2|8,0:0|0:0,0:0:0:0:
380,373,161137,1,0,0:0:0:0:
380,373,161216,2,0,L|290:364,1,90,2|8,0:0|0:0,0:0:0:0:
198,295,161532,6,0,L|184:337,1,45,2|0,0:0|0:0,0:0:0:0:
95,336,161690,2,0,L|110:289,1,45,8|0,0:0|0:0,0:0:0:0:
205,169,161848,2,0,L|191:211,1,45,2|0,0:0|0:0,0:0:0:0:
102,210,162006,2,0,L|117:163,1,45,8|0,0:0|0:0,0:0:0:0:
152,84,162163,6,0,L|106:58,1,45,2|0,0:0|0:0,0:0:0:0:
275,90,162321,2,0,L|229:64,1,45,8|0,0:0|0:0,0:0:0:0:
395,108,162479,2,0,L|349:82,1,45,2|0,0:0|0:0,0:0:0:0:
512,104,162637,2,0,L|466:78,1,45,8|0,0:0|0:0,0:0:0:0:
456,179,162795,6,0,P|451:216|446:270,1,90,6|8,0:0|0:0,0:0:0:0:
299,320,163111,2,0,P|304:283|309:229,1,90,2|8,0:0|0:0,0:0:0:0:
276,90,163426,2,0,P|254:102|236:119,1,45,2|0,0:0|0:0,0:0:0:0:
171,165,163584,2,0,P|163:189|163:213,1,45,8|0,0:0|0:0,0:0:0:0:
85,232,163742,2,0,P|97:254|114:272,1,45,2|0,0:0|0:0,0:0:0:0:
160,337,163900,2,0,P|184:344|208:344,1,45,8|0,0:0|0:0,0:0:0:0:
379,260,164058,6,0,L|417:308,1,45,2|0,0:0|0:0,0:0:0:0:
299,321,164216,2,0,L|306:156,1,135,12|0,0:0|0:0,0:0:0:0:
316,18,164532,2,0,P|250:15|199:57,1,135,12|0,0:0|0:0,0:0:0:0:
134,95,164848,2,0,L|80:109,1,45,8|0,0:0|0:0,0:0:0:0:
152,187,165005,2,0,L|98:201,1,45,2|0,0:0|0:0,0:0:0:0:
186,265,165163,2,0,L|132:279,1,45,8|0,0:0|0:0,0:0:0:0:
58,264,165321,6,0,L|6:250,1,45,6|0,0:0|0:0,0:0:0:0:
28,349,165479,2,0,L|71:360,1,45,0|0,0:0|0:0,0:0:0:0:
163,369,165637,1,2,0:0:0:0:
163,369,165716,1,0,0:0:0:0:
163,369,165795,2,0,L|215:357,1,45,8|0,0:0|0:0,0:0:0:0:
298,260,165953,2,0,L|283:309,1,45,2|0,0:0|0:0,0:0:0:0:
406,214,166111,2,0,L|391:263,1,45,8|0,0:0|0:0,0:0:0:0:
403,345,166269,1,2,0:0:0:0:
403,345,166348,1,0,0:0:0:0:
403,345,166426,2,0,P|434:360|456:364,1,45,8|0,0:0|0:0,0:0:0:0:
488,219,166584,6,0,P|483:196|475:175,1,45,6|0,0:0|0:0,0:0:0:0:
418,35,166742,2,0,P|401:49|386:67,1,45,8|0,0:0|0:0,0:0:0:0:
279,176,166900,2,0,P|262:161|247:143,1,45,2|0,0:0|0:0,0:0:0:0:
188,64,167058,2,0,L|130:84,1,45,8|0,0:0|0:0,0:0:0:0:
27,172,167216,2,0,L|69:186,1,45,2|0,0:0|0:0,0:0:0:0:
198,276,167374,2,0,L|155:290,1,45,8|0,0:0|0:0,0:0:0:0:
25,322,167532,1,2,0:0:0:0:
25,322,167611,1,0,0:0:0:0:
25,322,167690,1,8,0:0:0:0:
25,322,167769,1,0,0:0:0:0:
25,322,167848,6,0,P|42:341|58:355,1,45,0|0,0:0|0:0,0:0:0:0:
160,364,168005,2,0,P|194:363|217:357,1,45,8|0,0:0|0:0,0:0:0:0:
299,313,168163,2,0,L|313:257,1,45,2|0,0:0|0:0,0:0:0:0:
278,175,168321,1,8,0:0:0:0:
278,175,168400,1,0,0:0:0:0:
278,175,168479,2,0,L|264:125,1,45,2|0,0:0|0:0,0:0:0:0:
188,65,168637,2,0,L|174:115,1,45,8|0,0:0|0:0,0:0:0:0:
197,275,168795,2,0,L|149:252,1,45,2|0,0:0|0:0,0:0:0:0:
68,153,168953,2,0,L|20:176,1,45,8|0,0:0|0:0,0:0:0:0:
148,46,169111,6,0,L|188:65,1,45,6|0,0:0|0:0,0:0:0:0:
277,174,169269,2,0,P|300:173|322:168,1,45,8|0,0:0|0:0,0:0:0:0:
442,90,169426,2,0,P|458:105|471:123,1,45,2|0,0:0|0:0,0:0:0:0:
430,267,169584,2,0,L|412:318,1,45,8|0,0:0|0:0,0:0:0:0:
313,356,169742,2,0,L|295:305,1,45,2|0,0:0|0:0,0:0:0:0:
198,276,169900,2,0,L|180:327,1,45,8|0,0:0|0:0,0:0:0:0:
101,353,170058,1,2,0:0:0:0:
101,353,170137,1,0,0:0:0:0:
101,353,170216,2,0,L|46:341,1,45,8|0,0:0|0:0,0:0:0:0:
62,231,170374,6,0,P|84:227|105:221,1,45,6|0,0:0|0:0,0:0:0:0:
278,174,170532,2,0,P|280:151|278:129,1,45,8|0,0:0|0:0,0:0:0:0:
189,154,170690,2,0,P|186:176|188:198,1,45,2|0,0:0|0:0,0:0:0:0:
352,263,170848,2,0,P|354:240|352:218,1,45,8|0,0:0|0:0,0:0:0:0:
356,133,171005,1,2,0:0:0:0:
350,97,171083,1,2,0:0:0:0:
358,62,171162,1,2,0:0:0:0:
340,31,171241,1,2,0:0:0:0:
304,30,171320,1,2,0:0:0:0:
269,24,171399,1,2,0:0:0:0:
234,14,171478,1,2,0:0:0:0:
198,16,171557,1,2,0:0:0:0:
170,39,171637,6,0,L|123:62,1,45,2|0,0:0|0:0,0:0:0:0:
29,38,171795,1,8,0:0:0:0:
29,38,171874,1,8,0:0:0:0:
29,38,171953,1,8,0:0:0:0:
95,164,172111,2,0,B|193:198|256:113|256:113|245:153,1,225,6|0,0:0|0:0,0:0:0:0:
243,168,172584,2,0,P|236:198|231:229,1,62.9999980773926
147,371,172900,5,6,0:0:0:0:
296,320,173058,2,0,P|340:317|385:310,1,90,8|2,0:0|0:0,0:0:0:0:
454,130,173374,2,0,P|409:122|364:119,1,90,8|2,0:0|0:0,0:0:0:0:
168,171,173690,1,8,0:0:0:0:
296,321,173848,1,2,0:0:0:0:
390,201,174005,1,8,0:0:0:0:
252,35,174163,5,2,0:0:0:0:
295,216,174321,2,0,L|301:116,1,90,8|2,0:0|0:0,0:0:0:0:
187,280,174637,2,0,P|102:260|28:306,1,180,8|8,0:0|0:0,0:0:0:0:
296,321,175111,2,0,P|339:333|383:330,1,90,2|8,0:0|0:0,0:0:0:0:
510,125,175426,6,0,P|467:113|423:116,1,90,6|8,0:0|0:0,0:0:0:0:
252,36,175742,2,0,L|236:124,1,90,2|8,0:0|0:0,0:0:0:0:
342,73,176058,1,2,0:0:0:0:
136,138,176216,1,8,0:0:0:0:
225,259,176374,1,2,0:0:0:0:
399,153,176532,6,0,P|332:160|268:141,1,135,8|0,0:0|0:0,0:0:0:0:
236,124,176848,1,8,0:0:0:0:
342,73,177005,1,2,0:0:0:0:
225,259,177163,1,8,0:0:0:0:
136,138,177321,1,2,0:0:0:0:
329,161,177479,1,8,0:0:0:0:
287,311,177637,1,8,0:0:0:0:
262,329,177715,1,8,0:0:0:0:
232,337,177794,1,8,0:0:0:0:
200,334,177873,1,8,0:0:0:0:
172,320,177953,6,0,B|63:348|63:348|77:315,1,135,6|0,0:0|0:0,0:0:0:0:
87,252,178269,1,8,0:0:0:0:
236,124,178426,2,0,L|226:260,1,135,6|0,0:0|0:0,0:0:0:0:
301,239,178742,2,0,L|307:145,1,90,2|8,0:0|0:0,0:0:0:0:
160,59,179058,6,0,P|96:77|41:41,1,135,6|0,0:0|0:0,0:0:0:0:
19,131,179374,2,0,P|41:169|62:215,1,90,6|8,0:0|0:0,0:0:0:0:
194,362,179690,2,0,P|183:275|231:201,1,180,6|8,0:0|0:0,0:0:0:0:
231,201,180084,1,8,0:0:0:0:
231,201,180163,1,8,0:0:0:0:
457,281,180321,6,0,P|391:292|332:262,1,135,6|0,0:0|0:0,0:0:0:0:
301,238,180637,1,2,0:0:0:0:
421,128,180795,1,8,0:0:0:0:
298,9,180953,2,0,B|281:103|281:103|317:80,1,135,6|0,0:0|0:0,0:0:0:0:
381,42,181269,1,2,0:0:0:0:
368,193,181426,1,8,0:0:0:0:
195,106,181584,6,0,B|127:97|48:117|48:117|76:132,1,180,6|2,0:0|0:0,0:0:0:0:
75,132,181979,1,2,0:0:0:0:
75,132,182058,1,2,0:0:0:0:
194,268,182215,1,2,0:0:0:0:
191,286,182294,1,2,0:0:0:0:
185,303,182373,1,2,0:0:0:0:
177,319,182452,1,2,0:0:0:0:
168,334,182531,1,2,0:0:0:0:
185,334,182610,1,2,0:0:0:0:
203,335,182689,1,2,0:0:0:0:
221,338,182768,1,2,0:0:0:0:
238,343,182847,1,2,0:0:0:0:
255,350,182926,1,2,0:0:0:0:
271,359,183005,6,0,L|364:357,1,90,6|8,0:0|0:0,0:0:0:0:
494,280,183321,1,2,0:0:0:0:
369,192,183479,2,0,P|282:209|204:167,1,180,8|8,0:0|0:0,0:0:0:0:
204,167,183953,2,0,L|208:69,1,90,2|8,0:0|0:0,0:0:0:0:
81,125,184269,6,0,L|107:309,1,180,2|2,0:0|0:0,0:0:0:0:
258,285,184742,2,0,P|343:303|418:257,1,180,8|8,0:0|0:0,0:0:0:0:
445,23,185216,2,0,P|412:52|397:94,1,90,2|8,0:0|0:0,0:0:0:0:
446,350,185532,6,0,P|479:320|494:278,1,90,6|8,0:0|0:0,0:0:0:0:
461,144,185848,2,0,P|401:173|338:154,1,135,2|0,0:0|0:0,0:0:0:0:
303,85,186163,1,6,0:0:0:0:
227,218,186321,1,8,0:0:0:0:
131,48,186479,1,2,0:0:0:0:
303,84,186637,6,0,P|241:112|174:113,1,135,8|0,0:0|0:0,0:0:0:0:
131,48,186953,1,8,0:0:0:0:
227,218,187111,2,0,L|215:314,1,90,2|8,0:0|0:0,0:0:0:0:
358,159,187426,2,0,L|346:255,1,90,2|8,0:0|0:0,0:0:0:0:
361,324,187663,1,8,0:0:0:0:
361,324,187742,1,8,0:0:0:0:
361,324,187821,1,8,0:0:0:0:
361,324,187900,1,8,0:0:0:0:
361,324,187979,1,8,0:0:0:0:
361,324,188058,6,0,B|469:348|469:348|449:317,1,135,6|0,0:0|0:0,0:0:0:0:
435,252,188374,1,8,0:0:0:0:
291,300,188532,1,8,0:0:0:0:
358,157,188690,2,0,P|368:114|370:69,1,90,6|0,0:0|0:0,0:0:0:0:
226,7,189005,2,0,P|215:50|213:95,1,90,8|0,0:0|0:0,0:0:0:0:
304,222,189321,5,8,0:0:0:0:
460,118,189479,1,8,0:0:0:0:
460,118,189558,1,8,0:0:0:0:
460,118,189637,1,8,0:0:0:0:
282,91,189795,2,0,P|216:102|151:84,1,135,6|0,0:0|0:0,0:0:0:0:
95,31,190111,2,0,L|37:6,2,45,2|2|2,0:0|0:0|0:0,0:0:0:0:
187,189,190426,6,0,B|206:247|163:326|163:326|128:300,1,180,6|2,0:0|0:0,0:0:0:0:
5,218,190900,2,0,P|2:173|10:129,1,90,8|0,0:0|0:0,0:0:0:0:
186,189,191216,2,0,L|232:180,1,45,8|0,0:0|0:0,0:0:0:0:
307,172,191374,2,0,P|350:183|395:188,1,90,2|0,0:0|0:0,0:0:0:0:
484,350,191690,6,0,P|397:336|314:368,1,180,6|2,0:0|0:0,0:0:0:0:
146,299,192163,2,0,P|111:273|86:235,1,90,8|0,0:0|0:0,0:0:0:0:
106,38,192479,2,0,P|141:64|166:102,1,90,8|2,0:0|0:0,0:0:0:0:
186,188,192716,1,2,0:0:0:0:
186,188,192795,1,2,0:0:0:0:
186,188,192874,1,2,0:0:0:0:
186,188,192953,1,2,0:0:0:0:
186,188,193032,1,2,0:0:0:0:
186,187,193111,6,0,P|230:186|275:180,1,90,6|0,0:0|0:0,0:0:0:0:
465,20,193426,2,0,P|443:59|426:101,1,90,8|8,0:0|0:0,0:0:0:0:
462,309,193742,2,0,P|438:270|411:235,1,90,6|0,0:0|0:0,0:0:0:0:
235,266,194058,2,0,P|169:278|109:249,1,135,8|0,0:0|0:0,0:0:0:0:
92,217,194374,5,2,0:0:0:0:
186,362,194532,1,8,0:0:0:0:
186,187,194690,1,8,0:0:0:0:
32,306,194848,1,12,0:0:0:0:
256,192,194926,12,0,196742,0:0:0:0:
256,194,197216,5,0,0:0:0:0:
256,194,197532,1,0,0:0:0:0:
181,304,197690,2,0,P|137:302|94:316,1,90,2|0,0:0|0:0,0:0:0:0:
255,193,198005,6,0,P|343:208|422:168,1,180,6|8,0:0|0:0,0:0:0:0:
422,167,198400,1,8,0:0:0:0:
422,167,198479,1,8,0:0:0:0:
350,42,198637,1,8,0:0:0:0:
287,320,198795,2,0,L|318:287,1,45,2|0,0:0|0:0,0:0:0:0:
339,208,198953,2,0,P|342:163|341:118,1,90,2|0,0:0|0:0,0:0:0:0:
174,53,199269,6,0,B|107:80|46:34|46:34|61:75,1,180,6|8,0:0|0:0,0:0:0:0:
61,75,199663,1,8,0:0:0:0:
61,75,199742,1,8,0:0:0:0:
61,75,199821,1,8,0:0:0:0:
61,75,199900,1,8,0:0:0:0:
114,209,200058,2,0,L|148:246,1,45,8|8,0:0|0:0,0:0:0:0:
197,292,200216,2,0,L|231:255,1,45,8|8,0:0|0:0,0:0:0:0:
271,200,200374,1,8,0:0:0:0:
271,200,200453,1,8,0:0:0:0:
271,200,200532,1,8,0:0:0:0:
271,200,200611,1,8,0:0:0:0:
271,199,200690,6,0,P|315:191|360:193,1,90,6|2,0:0|0:0,0:0:0:0:
474,337,201005,2,0,P|429:345|384:343,1,90,8|0,0:0|0:0,0:0:0:0:
197,291,201321,2,0,L|34:289,1,135,8|0,0:0|0:0,0:0:0:0:
12,309,201637,2,0,P|54:322|99:323,1,90,8|2,0:0|0:0,0:0:0:0:
271,200,201953,5,8,0:0:0:0:
154,114,202111,1,0,0:0:0:0:
161,365,202269,1,8,0:0:0:0:
231,209,202426,1,0,0:0:0:0:
88,62,202584,2,0,P|74:105|78:149,1,90,8|0,0:0|0:0,0:0:0:0:
197,291,202900,2,0,P|264:289|327:265,1,135,8|0,0:0|0:0,0:0:0:0:
375,205,203216,5,6,0:0:0:0:
333,352,203374,1,0,0:0:0:0:
231,208,203532,2,0,P|226:164|225:119,1,90,8|0,0:0|0:0,0:0:0:0:
367,3,203848,2,0,P|371:47|372:92,1,90,8|0,0:0|0:0,0:0:0:0:
327,265,204163,1,8,0:0:0:0:
481,360,204321,6,0,B|495:244|495:244|473:272|439:268,1,180,6|8,0:0|0:0,0:0:0:0:
305,149,204795,1,8,0:0:0:0:
334,351,204953,1,8,0:0:0:0:
375,206,205111,1,8,0:0:0:0:
262,309,205269,2,0,L|207:320,1,45,2|0,0:0|0:0,0:0:0:0:
148,284,205426,2,0,L|101:273,2,45,8|8|8,0:0|0:0|0:0,0:0:0:0:
375,205,205742,6,0,P|386:140|358:81,1,135,6|0,0:0|0:0,0:0:0:0:
323,69,206058,1,8,0:0:0:0:
237,184,206216,1,0,0:0:0:0:
356,287,206374,2,0,P|401:283|440:262,1,90,8|0,0:0|0:0,0:0:0:0:
509,74,206690,2,0,P|464:78|425:99,1,90,8|0,0:0|0:0,0:0:0:0:
237,184,207005,6,0,P|194:198|100:175,1,135,8|0,0:0|0:0,0:0:0:0:
87,150,207321,1,8,0:0:0:0:
150,284,207479,2,0,L|130:329,1,45,2|0,0:0|0:0,0:0:0:0:
54,357,207637,2,0,L|41:210,1,135,8|0,0:0|0:0,0:0:0:0:
87,150,207953,2,0,L|106:59,1,90,8|0,0:0|0:0,0:0:0:0:
234,43,208269,6,0,L|283:59,1,45,6|0,0:0|0:0,0:0:0:0:
325,116,208426,2,0,L|425:98,1,90,2|8,0:0|0:0,0:0:0:0:
362,236,208742,2,0,P|321:253|289:284,1,90,0|6,0:0|0:0,0:0:0:0:
437,298,209058,1,0,0:0:0:0:
437,298,209137,1,0,0:0:0:0:
437,298,209216,2,0,P|443:272|454:239,1,45,8|0,0:0|0:0,0:0:0:0:
441,171,209374,6,0,P|432:104|455:41,1,135,6|0,0:0|0:0,0:0:0:0:
474,14,209690,1,8,0:0:0:0:
325,115,209848,1,8,0:0:0:0:
235,42,210005,1,8,0:0:0:0:
255,205,210163,1,2,0:0:0:0:
325,115,210321,1,8,0:0:0:0:
156,19,210479,1,0,0:0:0:0:
153,54,210558,1,0,0:0:0:0:
168,86,210637,1,0,0:0:0:0:
325,115,210795,5,8,0:0:0:0:
168,85,210953,2,0,P|123:86|78:79,1,90,6|0,0:0|0:0,0:0:0:0:
0,226,211269,2,0,P|87:209|168:244,1,180,6|2,0:0|0:0,0:0:0:0:
168,244,211663,1,0,0:0:0:0:
168,244,211742,2,0,L|185:334,1,90,2|0,0:0|0:0,0:0:0:0:
325,115,212058,5,8,0:0:0:0:
325,115,212216,2,0,L|311:219,1,90,4|0,0:0|0:0,0:0:0:0:
185,334,212532,1,8,0:0:0:0:
185,334,212690,2,0,L|168:244,1,90,4|8,0:0|0:0,0:0:0:0:
191,167,212926,1,8,0:0:0:0:
191,167,213005,2,0,L|221:126,1,45,8|8,0:0|0:0,0:0:0:0:
262,66,213163,1,6,0:0:0:0:
256,192,213242,12,2,215848,0:0:0:0:
