osu file format v4

[General]
AudioFilename: Ai Otsuka - Momo no Hanabira.mp3
AudioLeadIn: 0
AudioHash: 8a7720a54fdf7c7ca40f8bf0d9ba1631
PreviewTime: -1
SampleSet: Soft
EditorBookmarks: 13821,17827,20879,24092,27526,31107,34587,37800,40802,44647,48287,51187,54925,59218,61789,64787,72926,75068,80530,86206,99700,103448,106554,109766,112979,117263,120261,123581,126687,130328,133969,137396,140609,144893,147249,150676,154424,160957,166311,172329,202315

[Metadata]
Title:Momo no Hanabira
Artist:Ai Otsuka
Creator:Hitoshirenu Shourai
Version:Easy

[Difficulty]
HPDrainRate:2
CircleSize:3
OverallDifficulty:2
SliderMultiplier: 1
SliderTickRate: 1

[Events]
0,-1,"MomonoHanabira.png"
2,86406,98594
3,100,0,0,0

[TimingPoints]
14300,428.38783378552,4,2,0

[Colours]
Combo1 : 97,154,239
Combo2 : 237,167,252
Combo3 : 255,168,125
Combo4 : 0,206,0

[HitObjects]
112,192,14299,5,0
256,192,15156,1,0
392,192,16013,1,0
336,304,16870,2,0,B|336:304|256:264|160:304,1,166.666666666667
56,304,18583,5,0
56,192,19440,1,0
56,80,20297,1,0
184,64,21154,5,0
328,64,22010,1,0
256,192,22867,1,0
184,320,23724,1,0
328,320,24581,5,0
448,256,25438,1,0
448,136,26152,2,0,B|448:136|384:36|389:142|344:40,1,133.333333333333
256,104,28008,5,0
160,192,28865,1,0
256,288,29721,1,0
352,192,30578,1,0
256,136,31292,6,0,B|256:136|192:48|80:48,1,200
152,216,32720,1,0
256,248,33149,2,0,B|256:248|320:336|424:336,1,166.666666666667
456,264,34434,1,0
448,192,34862,5,0
320,192,35719,1,0
192,192,36576,1,0
64,192,37432,1,0
168,272,38289,5,0
296,336,39146,1,0
384,272,39860,2,0,B|384:272|467:222|400:136,1,133.333333333333
256,192,41716,5,0
152,96,42573,1,0
56,200,43430,1,0
128,254,43858,2,4,B|128:254|72:304,1,66.6666666666667
176,344,45143,5,0
296,344,46000,1,0
392,280,46857,1,0
296,216,47571,2,4,B|296:216|347:176|310:96,1,100
344,96,48142,1,4
256,48,48571,5,0
128,48,49427,1,0
40,144,50284,1,0
72,216,50712,2,4,B|72:216|24:288,1,66.6666666666667
120,312,51426,5,0
224,328,51998,1,0
352,296,52854,1,0
280,216,53711,2,2,B|280:216|339:155|262:94|200:144,1,166.666666666667
32,192,55425,5,0
88,88,56282,1,0
216,56,57138,5,0
216,160,57852,1,0
112,200,58423,1,2
32,208,58709,1,4
32,208,58852,1,0
104,320,59709,5,0
192,288,60137,1,0
280,336,60565,2,6,B|280:336|318:310|320:264,1,66.6666666666667
400,240,62279,5,0
376,144,62707,1,0
304,80,63136,1,0
216,64,63564,1,0
128,64,63850,2,6,B|128:64|86:64|64:98|64:136,1,100
144,296,65278,5,0
256,296,66134,1,0
368,296,66991,1,0
456,232,67277,6,2,B|456:232|432:208,1,33.3333333333333
384,152,67705,2,2,B|384:152|376:144,1,33.3333333333333
312,72,68134,2,2,B|312:72|304:64,1,33.3333333333333
224,96,68562,1,2
224,96,68705,1,0
156,150,69133,6,0,B|156:150|123:103|64:128,2,100
88,216,70418,1,2
136,296,70847,1,0
232,328,71275,1,0
328,328,71703,1,0
424,288,72132,1,2
456,192,72560,1,0
320,192,73417,5,2
304,104,73845,1,2
216,64,74274,2,6,B|216:64|128:64,1,66.6666666666667
104,88,75845,6,0,B|104:88|104:112,1,33.3333333333333
104,192,76273,2,0,B|104:192|104:208,1,33.3333333333333
104,296,76701,2,0,B|104:296|104:312,1,33.3333333333333
184,296,77130,1,4
312,192,77558,6,0,B|312:192|328:192,1,33.3333333333333
256,144,77986,2,0,B|256:144|256:112,1,33.3333333333333
200,192,78415,2,0,B|200:192|184:192,1,33.3333333333333
256,240,78843,2,0,B|256:240|256:248,1,33.3333333333333
256,344,79272,1,0
336,328,79700,1,0
408,280,80128,1,4
400,192,81128,5,2
296,192,81556,1,2
192,192,81985,1,2
88,192,82413,1,2
88,112,82699,2,6,B|88:112|132:13|431:29|472:144,1,433.333333333333
376,160,84983,5,6
304,128,85412,1,6
224,128,85840,1,6
160,168,86269,1,6
256,344,99977,5,0
256,200,100834,1,0
304,80,101691,5,0
208,80,102547,1,0
120,168,103261,1,2
152,312,104261,5,0
288,344,105118,1,2
376,248,105974,1,0
400,120,106831,5,0
304,120,107688,1,0
208,120,108545,1,0
112,120,109402,1,6
32,192,110258,5,0
176,192,111115,1,0
320,192,111829,2,2,B|320:192|456:192,1,133.333333333333
288,32,113685,5,0
360,96,114542,1,0
352,184,115399,1,0
288,248,116256,2,6,B|288:248|296:288|208:343|144:256,1,166.666666666667
72,128,117969,5,0
192,160,118826,1,2
304,112,119683,1,0
296,224,120540,5,0
384,240,120968,1,0
448,184,121396,1,0
432,104,121825,1,0
352,80,122253,1,0
272,112,122682,1,0
192,152,123110,1,0
32,224,123967,5,0
80,336,124824,1,0
200,312,125538,2,6,B|200:312|207:259|265:236|320:272,1,133.333333333333
392,192,127394,5,0
256,104,128251,1,0
128,192,129107,1,0
192,256,129393,2,2,B|192:256|192:264,1,33.3333333333333
264,312,129821,1,4
456,328,130821,5,0
344,240,131678,1,0
272,168,132106,2,2,B|272:168|200:96,1,100
112,96,133249,1,4
112,192,133677,2,6,B|112:192|104:192,1,33.3333333333333
56,280,134248,5,0
152,280,135105,1,0
248,280,135962,1,0
344,280,136818,1,0
432,280,137675,5,0
472,208,138104,1,0
448,120,138532,1,0
376,64,138960,1,0
297,89,139389,2,6,B|297:89|217:-24|228:177|160:72,1,166.666666666667
88,144,141102,6,6,B|88:144|48:102|40:56,2,100
120,232,142387,1,0
168,320,142816,1,0
264,336,143244,1,0
344,296,143673,1,0
432,328,144101,1,0
464,248,144529,1,0
352,192,145386,5,2
256,152,145815,1,2
160,112,146243,2,4,B|160:112|64:112,1,66.6666666666667
64,192,147957,5,2
120,272,148385,1,2
176,192,148813,1,2
232,272,149242,2,4,B|232:272|278:261|336:272,2,100
400,104,150955,5,0
304,104,151384,1,0
208,104,151812,1,0
104,104,152240,1,2
152,168,152669,1,0
240,216,153097,5,2
296,272,153526,1,2
360,328,153954,1,2
432,328,154240,2,6,B|432:328|448:328,1,33.3333333333333
432,232,154668,5,0
432,232,154811,2,6,B|432:232|432:120,2,100
352,192,156096,1,0
280,240,156524,1,0
208,192,156953,1,0
224,104,157381,1,2
152,40,157809,1,0
64,56,158238,5,0
48,144,158666,1,2
72,232,159095,1,0
144,280,159523,1,0
232,288,159951,2,6,B|232:288|328:288,1,66.6666666666667
256,352,161665,5,0
256,272,162093,1,2
256,192,162522,2,6,B|256:192|256:96,1,66.6666666666667
192,120,163378,5,0
256,48,163807,1,0
320,120,164235,1,4
416,128,164664,2,6,B|416:128|397:152|392:200,1,66.6666666666667
392,194,165092,2,2,B|392:194|440:288,2,100
256,320,166806,5,2
256,240,167234,1,2
256,160,167662,1,2
256,80,168091,1,2
320,80,168376,2,6,B|320:80|477:76|507:196|503:325|320:336,1,433.333333333333
280,272,170661,5,6
360,248,171089,1,6
360,168,171518,1,6
280,144,171946,1,6
