osu file format v5

[General]
AudioFilename: 19 - Believe.mp3
AudioLeadIn: 0
PreviewTime: 58846
Countdown: 0
SampleSet: Soft
StackLeniency: 0.7
Mode: 0
LetterboxInBreaks: 1
EditorBookmarks: 12461,56382,107033,198416,221262

[Metadata]
Title:Believe
Artist:Ai
Creator:mattyu007
Version:Normal
Source:
Tags:

[Difficulty]
HPDrainRate:6
CircleSize:4
OverallDifficulty:6
SliderMultiplier:1.7
SliderTickRate:1

[Events]
//Background and Video events
0,0,"Believe bg.png"
//Break Periods
2,44519,58338
2,92518,107029
2,170055,198644
//Storyboard Layer 0 (Background)
//Storyboard Layer 1 (Failing)
//Storyboard Layer 2 (Passing)
//Storyboard Layer 3 (Foreground)
//Storyboard Sound Samples
//Background Colour Transformations
3,100,163,162,255

[TimingPoints]
935,461.538461538462,4,2,0,100
48473,461.538461538462,4,1,0,90
100626,461.538461538462,4,2,0,100
136164,461.538461538462,4,1,0,90
231702,461.538461538462,4,2,0,50

[HitObjects]
208,192,15242,1,0
80,256,15704,2,0,B|37:158|59:76|111:26|130:-21|220:-38|314:-27|372:8|416:48,2,510
192,272,18935,1,0
192,272,19165,1,0
128,320,19396,2,0,B|176:368|224:368|304:368|339:362|392:356|441:311|461:242|472:198|472:145|452:96|432:64|400:32|384:16,1,595
352,256,22165,5,0
255,215,22473,1,0
160,176,22781,1,0
57,116,23088,2,0,B|80:32|144:-32|256:-42|304:-32|412:-8|428:47|451:125|464:144,2,510
208,224,26319,1,0
128,224,26550,1,0
56,225,26781,2,0,B|81:303|145:367|257:377|305:367|413:343|429:288|452:210|465:191,1,510
288,208,28627,1,0
256,0,29550,1,0
432,256,30473,6,0,B|448:208|464:144|448:80|419:15|365:-16|304:-16|256:-16|160:0|112:32,2,510
272,256,33704,1,0
176,112,34165,5,0
336,112,34627,1,0
336,112,34858,1,0
432,256,35319,1,0
384,320,35550,2,0,B|304:368|240:373|160:377|102:348|47:279|42:180|43:120|70:86|128:16,1,595
256,0,37858,5,0
256,160,38319,1,0
256,160,38550,1,0
336,352,39242,1,0
176,352,39704,1,0
144,192,40627,5,0
256,192,40935,1,0
368,192,41242,1,0
455,124,41550,2,0,B|435:40|361:-20|249:-30|201:-20|93:4|77:59|54:137|64:160,2,510
256,272,59088,5,0
256,272,59319,1,0
256,272,59549,1,0
80,256,60011,2,0,B|31:132|78:3|141:-10|240:-49|325:-27|416:48,1,510
339,87,61626,2,0,B|286:51|206:38|160:65|120:95|125:175|144:256|192:272,1,340
156,336,63703,6,0,B|215:372|284:392|377:343|420:280,2,255
169,251,65319,2,0,B|252:332|338:291|379:237|398:170|362:124|352:64,1,340
7,45,66934,5,0
80,112,67165,1,0
96,16,67396,1,0
256,16,67857,1,0
256,16,68088,1,0
480,16,68780,1,0
512,96,69011,1,0
496,320,69703,1,0
416,352,69934,1,0
256,368,70396,1,0
144,240,71088,6,0,B|216:287|288:288|320:272|376:241|416:208,1,255
208,160,72242,1,0
304,80,72626,1,0
208,16,72934,1,0
16,176,73857,5,0
16,336,74319,1,0
176,336,74780,1,0
336,336,75242,1,0
416,336,75473,1,0
256,240,76165,1,0
336,128,76626,5,0
176,128,77088,1,0
96,128,77319,1,0
256,32,78011,1,0
400,208,78473,6,0,B|350:288|288:288|256:281|224:288|159:288|112:208,1,340
112,320,79857,2,0,B|175:378|258:360|331:369|368:368|416:336|467:307|507:252|519:191|526:108|480:32|432:0|400:0,1,680
176,64,82165,5,0
336,64,82626,1,0
336,64,82857,1,0
256,208,83319,1,0
333,343,83780,2,0,B|277:372|122:363|84:338|29:258|24:217|8:172|16:128,1,425
336,160,85626,5,0
336,160,85857,1,0
176,160,86319,1,0
176,160,86549,1,0
256,16,87011,1,0
256,192,87473,1,0
256,352,87934,1,0
368,112,88626,5,0
256,112,88934,1,0
144,112,89242,1,0
68,185,89549,2,0,B|89:299|256:387|449:296|466:161,2,510
112,320,107779,5,0
80,256,108010,2,0,B|35:157|72:16|110:-16|268:-52|364:-2|416:48,2,510
240,256,111241,1,0
336,128,111702,5,0
176,128,112164,1,0
176,128,112395,1,0
80,256,112856,1,0
128,320,113087,2,0,B|188:377|288:374|352:368|416:352|453:271|496:192|464:112|416:48|384:16,1,595
256,0,115395,5,0
256,160,115856,1,0
256,160,116087,1,0
176,352,116779,1,0
336,352,117241,1,0
368,96,118164,5,0
256,96,118472,1,0
144,96,118779,1,0
58,160,119087,2,0,B|105:310|260:328|384:316|464:144,2,510
404,74,122779,6,0,B|352:0|255:-8|138:-4|96:96,1,340
256,96,124164,1,0
144,176,124626,2,0,B|208:240|304:240|400:160,2,255
144,320,126472,6,0,B|208:384|304:384|400:304,1,255
448,176,127626,1,0
384,32,128087,2,0,B|311:-35|222:-36|105:-17|76:44|60:119|48:192,1,425
101,337,130164,6,0,B|201:248|261:337|365:417|445:309,1,340
448,48,131549,1,0
384,48,131780,2,0,B|284:137|224:48|120:-32|40:76,1,340
368,160,133856,5,0
368,160,134164,1,0
368,160,134472,1,0
256,160,134779,1,0
256,160,135087,1,0
256,160,135395,1,0
144,160,135702,1,0
256,272,136625,5,0
256,272,136856,1,0
256,272,137086,1,0
432,256,137548,2,0,B|481:132|434:3|371:-10|272:-49|187:-27|96:48,1,510
173,87,139163,2,0,B|226:51|306:38|352:65|392:95|387:175|368:256|320:272,1,340
356,336,141240,6,0,B|297:372|228:392|135:343|92:280,2,255
343,251,142856,2,0,B|260:332|174:291|133:237|114:170|150:124|160:64,1,340
505,45,144471,5,0
432,112,144702,1,0
416,16,144933,1,0
256,16,145394,1,0
256,16,145625,1,0
32,16,146317,1,0
0,96,146548,1,0
16,320,147240,1,0
96,352,147471,1,0
256,368,147933,1,0
368,240,148625,6,0,B|296:287|224:288|192:272|136:241|96:208,1,255
304,160,149779,1,0
208,80,150163,1,0
304,16,150471,1,0
496,176,151394,5,0
496,336,151856,1,0
336,336,152317,1,0
176,336,152779,1,0
96,336,153010,1,0
256,240,153702,1,0
176,128,154163,5,0
336,128,154625,1,0
416,128,154856,1,0
256,32,155548,1,0
112,208,156010,6,0,B|162:288|224:288|256:281|288:288|353:288|400:208,1,340
400,320,157394,2,0,B|337:378|254:360|181:369|144:368|96:336|45:307|5:252|-7:191|-14:108|32:32|80:0|112:0,1,680
336,64,159702,5,0
176,64,160163,1,0
176,64,160394,1,0
256,208,160856,1,0
179,343,161317,2,0,B|235:372|390:363|428:338|483:258|488:217|504:172|496:128,1,425
176,160,163163,5,0
176,160,163394,1,0
336,160,163856,1,0
336,160,164086,1,0
256,16,164548,1,0
256,192,165010,1,0
256,352,165471,1,0
144,112,166163,5,0
256,112,166471,1,0
368,112,166779,1,0
444,185,167086,2,0,B|423:299|256:387|63:296|46:161,2,510
256,272,199394,5,0
256,272,199625,1,0
256,272,199855,1,0
80,256,200317,2,0,B|31:132|78:3|141:-10|240:-49|325:-27|416:48,1,510
339,87,201932,2,0,B|286:51|206:38|160:65|120:95|125:175|144:256|192:272,1,340
156,336,204009,6,0,B|215:372|284:392|377:343|420:280,2,255
169,251,205625,2,0,B|252:332|338:291|379:237|398:170|362:124|352:64,1,340
7,205,207240,5,0
80,272,207471,1,0
96,176,207702,1,0
256,176,208163,1,0
256,176,208394,1,0
256,16,209086,1,0
336,16,209317,2,0,B|448:16|464:128,3,170
144,240,211394,6,0,B|216:287|288:288|320:272|376:241|416:208,1,255
208,160,212548,1,0
304,80,212932,1,0
208,16,213240,1,0
16,176,214163,5,0
16,336,214625,1,0
176,336,215086,1,0
336,336,215548,1,0
416,336,215779,1,0
256,240,216471,1,0
336,128,216932,5,0
176,128,217394,1,0
96,128,217625,1,0
256,32,218317,1,0
496,64,218779,5,0
416,112,219087,1,0
336,176,219394,1,0
256,112,219702,1,0
96,80,220164,5,0
144,160,220394,1,0
256,256,220856,1,0
256,16,221548,5,0
320,320,222471,6,0,B|352:344|399:355|486:343|481:312|536:279|547:258|526:210|554:183|543:143|526:125|499:60|459:39|409:28|363:32|317:49|255:78|303:115|259:121|259:198|261:211|259:228|246:244|248:276|271:356|220:451|140:524|-199:439|-151:200|-83:145|-15:95|47:77|66:79|89:63|123:72|145:83|187:76|244:142,2,1360
256,192,230779,12,0,235394
