osu file format v8

[General]
AudioFilename: OUENDAN 2 Believe.mp3
AudioLeadIn: 3000
PreviewTime: 59137
Countdown: 0
SampleSet: Soft
StackLeniency: 1
Mode: 0
LetterboxInBreaks: 0
SkinPreference:ouendan2

[Editor]
DistanceSpacing: 0.8
BeatDivisor: 4
GridSize: 8

[Metadata]
Title:Believe
Artist:Ai
Creator:loser101
Version:Karei ni Ouen
Source:Moero! Nekketsu Rhythm Damashii Osu! Tatakae! Ouendan 2
Tags:

[Difficulty]
HPDrainRate:10
CircleSize:4
OverallDifficulty:9
ApproachRate:9
SliderMultiplier:2.05
SliderTickRate:1

[Events]
//Background and Video events
0,0,"Insane.png"
Video,233600,"00000000.avi"
//Break Periods
2,44568,58537
2,92567,107229
2,170106,198845
//Storyboard Layer 0 (Background)
//Storyboard Layer 1 (Fail)
//Storyboard Layer 2 (Pass)
//Storyboard Layer 3 (Foreground)
//Storyboard Sound Samples
//Background Colour Transformations
3,100,8,57,255

[TimingPoints]
2830,461.538461538462,4,2,2,50,1,0
15637,-100,4,2,1,50,0,0
16560,-100,4,2,2,50,0,0
17253,-100,4,2,1,50,0,0
18406,-100,4,2,2,50,0,0
19330,-100,4,2,1,50,0,0
19791,-100,4,2,2,50,0,0
20945,-100,4,2,1,50,0,0
21406,-100,4,2,2,50,0,0
24637,-100,4,2,1,50,0,0
25791,-100,4,2,2,50,0,0
26714,-100,4,2,1,50,0,0
27176,-100,4,2,2,50,0,0
28099,-100,4,2,1,50,0,0
28445,-100,4,2,2,50,0,0
29137,-100,4,2,1,50,0,0
31445,-100,4,2,2,50,0,0
31906,-100,4,2,1,50,0,0
33176,-100,4,2,2,50,0,0
33983,-100,4,2,1,50,0,0
34791,-100,4,2,2,50,0,0
35483,-100,4,2,1,50,0,0
35945,-100,4,2,2,50,0,0
37791,-100,4,2,1,50,0,0
39522,-100,4,2,2,50,0,0
41483,-100,4,2,1,50,0,0
41945,-100,4,2,2,50,0,0
43330,-100,4,2,1,50,0,0
43791,-100,4,2,2,50,0,0
44253,-100,4,2,1,50,0,0
45291,-100,4,1,1,100,0,0
72810,-100,4,1,2,100,0,0
73445,-100,4,1,1,100,0,0
84868,-100,4,1,2,100,0,0
85330,-100,4,1,1,100,0,0
92253,-100,4,1,2,100,0,0
93291,-100,4,2,1,50,0,0
108983,-100,4,2,2,50,0,0
109445,-100,4,2,1,50,0,0
110714,-100,4,2,2,50,0,0
111522,-100,4,2,1,50,0,0
112330,-100,4,2,2,50,0,0
113022,-100,4,2,1,50,0,0
113483,-100,4,2,2,50,0,0
115291,-100,4,2,1,50,0,0
117060,-100,4,2,2,50,0,0
119022,-100,4,2,1,50,0,0
119483,-100,4,2,2,50,0,0
120868,-100,4,2,1,50,0,0
121330,-100,4,2,2,50,0,0
121791,-100,4,2,1,50,0,0
122137,-100,4,2,2,50,0,0
122714,-100,4,2,1,50,0,0
123637,-100,4,2,2,50,0,0
124560,-100,4,2,1,50,0,0
125022,-100,4,2,2,50,0,0
125253,-100,4,2,1,50,0,0
125483,-100,4,2,2,50,0,0
126291,-100,4,2,1,50,0,0
127445,-100,4,2,2,50,0,0
127906,-100,4,2,1,50,0,0
128483,-100,4,2,2,50,0,0
130060,-100,4,2,1,50,0,0
131022,-100,4,2,2,50,0,0
131714,-100,4,2,1,50,0,0
133330,-100,4,1,1,100,0,0
135599,-100,4,1,2,100,0,0
136214,-100,4,1,1,100,0,0
150349,-100,4,1,2,100,0,0
150983,-100,4,1,1,100,0,0
162406,-100,4,1,2,100,0,0
162868,-100,4,1,1,100,0,0
169791,-100,4,1,2,100,0,0
170830,-100,4,1,1,100,0,0
200368,-100,4,1,1,100,0,1
213118,-100,4,1,2,100,0,1
213753,-100,4,1,1,100,0,1
220676,-100,4,1,2,100,0,1
233656,-100,4,1,2,100,0,0

[Colours]
Combo1 : 240,0,0
Combo2 : 240,176,8
Combo3 : 48,240,40
Combo4 : 0,88,224

[HitObjects]
472,184,15291,1,8
456,264,15522,1,0
400,320,15753,2,0,B|328:376|256:376|168:376|80:288,1,307.5,10|0
64,256,16676,1,8
184,168,17137,1,0
160,248,17368,2,0,B|240:336|416:288|448:192|416:32|320:0,1,512.5,2|12
104,48,18983,5,8
96,128,19214,1,0
120,200,19445,2,0,B|144:288|256:312|368:288|384:192,1,307.5,10|0
352,152,20368,1,8
472,248,20830,1,0
416,304,21060,2,0,B|336:368|256:384|176:368|112:328,1,307.5,2|12
80,112,22214,5,0
192,136,22522,1,0
304,152,22830,1,0
416,176,23137,1,8
376,24,23599,1,0
376,24,23830,1,8
136,24,24522,1,0
80,80,24753,2,0,B|48:152|8:368|232:384|320:360|400:312,1,512.5,10|12
336,128,26368,5,0
336,128,26599,1,0
392,184,26830,2,0,B|344:272|256:296|152:264|120:176,2,307.5,10|0|2
272,64,28676,1,12
256,368,29599,1,4
464,56,30522,6,0,B|488:128|504:208|424:288,1,205,10|0
392,312,31214,1,0
256,368,31676,1,8
160,248,32137,2,0,B|240:336|416:288|448:192|416:32|320:0,1,512.5,2|12
296,104,33522,5,0
272,184,33753,1,8
256,368,34214,2,0,B|136:368|56:248,1,205,10|0
40,192,34906,1,8
88,48,35368,1,0
152,8,35599,2,0,B|264:-16|432:-24|464:200,1,410,2|12
328,248,37291,5,0
216,208,37599,1,0
120,160,37906,2,0,B|168:72|256:48|360:80|392:168,2,307.5,10|0|0
0,88,39753,1,12
160,224,40676,5,0
256,144,41022,1,0
344,224,41368,1,0
456,224,41599,2,0,B|416:352|256:424|80:360|48:176,1,512.5,10|0
136,184,42983,1,8
136,184,43214,1,0
64,136,43445,2,0,B|144:-24|240:0|352:-8|408:72,1,410,2|4
256,136,59137,5,8
304,192,59368,1,0
232,224,59599,1,2
152,256,59830,1,0
112,320,60060,2,0,B|152:384|256:384|352:384|400:312,2,307.5,4|2|0
72,264,61676,2,0,B|40:168|48:48|216:-16,1,307.5,4|0
256,0,62599,1,4
392,320,63753,6,0,B|352:384|248:384|152:384|104:312,2,307.5,4|2|0
440,264,65368,2,0,B|472:168|464:48|296:-16,1,307.5,4|0
256,0,66291,1,4
216,104,66983,5,8
296,104,67214,1,0
352,168,67445,2,0,B|256:232|152:160,1,205,2|0
120,232,68137,2,0,B|256:320|416:224,1,307.5,2|0
408,312,69060,2,0,B|256:392|104:312,1,307.5,2|0
48,264,69983,1,2
48,104,70445,1,8
432,104,71137,6,0,B|352:56|232:56|192:104,1,205
152,104,71830,1,8
304,192,72291,1,0
200,264,72637,1,8
304,336,72983,1,12
512,152,73906,6,0,B|432:32|352:152,1,205,8|0
296,104,74599,1,0
296,184,74830,1,8
136,184,75291,1,0
56,184,75522,1,8
176,64,75983,1,0
176,64,76214,1,2
216,208,76676,5,8
376,208,77137,1,0
456,208,77368,1,8
336,328,77830,1,0
336,328,78060,1,8
336,328,78291,1,0
256,352,78522,6,0,B|256:208,3,136.666666666667,2|0|0|8
120,304,79906,1,0
56,264,80137,2,0,B|16:160|16:-24|256:-40|360:24,1,512.5,2|0
416,64,81522,5,0
416,64,81753,1,8
360,224,82214,2,0,B|256:272|160:224,1,205,2|0
160,144,82906,2,0,B|256:200|360:144,1,205,2|8
456,264,83829,2,0,B|496:160|496:-24|256:-40|152:24,1,512.5,2|12
32,144,85676,5,0
104,200,85906,2,0,B|176:248|256:264|344:240,1,205,8|0
384,248,86599,1,2
256,328,87060,1,8
256,168,87522,1,0
256,8,87983,1,2
176,232,88676,5,8
256,168,89022,1,0
336,232,89368,1,2
448,224,89599,2,0,B|408:352|248:424|72:360|40:176,1,512.5,4|0
120,184,90983,1,8
56,144,91214,2,4,B|96:16|256:-56|432:8|456:192,1,512.5,4|12
72,0,107829,5,0
32,72,108060,2,0,B|8:144|16:224|80:312,1,205,10|0
104,336,108753,1,0
256,368,109214,1,8
352,248,109676,2,0,B|272:336|96:288|64:192|96:32|192:0,1,512.5,2|12
216,104,111060,5,0
232,184,111291,1,8
256,368,111753,2,0,B|376:368|456:248,1,205,10|0
464,200,112445,1,8
424,56,112906,1,0
360,8,113137,2,0,B|248:-16|80:-24|48:200,1,410,2|12
184,248,114829,5,0
296,208,115137,1,0
392,160,115445,2,0,B|344:72|256:48|152:80|120:168,2,307.5,10|0|0
512,88,117291,1,12
344,224,118214,5,0
256,144,118560,1,0
160,224,118906,1,0
56,224,119137,2,0,B|96:352|256:424|432:360|464:176,1,512.5,10|0
376,184,120522,1,8
376,184,120753,1,0
448,136,120983,2,0,B|368:-24|272:0|160:-8|104:72,1,410,2|4
200,192,122368,5,8
136,232,122599,1,0
72,288,122829,2,0,B|128:368|256:384|384:368|448:272,1,410,2|8
264,248,124214,1,0
336,208,124445,1,0
392,152,124676,2,0,B|240:48|104:160,2,307.5,2|0|8
384,32,126522,6,0,B|344:-8|248:-24|152:16,1,205,2|0
104,48,127214,1,0
56,184,127676,1,8
128,320,128137,2,0,B|224:424|520:376|448:112,1,512.5,2|0
376,200,129599,5,0
328,96,129906,1,8
416,24,130214,2,2,B|304:-40|256:-16|176:112|16:16,1,410,2|12
48,216,131599,1,8
96,280,131829,2,2,B|208:344|256:320|336:192|488:288,1,410,2|4
144,0,133906,5,2
144,0,134214,1,8
144,0,134522,1,0
256,0,134830,1,2
256,0,135137,1,8
256,0,135445,1,0
368,0,135753,1,12
256,136,136676,5,8
208,192,136906,1,0
280,224,137137,1,2
352,256,137368,1,0
392,320,137599,2,0,B|352:384|248:384|152:384|104:312,2,307.5,4|2|0
440,264,139214,2,0,B|472:168|464:48|296:-16,1,307.5,4|0
256,0,140137,1,4
120,320,141291,6,0,B|160:384|264:384|360:384|408:312,2,307.5,4|2|0
72,264,142906,2,0,B|40:168|48:48|216:-16,1,307.5,4|0
256,0,143829,1,4
296,104,144522,5,8
216,104,144753,1,0
160,168,144983,2,0,B|256:232|360:160,1,205,2|0
392,232,145676,2,0,B|256:320|96:224,1,307.5,2|0
104,312,146599,2,0,B|256:392|408:312,1,307.5,2|0
464,264,147522,1,2
464,104,147983,1,8
80,104,148676,6,0,B|160:56|280:56|320:104,1,205
352,104,149368,1,8
208,192,149830,1,0
304,264,150176,1,8
208,336,150522,1,12
0,152,151445,6,0,B|80:32|160:152,1,205,8|0
216,104,152137,1,0
216,184,152368,1,8
376,184,152829,1,0
456,184,153060,1,8
336,64,153522,1,0
336,64,153753,1,2
296,208,154214,5,8
136,208,154676,1,0
56,208,154906,1,8
176,328,155368,1,0
176,328,155599,1,8
176,328,155829,1,0
256,352,156060,6,0,B|256:208,3,136.666666666667,2|0|0|8
384,304,157445,1,0
456,264,157676,2,0,B|496:160|496:-24|256:-40|152:24,1,512.5,2|0
96,64,159060,5,0
96,64,159291,1,8
152,224,159753,2,0,B|256:272|352:224,1,205,2|0
352,144,160445,2,0,B|256:200|152:144,1,205,2|8
56,264,161368,2,0,B|16:160|16:-24|256:-40|360:24,1,512.5,2|12
472,144,163214,5,0
408,200,163445,2,0,B|336:248|256:264|168:240,1,205,8|0
128,248,164137,1,2
256,328,164599,1,8
256,168,165060,1,0
256,8,165522,1,2
336,232,166214,5,8
256,168,166560,1,0
176,232,166906,1,2
64,224,167137,2,0,B|104:352|264:424|440:360|472:176,1,512.5,4|0
384,184,168522,1,8
456,144,168753,2,4,B|416:16|256:-56|80:8|56:192,1,512.5,4|12
256,128,199445,5,4
304,184,199676,1,0
232,216,199906,1,2
152,248,200137,1,0
120,312,200368,2,0,B|160:376|264:376|360:376|408:304,2,307.5,4|2|0
72,256,201983,2,0,B|40:160|48:40|216:-24,1,307.5,4|0
256,0,202906,1,4
392,312,204060,6,0,B|352:376|248:376|152:376|104:304,2,307.5,4|2|0
440,256,205676,2,0,B|472:160|464:40|296:-24,1,307.5,4|0
256,0,206599,1,4
216,104,207291,5,8
296,104,207522,1,0
352,168,207753,2,0,B|256:232|152:160,1,205,2|0
120,232,208445,2,0,B|256:320|416:224,1,307.5,2|0
408,312,209368,2,0,B|336:352|256:360|176:344,3,205,4|2|2|8
432,104,211445,6,0,B|352:56|232:56|192:104,1,205
152,104,212137,1,8
304,192,212599,1,0
200,264,212945,1,8
304,336,213291,1,12
488,48,214214,5,0
424,96,214445,1,0
368,144,214676,1,8
296,104,214906,1,0
296,184,215137,1,2
136,184,215599,1,0
56,184,215830,1,8
176,64,216291,1,0
176,64,216522,1,4
216,208,216983,5,2
376,208,217445,1,0
456,208,217676,1,8
336,328,218137,1,0
256,328,218368,1,4
176,328,218599,1,0
96,304,218830,5,8
152,224,219137,1,0
216,144,219445,1,0
256,240,219753,1,2
416,304,220214,5,2
360,232,220445,1,0
288,96,220906,1,12
256,360,221599,5,4
192,40,222522,6,4,B|160:8|128:8|96:24|64:8|32:8|0:40|0:72|-16:104|-96:136|-16:168|0:200|0:232|0:264|0:296|32:328|64:328|96:328|128:72|160:328|192:328|224:328|256:296|256:264|128:232|240:200|256:168|256:136|224:104|384:72|256:40|256:8|288:-24|320:-24|352:-24|384:136|416:-24|448:-24|480:-24|512:8|512:40|512:72|528:104|608:136|528:168|512:200|512:232|512:264|480:296|448:264|416:296|384:264|352:296|288:232,2,1435,4|4|12
256,192,229906,12,12,233599
