osu file format v5

[General]
AudioFilename: 03 - Maria.mp3
AudioLeadIn: 0
PreviewTime: -1
Countdown: 1
SampleSet: Normal
StackLeniency: 0.7
Mode: 0
LetterboxInBreaks: 1
EditorBookmarks: 40950,183825

[Metadata]
Title:Maria
Artist:Ah-jung Kim
Creator:Utena
Version:Easy
Source:
Tags:

[Difficulty]
HPDrainRate:4
CircleSize:2
OverallDifficulty:4
SliderMultiplier:0.9
SliderTickRate:1

[Events]
//Background and Video events
0,0,"bg.jpg"
//Break Periods
2,67784,75200
2,107150,114255
//Storyboard Layer 0 (Background)
//Storyboard Layer 1 (Failing)
//Storyboard Layer 2 (Passing)
//Storyboard Layer 3 (Foreground)
//Storyboard Sound Samples
//Background Colour Transformations
3,100,0,0,0

[TimingPoints]
6084,375,4,2,0,100,1
40959,375,4,1,0,100,0

[Colours]
Combo1 : 255,191,0
Combo2 : 187,196,32
Combo3 : 133,99,173
Combo4 : 200,38,38

[HitObjects]
168,128,6084,2,2,B|269:69|368:152,1,180
344,272,7584,2,2,B|243:331|144:248,1,180
32,256,9084,2,2,B|-27:155|56:56,1,180,2|2
176,96,10584,2,2,B|235:197|152:296,1,180,2|2
312,296,12084,5,2
400,184,12834,1,2
336,56,13584,1,2
192,48,14334,2,2,B|144:144|216:256,1,180
336,256,15834,2,2,B|452:292|472:160,2,180
192,264,18084,5,2
120,264,18459,1,2
120,192,18834,2,2,B|-8:192,1,90
136,88,19959,2,2,B|154:16|200:88,2,90
88,144,21084,2,2,B|88:272,1,90
296,280,22584,1,2
296,136,23334,1,2
176,208,24084,2,2,B|136:208|136:256|176:264|216:256|240:216|224:176|200:160|168:144,1,180
192,80,25209,2,2,B|288:80,1,90
352,80,25959,5,2
352,152,26334,2,2,B|352:272,1,90
280,248,27084,1,2
136,248,27834,1,2
96,112,28584,2,2,B|147:61|192:128,3,90
248,120,30084,5,2
312,152,30459,1,2
376,184,30834,1,2
440,216,31209,1,2
152,184,32709,1,2
80,184,33084,1,2
152,184,33459,2,2,B|80:96,1,90
160,80,34209,6,2,B|280:80,1,90
320,80,34959,2,2,B|432:80,1,90
296,168,36084,6,2,B|272:224|360:208|360:296|312:360,1,180
256,320,37209,2,2,B|152:320,1,90
104,280,37959,2,2,B|168:213|280:256,1,180
336,216,39084,2,2,B|312:136|272:122|216:112|176:128,2,180
336,288,40959,1,2
192,288,41709,1,2
48,288,42459,1,2
40,144,43209,2,0,B|152:144,1,90
200,144,43959,2,0,B|200:264,1,90
128,256,44709,2,0,B|-8:256,1,90
32,184,45459,6,0,B|113:122|208:192,1,180
272,184,46584,2,0,B|392:184,1,90
432,184,47334,1,0
432,256,47709,1,0
360,256,48084,2,2,B|294:264|264:240,4,90
256,88,50334,5,0
256,232,51084,1,0
168,120,51834,2,0,B|72:72|8:136|0:168,1,180
80,280,53334,1,0
224,296,54084,2,2,B|172:255|248:192,4,90
296,304,55959,5,0
328,240,56334,1,0
360,176,56709,1,0
272,56,57459,2,0,B|152:56,1,90
112,64,58209,2,0,B|112:184,1,90
104,224,58959,6,0,B|304:224,1,180
352,192,60084,2,2,B|429:236|424:272,4,90
240,96,62334,1,0
168,96,62709,2,0,B|104:96,2,45
240,96,63459,5,0
384,104,64209,1,0
392,248,64959,1,0
176,248,66084,2,2,B|100:230|136:176,4,90
144,104,76396,6,2,B|152:72|104:64|80:88|80:128|112:168|136:176|176:184|216:160|224:104|208:56|192:40|144:16|88:0|48:48|24:80|24:136|48:168|72:208|104:208|104:208|144:224|181:248|248:136,1,675
280,200,79584,2,0,B|376:200,1,90
416,144,80334,2,0,B|320:144,1,90
248,144,81084,1,0
128,64,81834,6,0,B|128:168,1,90
128,224,82584,1,0
200,224,82959,1,0
200,152,83334,2,0,B|200:48,1,90
272,64,84084,2,2,B|294:119|344:80,4,90
344,80,85959,6,0,B|248:24|128:32|64:80,1,270
64,136,87459,1,0
64,208,87834,2,0,B|64:312,1,90
136,296,88584,1,0
176,232,88959,2,0,B|272:240|272:304,1,90
272,136,90084,6,2,B|208:112|184:144,4,90
320,192,91959,1,0
408,80,92709,1,0
264,80,93459,1,0
192,80,93834,2,0,B|80:80,3,90
256,232,96084,6,2,B|256:120,4,90
288,296,97959,2,0,B|432:272|392:168,1,180
384,112,99084,2,0,B|264:120,1,90
224,120,99834,6,0,B|152:114|96:112,1,90
96,176,100584,2,0,B|120:224|192:216,1,90
216,256,101334,2,0,B|188:309|112:296,1,90
136,232,102084,2,2,B|193:199|168:136,4,90
256,192,103959,12,2,106959
56,192,115584,6,0,B|168:192,1,90
152,120,116334,1,0
224,120,116709,1,0
296,120,117084,6,0,B|384:120|408:208|360:264,1,180
232,264,118584,2,0,B|120:264,2,90
360,208,120084,6,0,B|404:165|480:184,1,90
432,240,120834,2,0,B|400:288|336:272,1,90
280,280,121584,2,0,B|216:192,1,90
184,144,122334,1,0
320,112,123084,2,0,B|376:184,1,90
360,256,123834,2,0,B|280:256,2,45
432,264,124584,6,2,B|448:168|424:104|368:72,1,180
320,112,125709,2,2,B|240:120|200:160|208:232|272:280|344:248|376:216,2,270
56,88,130584,5,0
56,232,131334,1,0
240,128,132459,2,0,B|344:128,2,90
168,128,133584,1,0
168,200,133959,1,0
368,272,135084,6,2,B|388:213|464:216,4,90
224,256,137334,1,0
112,256,137896,1,0
96,72,138834,1,0
168,72,139209,1,0
240,72,139584,1,0
264,216,140334,6,0,B|192:200|192:128,1,90
328,104,141459,1,0
408,272,142584,2,0,B|304:280,1,90
248,264,143334,2,0,B|176:200,1,90
120,160,144084,1,0
224,56,144834,5,0
288,88,145209,1,0
328,144,145584,1,0
400,144,145959,1,0
184,120,147084,5,2
248,88,147459,1,2
320,104,147834,1,2
328,176,148209,1,2
272,224,148584,1,2
184,344,149334,2,0,B|56:344,1,90
72,272,150084,1,0
72,200,150459,1,0
72,128,150834,1,0
144,128,151209,2,0,B|240:128,1,90
240,200,151959,6,0,B|32:200,1,180
64,272,153084,2,2,B|8:320|64:352,4,90
248,312,157209,6,0,B|184:240,1,90
184,168,157959,2,0,B|264:96,1,90
192,64,158709,1,0
120,64,159084,2,2,B|80:104|120:168,4,90
176,192,161334,5,0
280,192,161896,1,0
456,192,162834,1,0
448,264,163209,2,0,B|368:264,1,45
328,272,163771,1,0
80,232,165084,2,2,B|80:328,4,90
368,264,168084,6,2,B|120:264|88:264,1,270
40,216,169584,2,0,B|40:104,1,90
96,80,170334,2,0,B|192:80,1,90
256,88,171084,2,2,B|352:88,4,90
200,224,173334,5,0
272,224,173709,2,0,B|336:224,1,45
424,224,174459,1,0
360,96,175209,1,0
288,80,175584,2,0,B|216:88|254:176|144:176|136:208,1,180
104,248,176709,6,0,B|208:248,1,90
304,240,177646,5,0
312,128,178209,6,0,B|416:128,1,90
512,128,179146,5,0
496,232,179709,6,0,B|392:232,1,90
296,232,180646,5,0
336,56,181584,5,0
256,128,182146,6,4,B|288:96|240:80|184:104|160:160|224:208|272:208|320:168|344:104|296:48|240:32|168:72|128:112|136:184|160:224|188:203|193:226|216:216,1,405
