osu file format v12

[General]
AudioFilename: agung hercules astuti_01.mp3
AudioLeadIn: 3000
PreviewTime: 86811
Countdown: 1
SampleSet: Normal
StackLeniency: 0.7
Mode: 0
LetterboxInBreaks: 1

[Editor]
DistanceSpacing: 1.1
BeatDivisor: 4
GridSize: 8

[Metadata]
Title:Astuti
TitleUnicode:Astuti
Artist:Agung Hercules
ArtistUnicode:Agung Hercules
Creator:razorleaf
Version:Normal
Source:
Tags:Pasha Indonesia
BeatmapID:189767
BeatmapSetID:64488

[Difficulty]
HPDrainRate:1
CircleSize:3
OverallDifficulty:2
ApproachRate:4
SliderMultiplier:1
SliderTickRate:1

[Events]
//Background and Video events
0,0,"bgagher.jpg",0,0
Video,0,"Agung Hercules Astuti.avi"
//Break Periods
2,90106,93176
2,131732,136335
2,143681,148666
2,164108,173329
//Storyboard Layer 0 (Background)
//Storyboard Layer 1 (Fail)
//Storyboard Layer 2 (Pass)
//Storyboard Layer 3 (Foreground)
//Storyboard Sound Samples
//Background Colour Transformations
3,100,163,162,255

[TimingPoints]
490.144611858766,385.422091084031,4,1,0,70,1,0
76009,-100,4,1,0,70,0,1
89918,-100,4,1,0,70,0,0
119217,-100,4,1,0,70,0,1
131500,-100,4,1,0,70,0,0
149996,-100,4,1,0,70,0,1
163869,-100,4,1,0,70,0,0
193156,-100,4,1,0,100,0,1
207028,-100,4,1,0,100,0,0

[HitObjects]
72,192,470,6,2,P|152:80|232:176,1,300,2|10,0:0|0:0,0:0:0:0:
184,264,2031,1,0,0:0:0:0:
280,312,2417,1,0,0:0:0:0:
376,264,2802,1,0,0:0:0:0:
312,176,3188,2,0,P|352:128|400:128,1,100,2|4,0:0|0:0,0:0:0:0:
480,184,3958,5,0,0:0:0:0:
400,264,4344,1,0,0:0:0:0:
288,280,4729,1,8,0:0:0:0:
192,232,5115,2,0,L|80:232,1,100
88,176,5693,2,0,L|208:176,1,100
192,120,6271,1,10,0:0:0:0:
296,88,6656,6,0,P|392:120|328:272,1,300,4|2,0:0|0:0,0:0:0:0:
272,184,8198,2,0,P|176:216|240:368,1,300,4|2,0:0|0:0,0:0:0:0:
312,296,9740,2,0,L|424:296,1,100
416,240,10318,2,0,L|304:240,1,100
312,184,10896,1,2,0:0:0:0:
256,88,11281,5,0,0:0:0:0:
144,88,11667,2,0,L|32:88,2,100,0|0|2,0:0|0:0|0:0,0:0:0:0:
256,88,12823,2,4,P|320:48|360:208,1,300
264,184,14365,6,0,L|160:216,1,100,4|0,0:0|0:0,0:0:0:0:
64,248,15136,2,0,P|104:312|232:320,1,200
320,288,16292,1,0,0:0:0:0:
416,240,16677,1,0,0:0:0:0:
352,152,17063,2,0,L|304:120,1,50,8|0,0:0|0:0,0:0:0:0:
256,112,17448,5,0,0:0:0:0:
144,112,17834,2,0,P|72:176|128:248,1,200
232,248,18990,1,0,0:0:0:0:
328,296,19375,2,0,L|424:232,2,100,0|0|8,0:0|0:0|0:0,0:0:0:0:
216,304,20532,6,0,P|104:240|192:128,1,300,0|2,0:0|0:0,0:0:0:0:
248,216,22073,1,0,0:0:0:0:
360,216,22459,1,0,0:0:0:0:
432,136,22844,1,0,0:0:0:0:
328,104,23230,2,0,P|272:64|248:80,1,100,2|0,0:0|0:0,0:0:0:0:
152,112,24000,6,0,L|144:216,1,100
256,192,24771,2,0,L|272:304,1,100,2|0,0:0|0:0,0:0:0:0:
368,248,25542,1,0,0:0:0:0:
344,144,25928,2,0,P|456:144|472:224,1,200,0|4,0:0|0:0,0:0:0:0:
368,248,27084,6,0,L|256:248,2,100,0|0|2,0:0|0:0|0:0,0:0:0:0:
288,168,28240,2,0,L|176:168,2,100,0|0|0,0:0|0:0|0:0,0:0:0:0:
216,88,29396,1,2,0:0:0:0:
112,120,29782,2,0,L|112:240,1,100
168,232,30360,2,0,L|168:344,1,100
224,336,30938,1,10,0:0:0:0:
328,296,31323,6,4,P|416:160|232:88,1,400
200,184,33251,1,0,0:0:0:0:
96,224,33636,1,0,0:0:0:0:
184,288,34021,1,8,0:0:0:0:
296,264,34407,2,0,P|360:176|296:104,1,200
208,120,35563,2,0,L|96:120,1,100,8|0,0:0|0:0,0:0:0:0:
48,208,36334,5,0,0:0:0:0:
112,296,36719,1,0,0:0:0:0:
176,208,37105,1,8,0:0:0:0:
288,208,37490,2,0,L|400:208,2,100
312,80,39032,6,0,P|216:48|144:128,1,200,4|0,0:0|0:0,0:0:0:0:
248,160,40188,1,8,0:0:0:0:
344,216,40574,2,0,P|248:304|192:272,1,200
104,232,41730,1,8,0:0:0:0:
40,144,42115,5,0,0:0:0:0:
152,136,42501,1,0,0:0:0:0:
88,48,42886,2,0,L|192:48,1,100,0|8,0:0|0:0,0:0:0:0:
280,104,43657,5,4,0:0:0:0:
336,200,44042,1,4,0:0:0:0:
392,104,44428,1,4,0:0:0:0:
176,160,45199,6,2,P|72:208|160:336,1,300,6|8,0:0|0:0,0:0:0:0:
240,272,46740,1,0,0:0:0:0:
352,264,47126,1,0,0:0:0:0:
280,184,47511,2,0,L|264:80,1,100,0|8,0:0|0:0,0:0:0:0:
152,96,48282,6,0,P|56:72|40:160,1,200,2|0,0:0|0:0,0:0:0:0:
128,216,49438,1,8,0:0:0:0:
88,320,49824,5,4,0:0:0:0:
200,312,50209,1,4,0:0:0:0:
312,304,50595,1,4,0:0:0:0:
160,136,51365,6,2,P|208:80|352:192,1,300,6|0,0:0|0:0,0:0:0:0:
248,216,52907,2,2,P|80:232|72:144,1,300,2|0,0:0|0:0,0:0:0:0:
168,88,54449,6,0,L|288:88,1,100,2|0,0:0|0:0,0:0:0:0:
256,144,55027,2,0,L|136:144,1,100,2|0,0:0|0:0,0:0:0:0:
144,200,55605,1,2,0:0:0:0:
240,256,55990,2,6,L|344:256,2,100
344,64,57532,6,0,P|392:160|344:248,1,200,4|0,0:0|0:0,0:0:0:0:
272,168,58688,1,0,0:0:0:0:
160,184,59074,2,0,P|72:128|64:192,1,200
104,280,60230,1,8,0:0:0:0:
216,296,60615,6,0,B|288:344|368:248|416:296,1,200
456,216,61772,2,0,L|408:112,1,100,8|0,0:0|0:0,0:0:0:0:
304,96,62543,1,4,0:0:0:0:
224,168,62928,1,4,0:0:0:0:
120,200,63313,6,0,L|48:112,1,100,0|4,0:0|0:0,0:0:0:0:
168,96,64084,1,0,0:0:0:0:
240,176,64470,2,0,P|296:264|360:216,1,200
344,112,65626,1,0,0:0:0:0:
440,168,66011,1,0,0:0:0:0:
440,280,66397,2,0,L|344:336,1,100,8|0,0:0|0:0,0:0:0:0:
248,304,67168,6,0,P|144:232|232:120,1,300,0|4,0:0|0:0,0:0:0:0:
168,32,68709,2,0,L|288:32,1,100,4|2,0:0|0:0,0:0:0:0:
376,40,69480,1,2,0:0:0:0:
384,144,69866,6,0,L|336:296,2,150,4|0|8,0:0|0:0|0:0,0:0:0:0:
272,152,71407,2,0,P|160:144|184:304,1,300,0|8,0:0|0:0,0:0:0:0:
280,272,72949,5,0,0:0:0:0:
384,296,73334,1,0,0:0:0:0:
352,192,73720,1,0,0:0:0:0:
264,128,74105,1,8,0:0:0:0:
160,152,74491,2,2,P|128:256|184:328,1,200,0|4,0:0|0:0,0:0:0:0:
256,120,76032,5,4,0:0:0:0:
360,88,76418,1,0,0:0:0:0:
376,200,76803,1,0,0:0:0:0:
272,232,77189,1,8,0:0:0:0:
296,336,77574,2,0,L|408:336,3,100,0|0|0|8,0:0|0:0|0:0|0:0,0:0:0:0:
400,224,79116,6,0,P|416:136|328:56,1,200,4|0,0:0|0:0,0:0:0:0:
288,160,80272,1,8,0:0:0:0:
176,160,80657,2,0,L|56:160,2,100
64,344,82199,6,0,B|136:240|240:376|368:312,1,300,4|8,0:0|0:0,0:0:0:0:
408,232,83741,2,0,P|376:176|272:240,1,200
168,240,84897,1,8,0:0:0:0:
88,168,85283,6,0,L|168:96,1,100,4|0,0:0|0:0,0:0:0:0:
256,168,86053,1,0,0:0:0:0:
312,72,86439,1,8,0:0:0:0:
256,192,86824,12,4,89906,0:0:0:0:
80,160,94533,6,2,P|128:88|320:232,1,400
216,232,96460,2,0,L|176:328,1,100
288,336,97231,2,0,L|400:336,1,100,8|0,0:0|0:0,0:0:0:0:
392,224,98001,5,0,0:0:0:0:
408,112,98387,1,0,0:0:0:0:
304,152,98772,1,8,0:0:0:0:
200,120,99158,2,0,P|128:88|120:184,1,200
208,240,100314,1,10,0:0:0:0:
112,296,100699,6,0,P|216:344|304:296,1,200,4|0,0:0|0:0,0:0:0:0:
352,224,101856,1,8,0:0:0:0:
384,120,102241,1,0,0:0:0:0:
280,144,102626,1,0,0:0:0:0:
304,40,103012,1,0,0:0:0:0:
112,160,103783,6,2,P|136:264|208:232,1,200
232,136,104939,1,0,0:0:0:0:
336,176,105324,2,0,L|416:248,1,100,4|0,0:0|0:0,0:0:0:0:
328,312,106095,2,0,L|248:248,1,100,4|0,0:0|0:0,0:0:0:0:
176,168,106866,6,0,L|208:56,1,100,4|0,0:0|0:0,0:0:0:0:
288,144,107637,2,0,P|288:240|208:312,1,200
128,240,108793,1,0,0:0:0:0:
64,152,109179,1,0,0:0:0:0:
160,104,109564,2,8,P|192:144|240:128,1,100,8|0,0:0|0:0,0:0:0:0:
304,216,110335,5,0,0:0:0:0:
400,160,110720,2,0,L|408:264,1,100,0|8,0:0|0:0,0:0:0:0:
320,320,111491,1,0,0:0:0:0:
216,296,111877,2,0,L|112:264,1,100
104,160,112647,2,0,P|160:104|208:184,1,200,8|0,0:0|0:0,0:0:0:0:
320,168,113804,6,0,L|328:64,1,100,0|8,0:0|0:0,0:0:0:0:
216,72,114575,1,0,0:0:0:0:
128,136,114960,1,0,0:0:0:0:
176,232,115345,1,0,0:0:0:0:
288,248,115731,1,8,0:0:0:0:
392,208,116116,6,0,P|432:120|352:88,1,200
280,168,117273,2,0,L|208:256,1,100,8|0,0:0|0:0,0:0:0:0:
112,224,118043,2,4,L|64:128,1,100
176,96,118814,1,0,0:0:0:0:
272,152,119200,6,0,P|344:272|432:176,1,300,4|0,0:0|0:0,0:0:0:0:
376,96,120741,2,0,P|280:24|216:64,1,200,4|0,0:0|0:0,0:0:0:0:
168,152,121898,1,0,0:0:0:0:
112,248,122283,6,4,P|192:312|352:232,1,300
328,128,123825,2,2,L|288:80,1,50
248,120,124210,2,2,L|208:160,1,50
160,160,124596,2,0,L|56:160,2,100,0|0|4,0:0|0:0|0:0,0:0:0:0:
128,264,125752,6,2,P|216:312|288:256,1,200
384,216,126908,1,0,0:0:0:0:
416,112,127294,1,0,0:0:0:0:
304,136,127679,2,0,L|232:144,2,50,0|0|8,0:0|0:0|0:0,0:0:0:0:
256,192,128450,12,4,131532,0:0:0:0:
64,168,137700,6,0,P|96:104|256:184,1,300,4|8,0:0|0:0,0:0:0:0:
160,240,139242,2,0,L|72:304,1,100
184,328,140012,1,0,0:0:0:0:
288,304,140398,1,8,0:0:0:0:
328,200,140783,6,0,P|304:112|216:144,1,200
128,192,141940,1,8,0:0:0:0:
136,296,142325,2,4,L|256:296,1,100
344,296,143096,2,0,L|232:296,1,100,4|10,0:0|0:0,0:0:0:0:
96,136,150033,6,2,P|176:48|280:224,1,400
168,216,151961,1,0,0:0:0:0:
104,304,152346,1,0,0:0:0:0:
216,312,152731,2,0,P|256:328|320:304,1,100,8|4,0:0|0:0,0:0:0:0:
408,256,153502,2,0,L|400:152,1,100
296,136,154273,1,8,0:0:0:0:
184,152,154658,6,2,P|80:128|112:328,1,400,2|6,0:0|0:0,0:0:0:0:
208,280,156586,2,0,L|312:272,1,100
288,160,157356,1,8,0:0:0:0:
376,96,157742,2,0,L|448:96,1,50
432,152,158127,2,0,L|432:208,1,50
432,256,158513,1,0,0:0:0:0:
320,264,158898,1,8,0:0:0:0:
224,216,159284,6,2,P|144:144|96:200,1,200
160,288,160440,1,10,0:0:0:0:
256,192,160825,12,4,163908,0:0:0:0:
128,176,174700,6,0,L|216:120,1,100
232,232,175471,1,0,0:0:0:0:
344,248,175857,2,0,P|336:168|344:136,1,100,8|0,0:0|0:0,0:0:0:0:
336,40,176628,1,0,0:0:0:0:
232,72,177013,1,0,0:0:0:0:
128,112,177398,1,8,0:0:0:0:
88,216,177784,6,0,L|152:224,2,50
72,272,178362,2,0,L|112:304,3,50,0|0|0|8,0:0|0:0|0:0|0:0,0:0:0:0:
160,320,179133,2,0,L|216:320,1,50,0|4,0:0|0:0,0:0:0:0:
304,264,179711,1,4,0:0:0:0:
320,152,180096,1,4,0:0:0:0:
104,88,180867,6,0,P|64:184|128:248,1,200,4|0,0:0|0:0,0:0:0:0:
216,184,182023,1,8,0:0:0:0:
312,136,182409,2,0,P|352:248|296:296,1,200
192,304,183565,1,8,0:0:0:0:
128,216,183951,6,0,L|184:128,1,100
256,216,184721,2,0,L|304:120,1,100,0|8,0:0|0:0,0:0:0:0:
408,136,185492,1,0,0:0:0:0:
400,248,185878,2,0,P|360:336|256:336,1,200,0|8,0:0|0:0,0:0:0:0:
168,296,187034,6,0,L|88:224,1,100,0|0,0:0|0:0,0:0:0:0:
72,120,187805,1,0,0:0:0:0:
176,88,188190,1,8,0:0:0:0:
176,200,188576,2,0,P|264:256|336:192,1,200
296,96,189732,1,8,0:0:0:0:
192,112,190117,6,0,P|112:72|80:160,1,200
160,224,191274,1,8,0:0:0:0:
264,248,191659,2,4,L|376:240,2,100
112,88,193201,6,0,L|224:88,1,100,0|8,0:0|0:0,0:0:0:0:
320,88,193972,1,0,0:0:0:0:
320,88,194357,1,8,0:0:0:0:
256,176,194742,2,2,P|200:240|264:336,1,200
400,296,196284,6,0,L|288:296,1,100,4|8,0:0|0:0,0:0:0:0:
192,296,197055,1,0,0:0:0:0:
192,296,197440,1,8,0:0:0:0:
256,208,197826,2,2,P|312:144|248:48,1,200
40,48,199367,6,0,P|24:104|40:248,1,200,4|0,0:0|0:0,0:0:0:0:
152,248,200524,1,8,0:0:0:0:
192,144,200909,2,2,B|216:80|216:80|296:72|296:72|328:128,1,200
416,312,202451,6,0,L|416:200,2,100,4|8|0,0:0|0:0|0:0,0:0:0:0:
304,312,203607,1,8,0:0:0:0:
256,192,203993,12,4,207076,0:0:0:0:
