osu file format v12

[General]
AudioFilename: agung hercules astuti_01.mp3
AudioLeadIn: 3000
PreviewTime: 86799
Countdown: 1
SampleSet: Normal
StackLeniency: 0.7
Mode: 0
LetterboxInBreaks: 1
WidescreenStoryboard: 0

[Editor]
DistanceSpacing: 1.3
BeatDivisor: 4
GridSize: 4

[Metadata]
Title:Astuti
TitleUnicode:Astuti
Artist:Agung Hercules
ArtistUnicode:Agung Hercules
Creator:razorleaf
Version:Hard
Source:
Tags:Pasha Indonesia
BeatmapID:189766
BeatmapSetID:64488

[Difficulty]
HPDrainRate:3
CircleSize:4
OverallDifficulty:4
ApproachRate:7
SliderMultiplier:1.4
SliderTickRate:2

[Events]
//Background and Video events
0,0,"bgagher.jpg",0,0
Video,0,"Agung Hercules Astuti.avi"
//Break Periods
2,14564,19608
2,90107,93596
2,164109,167583
//Storyboard Layer 0 (Background)
//Storyboard Layer 1 (Fail)
//Storyboard Layer 2 (Pass)
//Storyboard Layer 3 (Foreground)
//Storyboard Sound Samples
//Background Colour Transformations
3,100,163,162,255

[TimingPoints]
490.144611858766,385.422091084031,4,1,0,80,1,0
51346,-100,4,1,0,80,0,1
57512,-100,4,1,0,80,0,0
76009,-100,4,1,0,80,0,1
81982,-100,4,2,0,80,0,1
83812,-100,4,1,0,80,0,0
89872,-100,4,1,0,80,0,0
149996,-100,4,1,0,80,0,1
163869,-100,4,1,0,80,0,0
193156,-100,4,1,0,80,0,1

[HitObjects]
88,160,490,2,0,B|92:100|152:64|200:112,1,140
192,188,1068,2,0,P|248:244|296:188,2,140,0|8|0,0:0|0:0|0:0,0:0:0:0:
120,244,2031,1,0,0:0:0:0:
40,200,2224,1,0,0:0:0:0:
96,128,2417,1,8,0:0:0:0:
164,68,2609,2,0,L|228:20,1,70
308,52,2995,2,0,L|396:60,1,70,2|8,0:0|0:0,0:0:0:0:
360,240,3573,6,0,B|408:256|416:304|376:336|336:352|296:280|272:264,2,210,0|0|8,0:0|0:0|0:0,0:0:0:0:
316,160,4922,1,0,0:0:0:0:
236,116,5115,2,0,P|148:116|140:180,1,140
68,216,5693,1,0,0:0:0:0:
124,288,5886,1,0,0:0:0:0:
192,228,6078,1,2,0:0:0:0:
248,300,6271,1,8,0:0:0:0:
444,289,6656,6,0,L|388:225,1,70
339,166,7042,1,0,0:0:0:0:
248,164,7235,2,8,B|160:164|120:244|176:340,1,210,0|8,0:0|0:0,0:0:0:0:
96,144,8198,6,0,L|40:80,1,70
136,64,8584,1,0,0:0:0:0:
200,128,8776,2,8,P|232:224|304:176,1,210,0|8,0:0|0:0,0:0:0:0:
484,180,9740,6,0,L|420:236,1,70
364,288,10125,2,0,L|412:344,1,70
240,276,10703,1,2,0:0:0:0:
240,276,10896,1,8,0:0:0:0:
60,252,11281,6,0,P|60:308|132:292,1,140
160,216,11860,2,0,P|193:192|251:251,1,140,0|2,0:0|0:0,0:0:0:0:
340,228,12438,1,8,0:0:0:0:
256,192,12823,12,4,14364,0:0:0:0:
80,96,20532,6,0,L|152:240,1,140
94,298,21110,2,0,P|190:330|230:226,1,210,0|8,0:0|0:0,0:0:0:0:
408,312,22073,1,0,0:0:0:0:
452,232,22266,2,0,L|410:174,1,70
324,144,22651,1,0,0:0:0:0:
244,100,22844,1,0,0:0:0:0:
172,156,23037,2,0,L|220:244,2,70,0|8|0,0:0|0:0|0:0,0:0:0:0:
88,120,23615,6,2,P|80:264|288:224,1,420,0|10,0:3|0:0,0:0:0:0:
456,156,25157,2,10,P|296:44|176:204,1,420,0|10,0:0|0:0,0:0:0:0:
357,183,26698,6,0,P|277:159|269:191,1,140,4|0,0:0|0:0,0:0:0:0:
299,274,27276,2,0,P|227:338|155:274,1,210,0|8,0:0|0:0,0:0:0:0:
80,224,28047,1,0,0:0:0:0:
56,136,28240,1,0,0:0:0:0:
56,136,28433,1,0,0:0:0:0:
56,136,28625,2,0,L|136:136,1,70
297,72,29204,1,2,0:0:0:0:
332,156,29396,2,0,P|308:196|220:164,1,140,10|0,0:0|0:0,0:0:0:0:
120,328,30167,6,0,L|56:264,1,70
96,192,30553,1,0,0:0:0:0:
72,104,30745,2,2,L|144:52,1,70,2|8,1:0|0:0,3:0:0:0:
256,192,31323,1,6,0:0:0:0:
256,192,31420,12,4,32865,0:0:0:0:
141,142,33251,6,0,L|205:86,1,70
376,88,33829,1,0,0:0:0:0:
292,120,34021,1,8,0:0:0:0:
176,260,34407,6,0,L|328:308,1,140
380,360,34985,2,0,P|412:272|324:200,1,210,0|8,0:0|0:0,0:0:0:0:
252,40,35948,5,0,0:0:0:0:
220,220,36334,1,0,0:0:0:0:
244,132,36527,1,0,0:0:0:0:
424,112,36912,2,0,L|424:200,1,70,0|8,0:0|0:0,0:0:0:0:
412,272,37297,1,0,0:0:0:0:
328,308,37490,5,6,0:0:0:0:
148,280,37876,1,6,0:0:0:0:
248,128,38261,1,6,0:0:0:0:
68,108,38646,2,0,P|84:52|164:60,1,140,0|4,0:0|0:0,0:0:0:0:
180,140,39225,5,0,0:0:0:0:
220,220,39417,1,0,0:0:0:0:
319,230,39610,1,0,0:0:0:0:
376,160,39803,2,0,L|448:160,2,70,0|0|8,0:0|0:0|0:0,0:0:0:0:
352,72,40381,1,0,0:0:0:0:
267,104,40574,2,0,P|243:43|171:80,2,140
85,114,41730,1,8,0:0:0:0:
208,248,42115,6,0,L|304:248,2,70
116,251,42693,1,0,0:0:0:0:
64,176,42886,2,0,L|120:104,1,70
198,123,43271,2,0,L|262:195,1,70,8|0,0:0|0:0,0:0:0:0:
336,176,43657,1,6,0:0:0:0:
462,45,44042,1,6,0:0:0:0:
477,226,44428,1,6,0:0:0:0:
388,252,44620,6,0,L|360:288,6,35,2|2|10|2|2|2|6,2:2|2:2|2:2|2:2|2:2|2:2|2:2,0:0:0:0:
384,152,45391,5,0,0:0:0:0:
290,137,45584,1,0,0:0:0:0:
200,152,45777,2,0,B|136:144|96:192|112:256,1,140
200,248,46355,1,8,0:0:0:0:
216,329,46548,1,0,0:0:0:0:
304,304,46740,2,0,B|336:360|408:352|432:288,2,140
267,220,47704,1,0,0:0:0:0:
176,208,47897,6,0,P|104:136|112:112,1,140,8|0,0:0|0:0,0:0:0:0:
149,31,48475,1,0,0:0:0:0:
232,68,48667,1,0,0:0:0:0:
322,68,48860,2,0,P|402:52|466:100,1,140
449,170,49438,1,8,0:0:0:0:
414,254,49631,1,0,0:0:0:0:
328,224,49824,6,0,P|248:176|192:216,1,140,4|4,0:0|0:0,0:0:0:0:
176,274,50402,1,0,0:0:0:0:
136,192,50595,2,0,P|88:160|120:80,1,140,4|14,0:0|0:0,0:0:0:0:
288,80,51365,6,0,L|440:56,1,140,6|2,0:0|0:0,0:0:0:0:
432,149,51943,1,0,0:0:0:0:
272,240,52329,1,0,0:0:0:0:
350,286,52522,2,0,P|310:358|254:318,1,140,8|2,0:0|0:0,0:0:0:0:
125,232,53292,6,0,L|53:176,1,70,2|0,0:0|0:0,0:0:0:0:
216,80,53871,2,0,L|296:32,1,70,0|8,0:0|0:0,0:0:0:0:
338,110,54256,1,0,0:0:0:0:
416,64,54449,6,0,P|456:160|368:224,2,210,2|2|8,0:0|0:0|0:0,0:0:0:0:
240,96,55990,6,2,L|184:160,1,70
179,239,56376,1,0,0:0:0:0:
264,208,56569,2,2,L|320:152,1,70
392,208,56954,2,0,L|432:232,6,35,2|2|10|2|2|2|6,2:2|2:2|2:2|2:2|2:2|2:2|2:2,0:0:0:0:
352,128,57725,5,0,0:0:0:0:
264,96,57918,2,0,B|208:80|200:112|192:152|128:136,1,140
80,208,58496,2,0,L|120:304,1,70,0|8,0:0|0:0,0:0:0:0:
195,292,58881,1,0,0:0:0:0:
256,224,59074,2,0,P|272:144|328:160,1,140
349,230,59652,1,0,0:0:0:0:
432,264,59845,2,0,P|376:328|328:320,2,140,0|8|0,0:0|0:0|0:0,0:0:0:0:
424,176,60808,6,0,L|384:96,1,70
311,155,61194,2,0,L|239:219,1,70
194,137,61579,1,0,0:0:0:0:
130,72,61772,1,8,0:0:0:0:
84,150,61964,2,0,L|20:206,1,70,0|4,0:0|0:0,0:0:0:0:
152,336,62543,1,4,0:0:0:0:
336,312,62928,1,4,0:0:0:0:
340,220,63121,2,0,L|340:172,6,35,2|2|10|2|2|2|6,2:2|2:2|2:2|2:2|2:2|2:2|2:2,2:2:0:0:
248,232,63892,5,0,0:0:0:0:
163,197,64084,2,0,P|91:181|115:109,1,140
176,88,64662,1,0,0:0:0:0:
264,64,64855,1,8,0:0:0:0:
328,128,65048,1,0,0:0:0:0:
412,161,65241,1,0,0:0:0:0:
443,246,65433,1,0,0:0:0:0:
352,248,65626,2,0,L|256:248,2,70,8|0|0,0:0|0:0|0:0,0:0:0:0:
304,324,66204,2,0,L|208:324,2,70,2|10|0,0:0|0:0|0:0,0:0:0:0:
388,356,66782,1,0,0:0:0:0:
428,280,66975,5,0,0:0:0:0:
404,192,67168,2,0,L|332:136,1,70,8|0,0:0|0:0,0:0:0:0:
256,160,67553,1,0,0:0:0:0:
200,232,67746,2,0,L|128:296,1,70,0|10,0:0|0:0,0:0:0:0:
88,208,68131,1,0,0:0:0:0:
88,116,68324,2,4,P|128:52|192:76,2,140,12|4|4,0:0|0:0|0:0,0:0:0:0:
168,160,69287,2,0,L|208:160,6,35,2|2|10|2|2|2|6,2:2|2:2|2:2|2:2|2:2|2:2|2:2,0:0:0:0:
88,208,70058,5,0,0:0:0:0:
77,298,70251,2,0,P|93:322|125:290,1,70
216,296,70636,1,0,0:0:0:0:
304,320,70829,2,0,L|352:336,2,35,0|0|8,0:0|0:0|0:0,0:0:0:0:
338,235,71215,1,0,0:0:0:0:
264,184,71407,1,0,0:0:0:0:
88,136,71793,2,0,P|16:120|32:72,1,140
119,56,72371,2,0,L|199:16,1,70,0|8,0:0|0:0,0:0:0:0:
272,24,72756,2,0,L|328:80,1,70
387,136,73142,5,0,0:0:0:0:
440,64,73334,1,0,0:0:0:0:
480,144,73527,1,0,0:0:0:0:
464,232,73720,2,0,P|456:272|376:328,1,140,0|8,0:0|0:0,0:0:0:0:
288,320,74298,1,0,0:0:0:0:
264,232,74491,1,6,0:0:0:0:
104,144,74876,1,6,0:0:0:0:
103,325,75262,1,6,0:0:0:0:
80,80,76032,5,6,2:0:0:0:
122,63,76129,1,2,2:0:0:0:
162,83,76225,1,10,2:0:0:0:
197,112,76321,1,2,2:0:0:0:
237,132,76418,1,2,2:0:0:0:
279,147,76514,1,2,2:0:0:0:
327,132,76611,1,10,2:0:0:0:
365,108,76707,1,2,2:0:0:0:
387,68,76803,1,10,2:0:0:0:
468,107,76996,5,0,0:0:0:0:
413,180,77189,2,0,L|453:252,1,70,12|0,0:0|0:0,0:0:0:0:
365,282,77574,2,2,L|309:338,1,70
231,295,77959,1,0,0:0:0:0:
142,271,78152,1,0,0:0:0:0:
119,182,78345,1,8,0:0:0:0:
38,139,78538,2,0,L|-2:115,2,35,2|2|0,0:0|0:0|0:0,0:0:0:0:
118,95,78923,2,0,L|166:55,2,35,2|0|4,0:0|0:0|0:0,0:0:0:0:
199,135,79308,5,0,0:0:0:0:
204,225,79501,1,0,0:0:0:0:
291,220,79694,2,0,L|347:196,2,35
283,128,80079,2,0,L|366:82,1,70,0|8,0:0|0:0,0:0:0:0:
262,54,80465,1,0,0:0:0:0:
206,126,80657,1,0,0:0:0:0:
135,68,80850,2,2,P|63:52|15:116,1,140
77,164,81428,1,6,0:0:0:0:
189,307,81814,1,4,2:0:0:0:
336,200,82199,6,0,P|280:192|272:176,1,70,4|8,0:0|0:0,2:2:0:0:
344,124,82585,2,0,P|384:116|400:140,1,70,0|8,0:0|0:0,2:2:0:0:
465,197,82970,1,0,0:0:0:0:
465,197,83163,1,8,0:0:0:0:
456,288,83355,2,0,P|456:328|408:320,1,70,0|8,0:0|0:0,2:2:0:0:
360,280,83741,1,10,0:0:0:0:
360,280,83934,6,0,L|216:312,3,140
132,308,85283,6,0,P|92:308|68:268,1,70,4|8,0:0|0:0,0:0:0:0:
113,206,85668,2,0,P|81:182|49:206,1,70,0|8,0:0|0:0,0:0:0:0:
63,101,86053,2,0,P|79:61|111:77,1,70,0|8,0:0|0:0,0:0:0:0:
162,129,86439,1,0,0:0:0:0:
248,96,86631,1,8,0:0:0:0:
331,133,86824,1,6,0:0:0:0:
256,192,86921,12,4,89907,0:0:0:0:
88,152,94533,6,0,P|128:80|216:144,1,210
168,212,95303,1,0,0:0:0:0:
104,276,95496,2,0,L|40:332,1,70,0|8,0:0|0:0,0:0:0:0:
140,344,95882,1,0,0:0:0:0:
232,352,96074,2,0,B|264:352|264:352|304:352|320:336|320:304|320:304|320:264,2,140,0|2|2,0:0|0:0|0:0,0:0:0:0:
140,352,97038,2,0,L|100:352,2,35,0|0|8,0:0|0:0|0:0,0:0:0:0:
324,356,97616,5,0,0:0:0:0:
328,264,97809,2,0,L|248:216,1,70
176,220,98194,1,0,0:0:0:0:
88,244,98387,1,2,0:0:0:0:
112,156,98580,1,0,0:0:0:0:
24,176,98772,1,10,0:0:0:0:
36,84,98965,2,0,P|84:36|100:44,1,70
256,36,99543,6,0,B|288:36|288:36|328:36|344:52|344:84|344:84|344:124,2,140,2|2|8,0:0|0:0|0:0,0:0:0:0:
176,80,100507,1,0,0:0:0:0:
132,92,100603,1,0,0:0:0:0:
100,124,100699,2,0,P|52:180|68:252,1,140,4|0,0:0|0:0,0:0:0:0:
128,304,101278,2,0,L|104:336,2,35,0|0|2,0:0|0:0|0:0,0:0:0:0:
216,332,101663,1,0,0:0:0:0:
300,298,101856,1,10,0:0:0:0:
308,208,102048,2,0,P|324:176|348:200,1,70,0|4,0:0|0:0,0:0:0:0:
192,96,102626,1,2,0:0:0:0:
72,232,103012,1,2,0:0:0:0:
344,232,103590,6,0,L|392:320,1,70,0|4,0:0|0:0,0:0:0:0:
288,308,103975,2,8,L|216:324,1,70,0|8,0:0|0:0,0:0:0:0:
204,232,104361,1,0,0:0:0:0:
140,168,104554,2,0,P|92:168|68:208,1,70,2|0,0:0|0:0,0:0:0:0:
60,224,104843,1,0,0:0:0:0:
48,268,104939,1,10,0:0:0:0:
108,336,105132,1,0,0:0:0:0:
200,336,105324,5,4,0:0:0:0:
380,320,105710,2,2,P|420:320|460:232,1,140,0|6,0:0|0:0,0:0:0:0:
416,164,106288,2,0,L|368:196,6,35,2|2|10|2|2|2|6,2:2|2:2|2:2|2:2|2:2|2:2|2:2,0:0:0:0:
392,76,107059,6,0,L|304:124,1,70
240,128,107444,2,0,P|160:104|152:160,2,140,0|8|0,0:0|0:0|0:0,0:0:0:0:
212,216,108408,2,8,P|172:272|84:272,1,140
64,104,109179,1,0,0:0:0:0:
248,96,109564,2,0,P|344:56|368:80,1,140,2|2,0:0|0:0,0:0:0:0:
368,160,110142,5,0,0:0:0:0:
332,244,110335,1,0,0:0:0:0:
388,316,110528,1,0,0:0:0:0:
424,232,110720,1,0,0:0:0:0:
460,148,110913,1,0,0:0:0:0:
400,80,111106,2,0,P|304:56|288:104,1,140,8|0,0:0|0:0,0:0:0:0:
116,120,111877,2,0,P|164:152|244:104,1,140
276,204,112455,2,0,L|236:276,1,70,0|8,0:0|0:0,0:0:0:0:
152,264,112840,1,0,0:0:0:0:
68,232,113033,5,0,0:0:0:0:
108,152,113226,1,0,0:0:0:0:
192,116,113418,1,0,0:0:0:0:
284,116,113611,1,0,0:0:0:0:
364,160,113804,1,0,0:0:0:0:
404,240,113996,1,0,0:0:0:0:
312,240,114189,2,0,L|216:240,1,70,8|0,0:0|0:0,0:0:0:0:
152,248,114575,2,0,P|176:320|248:336,2,140
84,80,115731,2,0,P|140:56|196:128,1,140,8|0,0:0|0:0,0:0:0:0:
164,188,116309,5,0,0:0:0:0:
252,204,116502,1,0,0:0:0:0:
312,136,116694,1,0,0:0:0:0:
404,140,116887,2,0,P|476:212|460:244,1,140,0|8,0:0|0:0,0:0:0:0:
428,312,117465,1,0,0:0:0:0:
380,320,117562,1,0,0:0:0:0:
332,328,117658,1,4,0:0:0:0:
240,324,117851,2,0,L|152:340,1,70,0|4,0:0|0:0,0:0:0:0:
144,248,118236,2,0,L|240:232,1,70,0|4,0:0|0:0,0:0:0:0:
304,224,118622,2,0,L|360:216,6,35,2|0|10|0|2|0|6,2:2|2:2|2:2|2:2|2:2|2:2|2:2,2:2:0:0:
252,148,119392,5,0,0:0:0:0:
160,148,119585,1,8,0:0:0:0:
76,108,119778,1,0,0:0:0:0:
64,200,119970,1,8,0:0:0:0:
116,276,120163,2,0,B|132:316|132:316|180:332,1,70,0|8,0:0|0:0,0:0:0:0:
248,340,120549,2,0,L|336:340,1,70,0|8,0:0|0:0,0:0:0:0:
308,248,120934,2,0,L|340:224,2,35,0|0|2,0:0|0:0|0:0,0:0:0:0:
280,160,121319,2,0,L|256:120,2,35,0|0|2,0:0|0:0|0:0,0:0:0:0:
192,188,121705,1,0,0:0:0:0:
108,152,121898,1,10,0:0:0:0:
264,56,122283,6,0,P|352:32|384:80,1,140,4|0,0:0|0:0,0:0:0:0:
336,140,122861,1,0,0:0:0:0:
256,184,123054,2,0,P|312:264|336:248,1,140,0|8,0:0|0:0,0:0:0:0:
400,216,123632,1,0,0:0:0:0:
416,304,123825,1,8,0:0:0:0:
336,344,124017,1,0,0:0:0:0:
244,348,124210,2,0,L|156:332,1,70,8|0,0:0|0:0,0:0:0:0:
88,308,124596,2,0,P|48:252|88:204,1,140,8|10,0:0|0:0,0:0:0:0:
240,104,125366,6,0,L|384:104,1,140,4|0,0:0|0:0,0:0:0:0:
332,180,125945,2,0,L|180:180,1,140
116,128,126523,1,8,0:0:0:0:
88,308,126908,2,0,P|128:212|208:260,1,210
284,288,127679,1,0,0:0:0:0:
368,324,127872,1,0,0:0:0:0:
372,232,128064,1,10,0:0:0:0:
312,60,128450,6,0,P|264:44|224:124,1,140,4|0,0:0|0:0,0:0:0:0:
192,196,129028,2,0,P|160:256|88:236,1,140
84,156,129606,1,10,0:0:0:0:
148,92,129799,1,0,0:0:0:0:
224,48,129991,2,0,L|280:104,1,70,2|0,0:0|0:0,0:0:0:0:
276,188,130377,2,0,L|324:252,1,70,2|0,0:0|0:0,0:0:0:0:
408,256,130762,2,4,L|464:256,8,35,14|2|2|2|14|2|2|2|6,2:2|2:2|2:2|2:2|2:2|2:2|2:2|2:2|2:2,0:0:0:0:
404,164,131726,6,0,P|388:100|324:116,1,140
272,184,132304,1,0,0:0:0:0:
208,248,132497,1,0,0:0:0:0:
256,328,132689,1,8,0:0:0:0:
168,344,132882,2,0,P|128:320|80:320,1,70
48,248,133268,1,0,0:0:0:0:
72,160,133460,2,0,L|128:96,2,70
144,216,134038,2,0,L|224:216,1,70,0|8,0:0|0:0,0:0:0:0:
304,224,134424,5,0,0:0:0:0:
296,136,134617,2,0,L|240:88,2,70
384,136,135195,2,0,L|456:80,2,70
384,224,135773,1,8,0:0:0:0:
384,224,135966,1,0,0:0:0:0:
440,288,136158,2,4,P|392:336|312:336,2,140
296,176,137314,1,2,0:0:0:0:
120,216,137700,6,0,P|88:160|136:96,1,140,6|0,0:0|0:0,0:0:0:0:
184,168,138278,1,0,0:0:0:0:
224,96,138471,2,0,L|296:64,1,70
360,104,138856,2,0,B|448:104|456:168|464:216,1,140,8|0,0:0|0:0,0:0:0:0:
384,256,139434,1,0,0:0:0:0:
296,280,139627,1,0,0:0:0:0:
384,256,139820,1,0,0:0:0:0:
296,280,140012,2,0,L|200:304,2,70,0|0|10,0:0|0:0|0:0,0:0:0:0:
248,200,140591,1,0,0:0:0:0:
160,216,140783,6,0,P|72:144|184:112,1,280,2|0,0:0|0:0,0:0:0:0:
272,120,141747,1,0,0:0:0:0:
360,152,141940,2,0,L|392:232,1,70,8|0,0:0|0:0,0:0:0:0:
352,304,142325,1,4,0:0:0:0:
176,280,142710,1,4,0:0:0:0:
24,176,143096,1,4,0:0:0:0:
104,136,143289,2,0,L|176:112,2,70
152,216,143867,6,0,P|208:184|280:232,1,140,4|0,0:0|0:0,0:0:0:0:
216,288,144445,2,0,P|296:320|368:288,1,140
344,208,145023,1,8,0:0:0:0:
312,120,145216,2,0,L|232:80,1,70
336,56,145601,2,0,L|408:96,1,70
456,160,145986,1,0,0:0:0:0:
432,248,146179,1,2,0:0:0:0:
360,304,146372,1,0,0:0:0:0:
272,304,146565,1,10,0:0:0:0:
112,208,146950,6,0,L|48:136,1,70
65,155,147335,1,0,0:0:0:0:
65,155,147528,1,0,0:0:0:0:
65,155,147721,2,0,L|120:216,1,70,2|0,0:0|0:0,0:0:0:0:
104,296,148106,1,10,0:0:0:0:
192,280,148299,2,0,L|280:280,1,70,0|4,0:0|0:0,0:0:0:0:
416,168,148877,1,4,0:0:0:0:
208,96,149263,1,4,0:0:0:0:
128,112,149455,2,0,L|72:120,6,35,2|2|10|2|2|2|6,2:2|2:2|2:2|2:2|2:2|2:2|2:2,0:0:0:0:
176,176,150226,6,0,L|192:264,1,70,0|8,0:0|0:0,0:0:0:0:
272,280,150612,2,0,L|344:272,1,70,0|10,0:0|0:0,0:0:0:0:
328,184,150997,1,0,0:0:0:0:
256,128,151190,1,10,0:0:0:0:
168,104,151382,1,0,0:0:0:0:
104,168,151575,2,0,P|48:240|72:272,1,140,8|8,0:0|0:0,0:0:0:0:
152,280,152153,1,0,0:0:0:0:
240,264,152346,2,0,L|312:264,2,70,2|0|6,0:0|0:0|0:0,0:0:0:0:
152,104,153117,6,0,P|200:72|224:136,1,140,4|0,0:0|0:0,0:0:0:0:
296,192,153695,1,0,0:0:0:0:
368,248,153888,2,0,P|376:320|440:304,1,140,2|10,0:0|0:0,0:0:0:0:
456,232,154466,1,0,0:0:0:0:
424,144,154658,1,0,0:0:0:0:
344,104,154851,2,0,L|264:112,1,70,0|2,0:0|0:0,0:0:0:0:
192,152,155237,2,0,L|104:152,3,70,0|10|0|10,0:0|0:0|0:0|0:0,0:0:0:0:
8,16,156200,6,0,L|24:104,1,70,4|0,0:0|0:0,0:0:0:0:
24,176,156586,1,8,0:0:0:0:
64,256,156778,2,0,L|136:232,1,70,0|8,0:0|0:0,0:0:0:0:
216,208,157164,1,0,0:0:0:0:
240,296,157356,2,0,L|160:328,1,70,10|0,0:0|0:0,0:0:0:0:
88,312,157742,1,2,0:0:0:0:
40,232,157935,1,0,0:0:0:0:
88,152,158127,1,2,0:0:0:0:
160,96,158320,2,0,L|240:88,2,70,0|2|0,0:0|0:0|0:0,0:0:0:0:
192,184,158898,1,10,0:0:0:0:
336,80,159284,5,4,0:0:0:0:
360,168,159476,1,0,0:0:0:0:
424,232,159669,1,8,0:0:0:0:
368,304,159862,2,0,B|360:336|360:336|312:336,1,70,0|10,0:0|0:0,0:0:0:0:
248,288,160247,1,0,0:0:0:0:
168,328,160440,1,10,0:0:0:0:
80,304,160633,1,0,0:0:0:0:
32,224,160825,1,14,0:0:0:0:
256,192,160922,12,4,163909,0:0:0:0:
128,64,168534,6,2,B|72:96|72:160|128:208|168:256|80:320,1,280
184,328,169497,1,0,0:0:0:0:
272,312,169690,2,0,L|320:256,1,70,8|0,0:0|0:0,0:0:0:0:
296,168,170075,1,6,0:0:0:0:
160,48,170461,1,6,0:0:0:0:
56,200,170846,1,6,0:0:0:0:
124,260,171039,2,0,L|84:348,1,70,0|10,0:0|0:0,0:0:0:0:
188,328,171424,1,0,0:0:0:0:
268,284,171617,5,6,0:0:0:0:
272,192,171810,2,0,L|424:136,2,140
212,124,172773,1,8,0:0:0:0:
152,56,172966,1,0,0:0:0:0:
108,136,173159,1,2,0:0:0:0:
188,300,173544,2,0,P|100:268|68:300,2,140,0|0|10,0:0|0:0|0:0,0:0:0:0:
276,320,174508,1,0,0:0:0:0:
276,272,174604,1,0,0:0:0:0:
276,232,174700,6,0,P|316:184|364:240,1,140,6|0,0:0|0:0,0:0:0:0:
396,312,175279,1,0,0:0:0:0:
472,360,175471,2,0,B|504:296|504:128|448:72,1,280,0|2,0:0|0:0,0:0:0:0:
280,64,176628,1,2,0:0:0:0:
96,80,177013,1,2,0:0:0:0:
72,168,177206,1,0,0:0:0:0:
116,168,177302,1,0,0:0:0:0:
96,208,177398,1,8,0:0:0:0:
152,280,177591,2,0,L|208:216,1,70
272,280,177977,6,0,L|208:352,1,70
316,352,178362,2,0,L|404:352,1,70
348,268,178747,1,0,0:0:0:0:
388,188,178940,1,8,0:0:0:0:
296,188,179133,1,0,0:0:0:0:
248,112,179325,2,4,B|200:72|200:72|112:72,2,140
336,104,180289,1,0,0:0:0:0:
424,104,180482,1,8,0:0:0:0:
384,184,180674,1,0,0:0:0:0:
296,192,180867,6,0,P|224:184|168:232,2,140,4|0|0,0:0|0:0|0:0,0:0:0:0:
360,256,181831,2,0,L|408:256,2,35,0|0|8,0:0|0:0|0:0,0:0:0:0:
304,328,182216,1,0,0:0:0:0:
216,312,182409,2,0,L|72:312,1,140
52,224,182987,2,0,L|204:224,1,140
176,136,183565,1,8,0:0:0:0:
104,80,183758,2,0,L|40:48,1,70
32,140,184143,5,0,0:0:0:0:
104,196,184336,1,0,0:0:0:0:
192,224,184529,2,0,L|280:240,1,70
324,172,184914,1,0,0:0:0:0:
396,228,185107,2,0,L|468:196,1,70,8|0,0:0|0:0,0:0:0:0:
440,112,185492,2,0,P|408:56|320:72,2,140
392,192,186456,1,0,0:0:0:0:
360,224,186552,1,0,0:0:0:0:
328,256,186649,1,8,0:0:0:0:
264,192,186841,2,0,L|328:144,1,70
296,64,187227,6,0,L|216:64,1,70
160,128,187612,1,0,0:0:0:0:
184,216,187805,1,0,0:0:0:0:
160,304,187997,1,0,0:0:0:0:
104,232,188190,2,0,L|40:176,1,70,8|0,0:0|0:0,0:0:0:0:
72,96,188576,2,0,P|112:64|152:136,2,140
56,188,189539,1,0,0:0:0:0:
56,188,189732,1,8,0:0:0:0:
72,276,189925,2,0,L|144:284,1,70,0|4,0:0|0:0,0:0:0:0:
224,244,190310,5,0,0:0:0:0:
300,196,190503,1,0,0:0:0:0:
224,148,190695,1,0,0:0:0:0:
288,84,190888,2,0,L|360:140,1,70
404,196,191274,2,0,L|356:276,1,70,8|0,0:0|0:0,0:0:0:0:
312,328,191659,1,6,0:0:0:0:
132,328,192044,1,6,0:0:0:0:
128,144,192430,1,6,0:0:0:0:
312,64,193201,5,4,2:0:0:0:
352,84,193297,1,0,2:0:0:0:
380,120,193393,1,8,2:0:0:0:
400,160,193490,1,0,2:0:0:0:
404,204,193586,1,0,2:0:0:0:
392,248,193682,1,0,2:0:0:0:
364,284,193779,1,8,2:0:0:0:
332,316,193875,1,0,2:0:0:0:
288,332,193972,1,0,2:0:0:0:
212,284,194164,2,0,L|120:268,1,70,0|2,0:0|0:0,0:0:0:0:
120,176,194550,1,0,0:0:0:0:
64,104,194742,1,0,0:0:0:0:
152,72,194935,6,2,L|232:64,1,70
216,152,195321,1,0,0:0:0:0:
304,120,195513,1,0,0:0:0:0:
344,200,195706,2,8,L|352:256,2,35
400,128,196091,2,2,L|448:96,2,35,2|2|6,0:0|0:0|0:0,0:0:0:0:
344,56,196477,5,0,0:0:0:0:
256,56,196669,1,0,0:0:0:0:
184,112,196862,1,0,0:0:0:0:
128,184,197055,2,0,L|144:264,1,70
232,272,197440,2,8,L|304:256,1,70
376,200,197826,1,0,0:0:0:0:
392,288,198018,2,0,L|344:304,2,35
472,248,198404,1,0,0:0:0:0:
456,160,198597,2,0,P|416:72|352:64,2,140,0|10|4,0:0|0:0|0:0,0:0:0:0:
368,176,199560,5,0,0:0:0:0:
288,136,199753,1,0,0:0:0:0:
200,144,199946,1,0,0:0:0:0:
128,200,200138,2,0,P|128:264|144:288,1,70,8|0,0:0|0:0,0:0:0:0:
200,320,200524,2,0,B|248:320|248:320|272:288,2,70,8|0|8,0:0|0:0|0:0,0:0:0:0:
112,352,201102,1,0,0:0:0:0:
56,280,201295,1,10,0:0:0:0:
96,200,201487,1,0,0:0:0:0:
168,256,201680,2,2,L|128:272,8,35,14|0|0|0|12|0|0|0|4,2:0|2:0|2:0|2:0|2:0|2:0|2:0|2:0|2:0,2:0:0:0:
248,216,202644,6,0,L|264:128,1,70
224,64,203029,1,0,0:0:0:0:
168,136,203222,1,0,0:0:0:0:
176,224,203414,1,0,0:0:0:0:
88,232,203607,1,8,0:0:0:0:
48,152,203800,2,0,L|56:56,1,70,0|2,0:0|0:0,0:0:0:0:
256,192,204089,12,6,207075,0:0:0:0:
