osu file format v13

[General]
AudioFilename: Agressor Bunx - Tornado.mp3
AudioLeadIn: 0
PreviewTime: 45732
Countdown: 0
SampleSet: Normal
StackLeniency: 0.7
Mode: 0
LetterboxInBreaks: 0
WidescreenStoryboard: 0

[Editor]
Bookmarks: 23494,45820,56982,68145,90471,101634,112796,135122
DistanceSpacing: 1.1
BeatDivisor: 4
GridSize: 4
TimelineZoom: 1.2

[Metadata]
Title:Tornado (Original Mix)
TitleUnicode:Tornado (Original Mix)
Artist:Agressor Bunx
ArtistUnicode:Agressor Bunx
Creator:Shadren
Version:Easy
Source:
Tags:cut short dnb drum and bass neurofunk Return Of Gods EP BakaHuang
BeatmapID:553247
BeatmapSetID:236292

[Difficulty]
HPDrainRate:2
CircleSize:3
OverallDifficulty:2
ApproachRate:3
SliderMultiplier:0.75
SliderTickRate:1

[Events]
//Background and Video events
0,0,"BG.jpg",0,0
//Break Periods
//Storyboard Layer 0 (Background)
//Storyboard Layer 1 (Fail)
//Storyboard Layer 2 (Pass)
//Storyboard Layer 3 (Foreground)
//Storyboard Sound Samples

[TimingPoints]
1169,348.837209302326,4,1,1,70,1,0
44424,-100,4,1,1,15,0,0
44599,-100,4,1,1,19,0,0
44773,-100,4,1,1,22,0,0
44948,-100,4,1,1,30,0,0
45122,-100,4,1,1,38,0,0
45296,-100,4,1,1,46,0,0
45471,-100,4,1,1,54,0,0
45820,-100,4,1,1,70,0,1
46692,-100,4,1,2,70,0,1
47215,-100,4,1,1,70,0,1
47389,-100,4,1,2,70,0,1
48610,-100,4,1,1,70,0,1
48785,-100,4,1,2,70,0,1
52099,-100,4,1,1,70,0,1
52273,-100,4,1,2,70,0,1
52796,-100,4,1,1,70,0,1
52971,-100,4,1,2,70,0,1
54192,-100,4,1,1,70,0,1
54366,-100,4,1,2,70,0,1
58378,-100,4,1,1,70,0,1
58552,-100,4,1,2,70,0,1
59773,-100,4,1,1,70,0,1
59948,-100,4,1,2,70,0,1
65355,-100,4,1,1,70,0,1
65529,-100,4,1,2,70,0,1
68145,-100,4,1,2,70,0,0
90471,-100,4,1,2,70,0,1
91866,-100,4,1,1,70,0,1
92041,-100,4,1,2,70,0,1
93262,-100,4,1,1,70,0,1
93436,-100,4,1,2,70,0,1
96750,-100,4,1,1,70,0,1
96924,-100,4,1,2,70,0,1
97448,-100,4,1,1,70,0,1
97622,-100,4,1,2,70,0,1
98843,-100,4,1,1,70,0,1
99017,-100,4,1,2,70,0,1
103029,-100,4,1,1,70,0,1
103203,-100,4,1,2,70,0,1
104424,-100,4,1,1,70,0,1
104599,-100,4,1,2,70,0,1
108610,-100,4,1,1,70,0,1
108785,-100,4,1,2,70,0,1
110006,-100,4,1,1,70,0,1
110180,-100,4,1,2,70,0,1
112796,-100,4,1,2,70,0,0
133727,-100,4,1,2,70,0,0

[Colours]
Combo1 : 92,100,91
Combo2 : 170,140,119
Combo3 : 215,162,96

[HitObjects]
278,325,23494,6,4,P|206:339|148:295,1,150,4|0,0:3|0:0,0:0:0:0:
148,212,24541,1,12,0:3:0:0:
180,136,24890,2,0,P|260:124|316:184,1,150,4|0,0:3|0:0,0:0:0:0:
368,224,25936,1,12,0:3:0:0:
440,184,26285,6,0,L|448:32,2,150,4|0|4,0:3|0:0|0:3,0:0:0:0:
368,224,28029,1,8,0:0:0:0:
287,238,28378,2,0,P|246:237|203:222,1,75,0|12,0:0|0:3,0:0:0:0:
132,208,29076,6,0,L|140:364,2,150,4|0|4,0:3|0:0|0:3,0:0:0:0:
88,136,30820,1,8,0:0:0:0:
124,60,31169,2,0,P|164:48|208:56,1,75,0|12,0:0|0:3,0:0:0:0:
272,84,31866,6,0,P|344:104|424:60,1,150,4|0,0:3|0:0,0:0:0:0:
478,27,32913,1,12,0:3:0:0:
508,104,33262,2,0,L|500:264,1,150,4|0,0:3|0:0,0:0:0:0:
432,300,34308,1,12,0:3:0:0:
352,278,34657,6,0,P|314:281|277:280,2,75,4|8|0,0:3|0:0|0:0,0:0:0:0:
412,224,35704,1,12,0:3:0:0:
492,244,36052,2,0,P|508:172|480:88,1,150,4|0,0:3|0:0,0:0:0:0:
416,56,37099,1,12,0:3:0:0:
340,92,37448,6,0,L|176:96,1,150,4|0,0:3|0:0,0:0:0:0:
144,164,38494,1,12,0:3:0:0:
176,240,38843,2,0,L|180:324,2,75,4|8|0,0:3|0:0|0:0,0:0:0:0:
228,176,39890,1,12,0:3:0:0:
292,228,40238,6,0,P|368:248|440:204,2,150,4|0|4,0:3|0:0|0:3,0:0:0:0:
228,176,41983,1,8,0:0:0:0:
272,108,42331,2,0,L|276:20,1,75,0|12,0:0|0:3,0:0:0:0:
356,20,43029,6,0,L|348:188,1,150,0|0,0:0|0:0,0:0:0:0:
216,268,44424,2,0,P|120:268|100:148,1,225,8|8,0:0|0:0,0:0:0:0:
152,100,45820,6,0,L|248:92,1,75,4|8,0:3|0:0,0:0:0:0:
300,132,46518,2,2,L|396:124,1,75,0|12,0:0|0:3,0:0:0:0:
452,152,47215,2,2,L|448:312,1,150,4|0,0:3|0:0,0:0:0:0:
392,364,48262,1,12,0:3:0:0:
312,340,48610,6,2,P|256:332|192:344,2,112.5,4|2|12,0:3|0:3|0:3,0:0:0:0:
392,364,50006,2,0,P|448:372|512:360,2,112.5,4|2|12,0:3|0:3|0:3,0:0:0:0:
372,284,51401,6,0,L|368:200,1,75,4|8,0:3|0:0,0:0:0:0:
292,176,52099,2,2,P|256:172|212:184,1,75,0|12,0:0|0:3,0:0:0:0:
140,212,52797,2,2,L|136:56,1,150,4|0,0:3|0:0,0:0:0:0:
212,28,53843,1,12,0:3:0:0:
284,68,54192,6,2,L|400:76,2,112.5,4|2|12,0:3|0:3|0:3,0:0:0:0:
216,112,55587,2,0,L|103:120,2,112.5,4|2|12,0:3|0:3|0:3,0:0:0:0:
280,164,56983,6,0,P|300:236|252:296,1,150,4|0,0:3|0:0,0:0:0:0:
180,316,58029,1,12,0:3:0:0:
112,272,58378,2,2,P|92:200|140:140,1,150,4|0,0:3|0:0,0:0:0:0:
212,112,59424,1,12,0:3:0:0:
284,152,59773,6,2,P|340:164|400:148,2,112.5,4|2|12,0:3|0:3|0:3,0:0:0:0:
212,112,61169,2,0,P|157:100|101:108,2,112.5,4|2|12,0:3|0:3|0:3,0:0:0:0:
284,72,62564,6,0,L|448:64,1,150,4|0,0:3|0:0,0:0:0:0:
480,132,63611,1,12,0:3:0:0:
428,196,63959,2,0,P|424:272|480:316,1,150,2|0,0:0|0:0,0:0:0:0:
500,236,65005,1,12,0:3:0:0:
504,152,65355,6,2,P|464:116|396:116,2,112.5,4|2|12,0:3|0:3|0:3,0:0:0:0:
472,228,66750,2,0,L|484:352,2,112.5,4|0|12,0:3|0:0|0:3,0:0:0:0:
404,180,68145,6,0,L|312:176,1,75,4|8,0:3|0:0,0:0:0:0:
256,216,68843,2,0,L|168:212,1,75,0|12,0:0|0:3,0:0:0:0:
108,252,69541,2,0,P|96:312|112:364,2,112.5,4|0|12,0:3|0:0|0:3,0:0:0:0:
148,180,70936,6,0,P|160:104|108:52,1,150,4|0,0:3|0:0,0:0:0:0:
80,131,71982,1,12,0:3:0:0:
72,215,72331,2,0,P|112:256|176:256,2,112.5,4|0|12,0:3|0:0|0:3,0:0:0:0:
80,131,73727,6,0,L|164:127,1,75,4|8,0:3|0:0,0:0:0:0:
228,168,74424,2,0,L|312:172,1,75,0|12,0:0|0:3,0:0:0:0:
360,112,75122,2,0,P|428:88|496:136,1,150,4|0,0:3|0:0,0:0:0:0:
420,172,76168,1,12,0:3:0:0:
340,196,76518,6,0,L|216:188,2,112.5,4|0|12,0:3|0:0|0:3,0:0:0:0:
420,172,77913,2,0,L|432:324,1,150,4|0,0:3|0:0,0:0:0:0:
364,368,78959,1,12,0:3:0:0:
284,344,79308,6,0,P|244:344|192:352,1,75,4|8,0:3|0:0,0:0:0:0:
128,368,80006,2,0,P|90:372|53:372,1,75,0|12,0:0|0:3,0:0:0:0:
8,304,80704,2,0,L|0:184,2,112.5,4|0|12,0:3|0:0|0:3,0:0:0:0:
88,288,82099,6,0,L|76:124,1,150,4|0,0:3|0:0,0:0:0:0:
136,80,83145,1,12,0:3:0:0:
212,108,83494,2,0,L|292:100,1,75,4|8,0:3|0:0,0:0:0:0:
308,180,84192,2,0,L|233:187,1,75,0|12,0:0|0:3,0:0:0:0:
228,268,84890,6,0,L|396:252,1,150,4|0,0:3|0:0,0:0:0:0:
450,296,85936,1,12,0:3:0:0:
508,236,86285,2,0,P|516:180|500:120,2,112.5,4|0|12,0:3|0:0|0:3,0:0:0:0:
450,296,87680,6,0,L|282:304,1,150,4|0,0:3|0:0,0:0:0:0:
232,257,88727,1,12,0:3:0:0:
244,176,89076,2,0,P|292:132|400:224,1,225,4|12,0:3|0:3,0:0:0:0:
376,288,90471,6,0,L|280:296,1,75,4|8,0:3|0:0,0:0:0:0:
228,256,91169,2,0,L|132:264,1,75,0|12,0:0|0:3,0:0:0:0:
76,235,91866,2,2,L|80:75,1,150,4|0,0:3|0:0,0:0:0:0:
140,28,92913,1,12,0:3:0:0:
220,52,93262,6,2,P|276:60|340:48,2,112.5,4|2|12,0:3|0:3|0:3,0:0:0:0:
140,28,94657,2,0,P|84:20|20:32,2,112.5,4|2|12,0:3|0:3|0:3,0:0:0:0:
220,52,96052,6,0,L|224:136,1,75,4|8,0:3|0:0,0:0:0:0:
288,180,96750,2,2,P|324:184|368:172,1,75,0|12,0:0|0:3,0:0:0:0:
440,148,97448,2,2,L|444:304,1,150,4|0,0:3|0:0,0:0:0:0:
376,348,98494,1,12,0:3:0:0:
300,312,98843,6,2,L|184:320,2,112.5,4|2|12,0:3|0:3|0:3,0:0:0:0:
376,348,100238,2,0,L|489:356,2,112.5,4|2|12,0:3|0:3|0:3,0:0:0:0:
300,312,101634,6,0,P|280:240|328:180,1,150,4|0,0:3|0:0,0:0:0:0:
400,160,102680,1,12,0:3:0:0:
468,204,103029,2,2,P|488:276|440:336,1,150,4|0,0:3|0:0,0:0:0:0:
369,364,104075,1,12,0:3:0:0:
296,324,104424,6,2,L|180:328,2,112.5,4|2|12,0:3|0:3|0:3,0:0:0:0:
356,268,105820,2,0,P|364:212|344:140,2,112.5,4|2|12,0:3|0:3|0:3,0:0:0:0:
296,324,107215,6,0,L|132:332,1,150,4|0,0:3|0:0,0:0:0:0:
84,276,108262,1,12,0:3:0:0:
136,212,108610,2,2,P|140:136|64:88,1,150,4|0,0:3|0:0,0:0:0:0:
64,172,109657,1,12,0:3:0:0:
60,256,110006,6,2,P|100:292|168:292,2,112.5,4|2|12,0:3|0:3|0:3,0:0:0:0:
64,172,111401,2,0,L|52:48,2,112.5,4|0|12,0:3|0:0|0:3,0:0:0:0:
136,216,112797,6,0,P|208:236|284:200,1,150,4|0,0:3|0:0,0:0:0:0:
336,152,113843,1,12,0:3:0:0:
375,79,114192,2,0,L|487:75,2,112.5,4|0|12,0:3|0:0|0:3,0:0:0:0:
336,152,115587,6,0,L|344:308,1,150,4|0,0:3|0:0,0:0:0:0:
280,352,116634,1,12,0:3:0:0:
202,324,116983,2,0,P|182:252|238:192,1,150,4|0,0:3|0:0,0:0:0:0:
304,176,118029,1,12,0:3:0:0:
344,248,118378,6,0,P|404:252|464:224,2,112.5,4|0|12,0:3|0:0|0:3,0:0:0:0:
264,271,119773,2,0,L|101:268,1,150,4|0,0:3|0:0,0:0:0:0:
64,204,120820,1,12,0:3:0:0:
112,136,121169,6,0,P|128:80|104:24,2,112.5,4|0|12,0:3|0:0|0:3,0:0:0:0:
148,212,122564,2,0,L|232:208,1,75,4|8,0:3|0:0,0:0:0:0:
292,256,123262,2,0,L|376:260,1,75,0|12,0:0|0:3,0:0:0:0:
436,212,123959,6,0,P|456:132|416:60,1,150,4|0,0:3|0:0,0:0:0:0:
356,36,125006,1,12,0:3:0:0:
284,72,125355,2,0,L|164:76,2,112.5,4|0|12,0:3|0:0|0:3,0:0:0:0:
352,116,126750,6,0,L|464:112,2,112.5,4|0|12,0:3|0:0|0:3,0:0:0:0:
280,156,128145,2,0,P|232:208|144:184,1,150,4|0,0:3|0:0,0:0:0:0:
92,148,129192,1,12,0:3:0:0:
28,200,129541,6,0,L|36:364,1,150,4|0,0:3|0:0,0:0:0:0:
116,372,130587,1,12,0:3:0:0:
188,328,130936,2,0,P|224:316|272:320,1,75,4|8,0:3|0:0,0:0:0:0:
344,332,131634,2,0,P|380:336|440:328,1,75,0|12,0:0|0:3,0:0:0:0:
488,288,132331,6,0,P|480:176|372:156,1,225,4|12,0:3|0:3,0:0:0:0:
256,192,133727,12,4,135122,0:3:0:0:
