osu file format v14

[General]
AudioFilename: League of Legends Music - Get Jinxed.mp3
AudioLeadIn: 0
PreviewTime: 39821
Countdown: 0
SampleSet: Normal
StackLeniency: 0.7
Mode: 0
LetterboxInBreaks: 1
WidescreenStoryboard: 0

[Editor]
Bookmarks: 71821,98154
DistanceSpacing: 0.8
BeatDivisor: 2
GridSize: 4
TimelineZoom: 1

[Metadata]
Title:Get Jinxed
TitleUnicode:Get Jinxed
Artist:Agnete Kjolsrud
ArtistUnicode:Agnete Kjolsrud
Creator:Yuthuil
Version:Normal
Source:League Of Legends
Tags:LoL jinx fishbones character song
BeatmapID:766432
BeatmapSetID:347294

[Difficulty]
HPDrainRate:4
CircleSize:4
OverallDifficulty:4
ApproachRate:5
SliderMultiplier:1.2
SliderTickRate:1

[Events]
//Background and Video events
0,0,"jinx_1366.jpg",0,0
//Break Periods
2,37687,38621
2,61688,70621
2,83021,86954
//Storyboard Layer 0 (Background)
//Storyboard Layer 1 (Fail)
//Storyboard Layer 2 (Pass)
//Storyboard Layer 3 (Foreground)
//Storyboard Sound Samples

[TimingPoints]
16155,333.333333333333,4,1,1,40,1,0
40154,-100,4,1,1,50,0,1
61488,-100,4,1,1,40,0,0
98821,-100,4,1,1,60,0,1
120154,-100,4,1,1,65,0,0

[Colours]
Combo1 : 255,128,128
Combo2 : 128,128,255
Combo3 : 255,128,192
Combo4 : 0,128,255

[HitObjects]
68,168,26488,6,0,L|96:116,1,60
140,92,26821,2,0,L|276:76,1,120,12|8,0:0|0:0,0:0:0:0:
348,116,27488,1,8,0:0:0:0:
376,208,27821,1,8,0:0:0:0:
332,296,28155,6,8,P|288:324|200:320,1,120
132,296,28821,2,0,L|120:232,1,60,8|0,0:0|0:0,0:0:0:0:
72,228,29155,2,0,L|60:168,1,60,8|0,0:0|0:0,0:0:0:0:
52,124,29488,6,8,P|76:88|164:64,1,120
208,136,30155,1,8,0:0:0:0:
304,136,30488,1,8,0:0:0:0:
366,61,30821,6,8,P|423:77|460:124,1,120
464,220,31488,2,0,L|456:288,1,60,8|0,0:0|0:0,0:0:0:0:
408,288,31821,2,0,L|360:336,1,60,8|0,0:0|0:0,0:0:0:0:
316,336,32155,6,8,L|180:328,1,120
124,264,32821,1,8,0:0:0:0:
44,316,33155,1,8,0:0:0:0:
16,224,33488,6,8,P|52:172|116:152,1,120
192,188,34155,2,0,P|216:184|252:160,1,60,8|0,0:0|0:0,0:0:0:0:
240,120,34488,2,0,P|248:96|248:56,1,60,8|0,0:0|0:0,0:0:0:0:
216,28,34821,6,8,L|356:28,1,120
404,96,35488,1,8,0:0:0:0:
348,172,35821,1,8,0:0:0:0:
408,244,36154,6,8,P|360:264|292:248,1,120
212,200,36821,1,8,0:0:0:0:
172,176,36988,1,0,0:0:0:0:
128,188,37154,2,0,L|64:172,2,60,8|0|0,0:0|0:0|0:0,0:0:0:0:
108,132,39821,6,0,L|172:124,1,60
208,148,40154,2,0,P|248:184|324:184,1,120,12|8,0:0|0:0,0:0:0:0:
400,152,40821,2,8,L|396:292,1,120
324,332,41488,5,8,0:0:0:0:
248,276,41821,1,8,0:0:0:0:
172,336,42154,2,0,P|140:316|120:284,1,60,8|0,0:0|0:0,0:0:0:0:
80,296,42488,2,0,P|88:256|108:232,1,60,8|0,0:0|0:0,0:0:0:0:
140,216,42821,6,8,P|180:184|192:100,1,120
136,44,43488,2,0,L|64:48,2,60,8|0|8,0:0|0:0|0:0,0:0:0:0:
232,32,44154,6,8,L|376:40,1,120
432,96,44821,2,0,L|440:172,1,60,8|0,0:0|0:0,0:0:0:0:
400,184,45154,2,0,L|392:252,1,60,8|0,0:0|0:0,0:0:0:0:
380,292,45488,6,8,P|352:272|260:280,1,120
204,344,46154,2,8,P|144:348|92:308,1,120
60,224,46821,5,8,0:0:0:0:
136,168,47154,1,8,0:0:0:0:
64,104,47488,2,0,P|96:84|132:80,1,60,8|0,0:0|0:0,0:0:0:0:
164,80,47821,2,0,L|244:80,1,60,8|0,0:0|0:0,0:0:0:0:
272,80,48154,6,8,P|312:96|344:180,1,120
408,232,48821,1,8,0:0:0:0:
320,272,49154,1,8,0:0:0:0:
324,368,49488,6,8,L|184:356,1,120
124,304,50154,1,8,0:0:0:0:
96,264,50321,1,0,0:0:0:0:
72,220,50488,2,0,L|72:160,1,60,8|0,0:0|0:0,0:0:0:0:
72,112,50821,6,8,P|100:80|188:80,1,120
268,72,51488,2,8,P|326:71|369:111,1,120
372,208,52154,6,8,B|316:232|316:232|296:304,1,120
236,360,52821,2,0,L|168:352,1,60,8|0,0:0|0:0,0:0:0:0:
128,340,53154,2,0,P|116:316|116:272,1,60,8|0,0:0|0:0,0:0:0:0:
148,248,53488,6,8,L|8:240,2,120
200,168,54488,1,8,0:0:0:0:
252,88,54821,6,8,P|304:60|364:72,1,120
432,136,55488,1,8,0:0:0:0:
448,180,55654,1,0,0:0:0:0:
460,228,55821,2,0,L|460:296,1,60,8|0,0:0|0:0,0:0:0:0:
420,320,56154,6,8,B|392:336|360:324|360:324|352:360|312:368,1,120
228,364,56821,2,8,B|199:359|191:323|191:323|159:335|131:319,1,120
76,244,57488,6,8,L|104:104,1,120
168,60,58154,2,0,P|200:40|240:36,1,60,8|0,0:0|0:0,0:0:0:0:
264,60,58488,2,0,P|288:60|324:72,1,60,8|0,0:0|0:0,0:0:0:0:
320,120,58821,6,8,P|344:156|348:248,2,120
256,192,59821,1,8,0:0:0:0:
192,264,60154,6,8,P|168:228|164:132,2,120
224,300,60988,1,0,0:0:0:0:
268,324,61154,2,0,L|328:320,1,60,8|0,0:0|0:0,0:0:0:0:
376,316,61488,5,12,0:0:0:0:
96,160,71821,6,0,L|132:104,1,60
168,84,72154,6,0,P|256:68|312:144,1,180,12|0,0:0|0:0,0:0:0:0:
320,176,72821,2,0,P|280:184|324:316,1,240
372,304,73654,1,0,0:0:0:0:
444,240,73988,5,0,0:0:0:0:
464,196,74154,2,0,L|456:68,1,120
416,48,74654,1,0,0:0:0:0:
372,28,74821,6,0,P|332:64|212:28,1,180,8|0,0:0|0:0,0:0:0:0:
196,80,75488,1,0,0:0:0:0:
76,232,76154,6,0,L|140:260,1,60
196,328,76654,2,0,L|268:320,1,60
348,348,77154,2,0,L|404:288,1,60
428,276,77488,6,0,B|460:204|408:156|444:84,1,180,8|0,0:0|0:0,0:0:0:0:
448,52,78154,2,0,P|408:96|268:16,1,240
220,36,78988,5,0,0:0:0:0:
132,76,79321,2,0,L|136:144,1,60
104,228,79821,6,0,L|168:236,2,60
204,332,80654,1,0,0:0:0:0:
252,344,80821,6,0,P|312:336|404:188,1,240,8|0,0:0|0:0,0:0:0:0:
388,152,81654,1,0,0:0:0:0:
320,84,81988,2,0,L|256:84,1,60
196,152,82488,2,0,L|120:152,2,60
144,148,88154,6,0,P|164:84|220:48,1,120
304,52,88821,2,0,P|349:89|364:147,1,120
364,236,89488,2,0,P|349:294|304:332,1,120
204,331,90155,2,0,P|159:293|144:236,1,120
160,192,90654,6,0,L|92:176,1,60
68,88,91154,1,0,0:0:0:0:
156,48,91488,1,0,0:0:0:0:
220,120,91821,1,0,0:0:0:0:
304,76,92154,6,0,P|359:61|424:96,2,120
352,160,93154,1,0,0:0:0:0:
376,252,93488,6,0,B|320:280|320:280|300:348,1,120
208,335,94154,2,0,B|192:280|192:280|136:252,1,120
96,164,94821,6,0,P|132:108|196:88,1,120
220,176,95488,2,0,B|256:224|256:224|300:168,1,120
332,88,96154,6,0,P|386:113|416:164,2,120
248,44,97154,1,0,0:0:0:0:
164,92,97488,5,0,0:0:0:0:
80,48,97821,1,0,0:0:0:0:
74,148,98154,6,0,B|120:168|148:136|148:136|192:152|192:152|212:136|242:147,1,180
280,180,98821,6,8,L|412:172,1,120,12|8,0:0|0:0,0:0:0:0:
464,244,99488,1,8,0:0:0:0:
416,328,99821,1,8,0:0:0:0:
320,332,100154,6,8,L|188:340,1,120
116,292,100821,2,0,P|84:276|64:256,1,60,8|0,0:0|0:0,0:0:0:0:
76,212,101154,2,0,P|64:180|64:144,1,60,8|0,0:0|0:0,0:0:0:0:
92,116,101488,6,8,P|112:88|208:76,1,120
280,100,102154,2,0,L|352:96,2,60,8|0|8,0:0|0:0|0:0,0:0:0:0:
216,172,102821,5,8,0:0:0:0:
284,240,103154,1,8,0:0:0:0:
228,316,103488,2,0,L|164:324,2,60,8|0|8,0:0|0:0|0:0,0:0:0:0:
268,340,103988,1,0,0:0:0:0:
312,360,104154,6,8,P|372:344|400:284,1,120
404,200,104821,2,8,P|373:149|316:136,1,120
240,192,105488,5,8,0:0:0:0:
160,140,105821,1,8,0:0:0:0:
80,192,106154,2,0,L|84:256,1,60,8|0,0:0|0:0,0:0:0:0:
128,272,106488,2,0,L|160:328,1,60,8|0,0:0|0:0,0:0:0:0:
204,328,106821,6,8,P|244:352|328:336,1,120
380,276,107488,2,8,P|340:252|256:268,1,120
192,204,108154,5,8,0:0:0:0:
140,120,108488,2,0,L|152:56,1,60,8|0,0:0|0:0,0:0:0:0:
200,52,108821,2,0,L|260:28,1,60,8|0,0:0|0:0,0:0:0:0:
300,48,109154,2,0,L|372:52,1,60,8|0,0:0|0:0,0:0:0:0:
396,84,109488,6,8,L|408:224,1,120
332,264,110154,2,8,L|320:136,1,120
228,116,110821,5,8,0:0:0:0:
156,180,111154,1,8,0:0:0:0:
76,124,111488,2,0,P|60:160|60:188,1,60,8|0,0:0|0:0,0:0:0:0:
24,216,111821,2,0,P|44:248|72:264,1,60,8|0,0:0|0:0,0:0:0:0:
84,304,112154,6,8,P|128:280|204:304,1,120
268,356,112821,1,8,0:0:0:0:
364,356,113154,1,8,0:0:0:0:
444,304,113488,6,8,L|460:176,1,120
416,100,114154,1,8,0:0:0:0:
380,64,114321,1,0,0:0:0:0:
344,32,114488,2,0,L|272:36,1,60,8|0,0:0|0:0,0:0:0:0:
244,64,114821,6,8,P|216:96|128:104,1,120
56,64,115488,2,8,L|68:196,1,120
32,272,116154,5,8,0:0:0:0:
128,292,116488,1,8,0:0:0:0:
196,224,116821,1,8,0:0:0:0:
244,228,116988,1,0,0:0:0:0:
292,232,117154,2,0,L|352:232,1,60,8|0,0:0|0:0,0:0:0:0:
392,256,117488,6,8,P|424:208|424:144,1,120
388,60,118154,2,8,P|336:84|264:72,1,120
192,28,118821,5,8,0:0:0:0:
96,28,119154,1,8,0:0:0:0:
40,108,119488,1,8,0:0:0:0:
48,156,119654,1,0,0:0:0:0:
56,204,119821,2,0,L|64:268,1,60,8|0,0:0|0:0,0:0:0:0:
96,300,120154,6,8,P|136:320|216:300,1,120
292,260,120821,2,8,P|336:244|416:264,1,120
448,284,121321,1,0,0:0:0:0:
484,316,121488,6,8,L|496:184,1,120
444,116,122154,2,8,L|292:92,1,120
280,88,122654,1,0,0:0:0:0:
240,112,122821,6,8,B|204:132|168:128|168:128|152:200,1,120
144,268,123488,2,0,L|208:280,1,60,8|0,0:0|0:0,0:0:0:0:
252,288,123821,1,8,0:0:0:0:
344,312,124154,6,0,L|376:260,1,60,8|0,0:0|0:0,0:0:0:0:
400,220,124488,1,8,0:0:0:0:
416,124,124821,2,0,P|388:88|364:76,1,60,8|0,0:0|0:0,0:0:0:0:
328,72,125154,2,0,L|264:72,1,60,8|0,0:0|0:0,0:0:0:0:
220,68,125488,6,8,P|188:44|100:56,1,120
32,100,126154,2,8,L|48:244,1,120
80,252,126654,1,0,0:0:0:0:
120,280,126821,6,8,B|168:312|168:312|244:312,1,120
328,312,127488,2,8,B|390:312|390:312|438:280,1,120
440,232,127988,1,0,0:0:0:0:
440,184,128154,6,8,P|436:136|380:88,1,120
288,92,128821,2,8,P|244:132|180:136,1,120
144,116,129321,1,0,0:0:0:0:
100,92,129488,6,8,L|104:232,1,120
152,292,130154,2,0,L|224:304,1,60,8|0,0:0|0:0,0:0:0:0:
252,328,130488,2,0,L|316:312,1,60,8|0,0:0|0:0,0:0:0:0:
356,324,130821,5,12,0:0:0:0:
