osu file format v14

[General]
AudioFilename: League of Legends Music - Get Jinxed.mp3
AudioLeadIn: 0
PreviewTime: 39821
Countdown: 0
SampleSet: Normal
StackLeniency: 0.7
Mode: 0
LetterboxInBreaks: 1
WidescreenStoryboard: 0

[Editor]
Bookmarks: 71821,98154
DistanceSpacing: 1.5
BeatDivisor: 4
GridSize: 4
TimelineZoom: 1

[Metadata]
Title:Get Jinxed
TitleUnicode:Get Jinxed
Artist:Agnete Kjolsrud
ArtistUnicode:Agnete Kjolsrud
Creator:Yuthuil
Version:Insane
Source:League Of Legends
Tags:LoL jinx fishbones character song
BeatmapID:766431
BeatmapSetID:347294

[Difficulty]
HPDrainRate:7
CircleSize:4
OverallDifficulty:8
ApproachRate:9
SliderMultiplier:1.8
SliderTickRate:1

[Events]
//Background and Video events
0,0,"jinx_1366.jpg",0,0
//Break Periods
2,37688,39221
2,83021,87221
//Storyboard Layer 0 (Background)
//Storyboard Layer 1 (Fail)
//Storyboard Layer 2 (Pass)
//Storyboard Layer 3 (Foreground)
//Storyboard Sound Samples

[TimingPoints]
16155,333.333333333333,4,1,1,40,1,0
40154,-100,4,1,1,50,0,1
61488,-133.333333333333,4,1,1,40,0,0
71821,-133.333333333333,4,1,1,40,0,0
98821,-100,4,1,1,60,0,1
120154,-100,4,1,1,65,0,0

[Colours]
Combo1 : 255,128,128
Combo2 : 128,128,255
Combo3 : 255,128,192
Combo4 : 0,128,255

[HitObjects]
76,128,26488,5,0,0:0:0:0:
172,80,26655,1,0,0:0:0:0:
248,200,26821,6,0,P|280:224|340:228,1,90,12|0,0:0|0:0,0:0:0:0:
473,105,27155,2,0,P|437:131|420:172,1,90,8|0,0:0|0:0,0:0:0:0:
420,280,27488,1,8,0:0:0:0:
316,148,27655,1,0,0:0:0:0:
364,348,27821,1,8,0:0:0:0:
368,80,27988,1,0,0:0:0:0:
280,312,28155,6,0,L|160:296,1,90,8|0,0:0|0:0,0:0:0:0:
139,76,28488,2,8,P|88:146|108:232,1,180
96,340,28988,1,0,0:0:0:0:
196,171,29155,1,8,0:0:0:0:
108,232,29321,1,0,0:0:0:0:
280,208,29488,6,0,P|284:148|268:116,1,90,8|0,0:0|0:0,0:0:0:0:
348,280,29821,2,0,P|376:296|436:296,1,90,8|0,0:0|0:0,0:0:0:0:
402,190,30155,1,8,0:0:0:0:
228,312,30321,1,0,0:0:0:0:
348,280,30488,1,8,0:0:0:0:
280,208,30655,1,0,0:0:0:0:
148,352,30821,6,8,L|336:372,1,180
424,324,31321,1,0,0:0:0:0:
492,240,31488,1,8,0:0:0:0:
484,132,31655,1,0,0:0:0:0:
404,60,31821,1,8,0:0:0:0:
296,48,31988,1,0,0:0:0:0:
196,152,32155,6,0,L|96:144,1,90,8|0,0:0|0:0,0:0:0:0:
60,244,32488,2,0,L|164:252,1,90,8|0,0:0|0:0,0:0:0:0:
228,324,32821,1,8,0:0:0:0:
296,240,32988,1,0,0:0:0:0:
264,68,33155,5,8,0:0:0:0:
196,152,33321,1,0,0:0:0:0:
336,340,33488,6,8,P|396:288|388:180,1,180
296,240,33988,1,0,0:0:0:0:
228,324,34155,1,8,0:0:0:0:
120,332,34321,1,0,0:0:0:0:
40,260,34488,2,0,P|24:240|8:176,1,90,8|0,0:0|0:0,0:0:0:0:
184,80,34821,6,0,L|74:82,1,90,8|0,0:0|0:0,0:0:0:0:
236,172,35154,1,8,0:0:0:0:
312,96,35321,1,0,0:0:0:0:
368,188,35488,2,0,P|404:160|420:116,2,90,8|0|8,0:0|0:0|0:0,0:0:0:0:
296,268,35988,1,0,0:0:0:0:
168,336,36154,6,0,L|64:312,1,90,8|0,0:0|0:0,0:0:0:0:
52,212,36488,2,8,P|44:152|136:80,1,180
304,184,36988,1,0,0:0:0:0:
216,248,37154,1,8,0:0:0:0:
140,172,37321,1,0,0:0:0:0:
140,172,37404,1,0,0:0:0:0:
140,172,37488,1,0,0:0:0:0:
140,172,39821,5,0,0:0:0:0:
220,100,39988,1,0,0:0:0:0:
332,208,40154,6,0,L|320:324,1,90,12|0,0:0|0:0,0:0:0:0:
432,168,40488,2,0,L|408:72,1,90,8|0,0:0|0:0,0:0:0:0:
332,208,40821,2,8,P|408:272|492:256,2,180
156,88,41821,6,0,L|144:184,1,90,8|0,0:0|0:0,0:0:0:0:
112,344,42154,1,8,0:0:0:0:
232,228,42321,1,0,0:0:0:0:
68,252,42488,1,8,0:0:0:0:
212,328,42654,1,0,0:0:0:0:
144,177,42821,6,8,P|220:128|308:164,1,180
336,256,43321,1,0,0:0:0:0:
292,356,43488,2,0,L|188:364,1,90,8|0,0:0|0:0,0:0:0:0:
336,256,43821,2,0,L|448:248,1,90,8|0,0:0|0:0,0:0:0:0:
332,148,44154,6,8,P|244:196|232:268,2,180
336,256,44988,1,0,0:0:0:0:
236,372,45154,1,8,0:0:0:0:
120,276,45321,1,0,0:0:0:0:
32,136,45488,6,0,L|44:28,1,90,8|0,0:0|0:0,0:0:0:0:
212,184,45821,1,8,0:0:0:0:
104,192,45988,1,0,0:0:0:0:
216,68,46154,2,8,P|288:88|328:192,1,180
312,284,46654,1,0,0:0:0:0:
104,192,46821,6,0,L|124:88,1,90,8|0,0:0|0:0,0:0:0:0:
212,184,47154,2,0,L|196:272,1,90,8|0,0:0|0:0,0:0:0:0:
256,380,47488,1,8,0:0:0:0:
308,204,47654,1,0,0:0:0:0:
388,376,47821,1,8,0:0:0:0:
452,256,47988,1,0,0:0:0:0:
380,144,48154,6,0,L|280:116,1,90,8|0,0:0|0:0,0:0:0:0:
88,48,48488,1,8,0:0:0:0:
192,80,48654,1,0,0:0:0:0:
64,220,48821,2,0,L|156:244,1,90,8|0,0:0|0:0,0:0:0:0:
360,300,49154,1,8,0:0:0:0:
256,272,49321,1,0,0:0:0:0:
420,368,49488,6,8,P|452:288|392:212,1,180
360,300,49988,1,0,0:0:0:0:
280,372,50154,1,8,0:0:0:0:
172,356,50321,1,0,0:0:0:0:
120,260,50488,1,8,0:0:0:0:
152,156,50654,1,0,0:0:0:0:
312,120,50821,6,0,P|360:136|392:184,1,90,8|0,0:0|0:0,0:0:0:0:
152,156,51154,2,0,P|100:140|72:104,1,90,8|0,0:0|0:0,0:0:0:0:
224,72,51488,2,8,L|248:252,2,180
196,312,52488,6,0,P|248:332|288:324,1,90,8|0,0:0|0:0,0:0:0:0:
464,348,52821,1,8,0:0:0:0:
360,376,52988,1,0,0:0:0:0:
400,176,53154,1,8,0:0:0:0:
484,244,53321,1,0,0:0:0:0:
280,252,53488,6,8,L|96:220,1,180
44,16,54154,2,8,L|228:52,1,180
400,176,54821,6,0,P|408:224|396:264,1,90,8|0,0:0|0:0,0:0:0:0:
202,274,55154,2,0,P|244:259|288:268,1,90,8|0,0:0|0:0,0:0:0:0:
248,368,55488,1,8,0:0:0:0:
140,364,55654,1,0,0:0:0:0:
92,268,55821,2,0,L|88:172,1,90,8|0,0:0|0:0,0:0:0:0:
256,52,56154,5,8,0:0:0:0:
148,44,56321,1,0,0:0:0:0:
280,152,56488,1,8,0:0:0:0:
388,160,56654,1,0,0:0:0:0:
256,52,56821,2,8,L|232:240,2,180
324,256,57821,6,0,L|312:348,1,90,8|0,0:0|0:0,0:0:0:0:
204,348,58154,1,8,0:0:0:0:
96,352,58321,1,0,0:0:0:0:
324,256,58488,1,8,0:0:0:0:
216,260,58654,1,0,0:0:0:0:
436,256,58821,6,8,P|424:196|320:144,1,180
436,256,59488,2,0,L|436:360,1,90,8|0,0:0|0:0,0:0:0:0:
325,143,59821,2,0,L|325:39,1,90,8|0,0:0|0:0,0:0:0:0:
216,260,60154,6,0,P|180:296|140:308,1,90,8|0,0:0|0:0,0:0:0:0:
132,100,60488,2,0,P|184:116|208:140,1,90,8|0,0:0|0:0,0:0:0:0:
440,256,60821,1,8,0:0:0:0:
332,352,60988,1,0,0:0:0:0:
216,260,61154,1,8,0:0:0:0:
325,143,61321,1,0,0:0:0:0:
332,252,61488,5,12,0:0:0:0:
88,304,61988,5,0,0:0:0:0:
32,220,62154,2,0,L|40:144,1,67.5000025749208
184,136,62488,2,0,L|132:196,1,67.5000025749208
100,64,62821,5,0,0:0:0:0:
196,36,62988,2,0,P|248:52|280:128,1,135.000005149842
292,220,63488,2,0,P|328:184|416:192,1,135.000005149842
472,264,63988,1,0,0:0:0:0:
372,268,64154,6,0,P|344:296|296:304,1,67.5000025749208
220,336,64488,2,0,P|192:320|152:316,1,67.5000025749208
60,340,64821,2,0,B|32:316|32:316|20:212,1,135.000005149842
80,136,65321,6,0,L|116:132,2,33.7500012874604
148,240,65654,1,0,0:0:0:0:
248,200,65821,2,0,P|284:176|300:148,1,67.5000025749208
180,164,66154,2,0,P|232:172|296:120,1,135.000005149842
212,68,66654,1,0,0:0:0:0:
112,92,66821,6,0,L|96:160,1,67.5000025749208
20,224,67154,2,0,L|40:304,1,67.5000025749208
136,311,67488,6,0,B|156:263|204:267|240:231|240:231|244:279|276:315|260:367,1,270.000010299683
239,236,68321,1,0,0:0:0:0:
340,256,68488,2,0,P|356:296|356:332,1,67.5000025749208
468,220,68821,1,0,0:0:0:0:
396,96,68988,1,0,0:0:0:0:
376,104,69071,1,0,0:0:0:0:
360,112,69154,1,0,0:0:0:0:
276,56,69321,1,0,0:0:0:0:
168,148,69488,6,0,P|164:192|172:300,1,135.000005149842
252,340,69988,1,0,0:0:0:0:
352,324,70154,2,0,P|356:280|348:172,1,135.000005149842
280,116,70654,6,0,L|240:112,2,33.7500012874604
360,52,70988,2,0,L|436:60,1,67.5000025749208
280,116,71321,1,0,0:0:0:0:
164,52,71488,2,0,P|124:52|96:64,1,67.5000025749208
68,104,71738,1,0,0:0:0:0:
60,148,71821,5,0,0:0:0:0:
240,88,71988,1,0,0:0:0:0:
324,196,72154,6,0,P|416:216|496:136,1,202.500007724762,12|0,0:0|0:0,0:0:0:0:
392,116,72821,1,0,0:0:0:0:
304,328,73488,5,0,0:0:0:0:
196,340,73654,2,0,P|148:320|116:240,1,135.000005149842
132,140,74154,2,0,P|180:144|244:68,1,135.000005149842
144,36,74654,1,0,0:0:0:0:
240,88,74821,6,0,L|448:80,1,202.500007724762,8|0,0:0|0:0,0:0:0:0:
492,176,75488,1,0,0:0:0:0:
320,324,76154,5,0,0:0:0:0:
212,304,76321,2,0,P|184:272|176:240,1,67.5000025749208
188,140,76654,1,0,0:0:0:0:
64,208,76821,2,0,P|40:156|56:80,1,135.000005149842
188,140,77321,1,0,0:0:0:0:
292,116,77488,6,0,B|344:144|392:128|392:128|408:232,1,202.500007724762,8|0,0:0|0:0,0:0:0:0:
420,332,78154,1,0,0:0:0:0:
108,320,78821,5,0,0:0:0:0:
52,228,78988,2,0,L|88:164,1,67.5000025749208
168,100,79321,1,0,0:0:0:0:
365,169,79488,2,0,P|306:199|244:180,1,135.000005149842
300,88,79988,1,0,0:0:0:0:
448,108,80154,6,0,L|464:324,1,202.500007724762,8|0,0:0|0:0,0:0:0:0:
364,352,80821,1,0,0:0:0:0:
348,356,80904,1,0,0:0:0:0:
332,356,80988,1,0,0:0:0:0:
316,352,81071,1,0,0:0:0:0:
300,344,81154,2,0,P|272:324|260:308,3,33.7500012874604
276,288,81488,6,0,P|288:256|284:216,1,67.5000025749208
116,52,81988,1,0,0:0:0:0:
192,128,82154,2,0,L|280:124,1,67.5000025749208
292,120,82404,1,0,0:0:0:0:
316,120,82488,1,0,0:0:0:0:
416,116,82654,1,0,0:0:0:0:
448,212,82821,5,0,0:0:0:0:
156,168,87821,5,0,0:0:0:0:
252,132,87988,1,0,0:0:0:0:
172,72,88154,6,0,L|96:76,1,67.5000025749208
252,132,88488,2,0,L|328:132,1,67.5000025749208
404,192,88821,2,0,B|344:156|344:156|328:232,1,135.000005149842
324,260,89488,5,0,0:0:0:0:
252,332,89654,1,0,0:0:0:0:
164,280,89821,2,0,P|128:260|92:256,1,67.5000025749208
20,196,90154,2,0,P|52:156|60:124,1,67.5000025749208
132,20,90488,1,0,0:0:0:0:
32,8,90654,1,0,0:0:0:0:
160,128,90821,6,0,L|244:140,1,67.5000025749208
296,212,91154,2,0,L|376:192,1,67.5000025749208
448,252,91488,1,0,0:0:0:0:
476,156,91654,1,0,0:0:0:0:
448,252,91821,1,0,0:0:0:0:
504,56,92154,6,0,P|460:48|380:112,1,135.000005149842
387,94,92821,2,0,L|316:100,1,67.5000025749208
268,248,93154,2,0,L|340:244,1,67.5000025749208
380,168,93488,6,0,L|236:176,1,135.000005149842
184,256,93988,1,0,0:0:0:0:
84,244,94154,2,0,P|60:216|48:176,1,67.5000025749208
116,108,94488,2,0,P|152:84|168:60,1,67.5000025749208
220,160,94821,6,0,P|184:120|188:32,1,135.000005149842
320,192,95488,1,0,0:0:0:0:
252,264,95654,1,0,0:0:0:0:
352,296,95821,1,0,0:0:0:0:
252,280,95988,1,0,0:0:0:0:
284,376,96154,6,0,L|140:356,1,135.000005149842
96,136,96821,2,0,P|108:92|136:68,1,67.5000025749208
136,220,97154,2,0,P|120:256|92:280,1,67.5000025749208
43,201,97488,5,0,0:0:0:0:
228,80,97654,1,0,0:0:0:0:
256,240,97821,1,0,0:0:0:0:
136,64,97988,1,0,0:0:0:0:
96,136,98154,5,0,0:0:0:0:
116,148,98238,1,0,0:0:0:0:
140,156,98321,1,0,0:0:0:0:
164,160,98404,1,0,0:0:0:0:
188,160,98488,1,0,0:0:0:0:
312,112,98654,1,0,0:0:0:0:
332,100,98738,1,0,0:0:0:0:
348,84,98821,6,0,P|384:64|448:68,1,90,12|0,0:0|0:0,0:0:0:0:
390,252,99154,2,0,P|355:225|340:184,1,90,8|0,0:0|0:0,0:0:0:0:
512,96,99488,2,8,P|532:168|468:256,2,180
310,288,100488,6,0,L|214:280,1,90,8|0,0:0|0:0,0:0:0:0:
136,348,100821,1,8,0:0:0:0:
28,196,100988,1,8,0:0:0:0:
36,304,101154,1,0,0:0:0:0:
100,116,101321,1,0,0:0:0:0:
256,164,101488,6,0,P|296:176|344:168,1,90,8|0,0:0|0:0,0:0:0:0:
416,88,101821,1,8,0:0:0:0:
304,68,101988,1,0,0:0:0:0:
448,192,102154,2,0,L|444:288,1,90,8|0,0:0|0:0,0:0:0:0:
274,352,102488,2,0,L|364:352,1,90,8|0,0:0|0:0,0:0:0:0:
244,252,102821,6,8,P|184:244|96:328,2,180
368,300,103654,1,0,0:0:0:0:
276,352,103821,1,8,0:0:0:0:
344,184,103988,1,0,0:0:0:0:
436,344,104154,6,0,P|404:372|352:380,1,90,8|0,0:0|0:0,0:0:0:0:
344,184,104488,2,0,P|392:184|432:208,1,90,8|0,0:0|0:0,0:0:0:0:
244,252,104821,2,8,L|260:68,1,180
156,108,105321,1,0,0:0:0:0:
64,24,105488,6,0,P|24:48|4:88,1,90,8|0,0:0|0:0,0:0:0:0:
44,264,105821,2,0,P|88:228|100:192,1,90,8|0,0:0|0:0,0:0:0:0:
156,108,106154,1,8,0:0:0:0:
312,248,106321,1,0,0:0:0:0:
200,264,106488,1,0,0:0:0:0:
316,88,106654,1,0,0:0:0:0:
448,196,106821,6,0,L|456:100,1,90,8|0,0:0|0:0,0:0:0:0:
352,140,107154,1,8,0:0:0:0:
260,84,107321,1,0,0:0:0:0:
244,304,107488,2,0,L|252:200,1,90,8|0,0:0|0:0,0:0:0:0:
148,248,107821,1,8,0:0:0:0:
52,196,107988,1,0,0:0:0:0:
260,84,108154,6,8,P|352:36|432:72,1,180
468,156,108654,1,0,0:0:0:0:
456,292,108821,1,8,0:0:0:0:
344,368,108988,1,0,0:0:0:0:
212,356,109154,1,8,0:0:0:0:
124,252,109321,1,0,0:0:0:0:
144,120,109488,6,0,P|176:88|224:80,2,90,8|0|8,0:0|0:0|0:0,0:0:0:0:
228,188,109988,1,0,0:0:0:0:
328,144,110154,2,8,L|504:80,2,180
452,320,111154,6,0,L|360:352,1,90,8|0,0:0|0:0,0:0:0:0:
164,304,111488,1,8,0:0:0:0:
240,376,111654,1,0,0:0:0:0:
168,188,111821,1,8,0:0:0:0:
164,304,111988,1,0,0:0:0:0:
256,120,112154,6,8,P|176:80|92:112,2,180
272,272,112988,1,0,0:0:0:0:
164,304,113154,1,8,0:0:0:0:
168,188,113321,1,0,0:0:0:0:
340,188,113488,6,0,L|412:116,1,90,8|0,0:0|0:0,0:0:0:0:
352,336,113821,2,0,L|412:268,1,90,8|0,0:0|0:0,0:0:0:0:
248,140,114154,1,8,0:0:0:0:
256,248,114321,1,0,0:0:0:0:
160,196,114488,2,0,P|152:240|164:292,1,90,8|0,0:0|0:0,0:0:0:0:
352,336,114821,5,8,0:0:0:0:
452,292,114988,1,0,0:0:0:0:
488,192,115154,1,8,0:0:0:0:
436,96,115321,1,0,0:0:0:0:
336,56,115488,2,8,P|248:48|180:120,1,180
236,296,115988,1,0,0:0:0:0:
360,240,116154,6,0,P|376:188|368:148,1,90
180,204,116488,2,0,L|88:200,1,90,8|0,0:0|0:0,0:0:0:0:
84,308,116821,1,8,0:0:0:0:
192,316,116988,1,0,0:0:0:0:
84,308,117154,1,8,0:0:0:0:
296,324,117321,1,0,0:0:0:0:
84,308,117488,6,0,P|40:288|24:248,1,90,8|0,0:0|0:0,0:0:0:0:
242,148,117821,2,0,P|220:186|180:204,1,90,8|0,0:0|0:0,0:0:0:0:
248,48,118154,1,0,0:0:0:0:
152,100,118321,1,8,0:0:0:0:
340,104,118488,2,0,L|428:88,1,90,8|0,0:0|0:0,0:0:0:0:
476,248,118821,6,8,L|288:284,2,180
328,368,119654,1,0,0:0:0:0:
236,220,119821,1,8,0:0:0:0:
144,360,119988,1,0,0:0:0:0:
64,176,120154,6,0,P|80:124|116:96,1,90,8|0,0:0|0:0,0:0:0:0:
301,83,120488,2,0,L|212:76,1,90,8|0,0:0|0:0,0:0:0:0:
340,176,120821,1,8,0:0:0:0:
436,296,120988,1,8,0:0:0:0:
448,188,121154,1,0,0:0:0:0:
328,288,121321,1,0,0:0:0:0:
152,340,121488,6,0,P|108:316|88:276,1,90,8|0,0:0|0:0,0:0:0:0:
244,172,121821,2,0,P|224:220|180:244,1,90,8|0,0:0|0:0,0:0:0:0:
300,56,122154,1,8,0:0:0:0:
136,144,122321,1,0,0:0:0:0:
352,208,122488,1,8,0:0:0:0:
248,44,122654,1,0,0:0:0:0:
352,208,122821,6,0,L|360:308,1,90,8|0,0:0|0:0,0:0:0:0:
468,308,123154,2,0,L|460:208,1,90,8|0,0:0|0:0,0:0:0:0:
452,108,123488,1,8,0:0:0:0:
268,16,123654,1,8,0:0:0:0:
376,32,123821,1,0,0:0:0:0:
168,52,123988,1,0,0:0:0:0:
100,248,124154,5,8,0:0:0:0:
104,140,124321,1,0,0:0:0:0:
160,336,124488,1,8,0:0:0:0:
264,368,124654,1,0,0:0:0:0:
500,200,124821,2,0,P|464:168|420:160,1,90,8|0,0:0|0:0,0:0:0:0:
368,340,125154,2,0,P|408:312|424:264,1,90,8|0,0:0|0:0,0:0:0:0:
324,248,125488,5,8,0:0:0:0:
216,244,125654,1,0,0:0:0:0:
176,144,125821,1,8,0:0:0:0:
192,292,125988,1,0,0:0:0:0:
324,248,126154,1,8,0:0:0:0:
168,340,126321,1,0,0:0:0:0:
176,144,126488,1,8,0:0:0:0:
144,376,126654,1,0,0:0:0:0:
324,248,126821,6,0,L|420:240,1,90,8|0,0:0|0:0,0:0:0:0:
176,144,127154,2,0,L|272:136,1,90,8|0,0:0|0:0,0:0:0:0:
80,288,127488,2,0,L|68:188,1,90,8|0,0:0|0:0,0:0:0:0:
176,144,127821,2,0,L|160:40,1,90,8|0,0:0|0:0,0:0:0:0:
316,76,128154,5,8,0:0:0:0:
420,104,128321,1,0,0:0:0:0:
436,212,128488,1,8,0:0:0:0:
356,280,128654,1,0,0:0:0:0:
128,212,128821,5,8,0:0:0:0:
224,160,128988,1,0,0:0:0:0:
320,212,129154,1,8,0:0:0:0:
412,156,129321,1,0,0:0:0:0:
244,328,129488,6,0,L|144:344,1,90,8|0,0:0|0:0,0:0:0:0:
64,288,129821,1,8,0:0:0:0:
16,160,129988,1,0,0:0:0:0:
80,44,130154,1,8,0:0:0:0:
212,24,130321,1,0,0:0:0:0:
336,84,130488,1,8,0:0:0:0:
368,216,130654,1,0,0:0:0:0:
284,320,130821,5,12,0:0:0:0:
