osu file format v14

[General]
AudioFilename: League of Legends Music - Get Jinxed.mp3
AudioLeadIn: 0
PreviewTime: 39821
Countdown: 0
SampleSet: Normal
StackLeniency: 0.7
Mode: 0
LetterboxInBreaks: 1
WidescreenStoryboard: 0

[Editor]
Bookmarks: 71821,98154
DistanceSpacing: 1.2
BeatDivisor: 4
GridSize: 4
TimelineZoom: 1

[Metadata]
Title:Get Jinxed
TitleUnicode:Get Jinxed
Artist:Agnete Kjolsrud
ArtistUnicode:Agnete Kjolsrud
Creator:Yuthuil
Version:Hard
Source:League Of Legends
Tags:LoL jinx fishbones character song
BeatmapID:766430
BeatmapSetID:347294

[Difficulty]
HPDrainRate:5
CircleSize:4
OverallDifficulty:7
ApproachRate:8
SliderMultiplier:1.6
SliderTickRate:1

[Events]
//Background and Video events
0,0,"jinx_1366.jpg",0,0
//Break Periods
2,37688,39071
2,83021,87071
//Storyboard Layer 0 (Background)
//Storyboard Layer 1 (Fail)
//Storyboard Layer 2 (Pass)
//Storyboard Layer 3 (Foreground)
//Storyboard Sound Samples

[TimingPoints]
16155,333.333333333333,4,1,1,40,1,0
40154,-100,4,1,1,50,0,1
61488,-133.333333333333,4,1,1,40,0,0
71821,-133.333333333333,4,1,1,40,0,0
98821,-100,4,1,1,60,0,1
120154,-100,4,1,1,65,0,0

[Colours]
Combo1 : 255,128,128
Combo2 : 128,128,255
Combo3 : 255,128,192
Combo4 : 0,128,255

[HitObjects]
64,148,26488,5,0,0:0:0:0:
152,108,26655,1,0,0:0:0:0:
220,176,26821,6,0,P|256:196|368:148,1,160,12|0,0:0|0:0,0:0:0:0:
424,84,27321,1,0,0:0:0:0:
476,164,27488,2,0,L|480:256,1,80,8|0,0:0|0:0,0:0:0:0:
392,280,27821,2,0,L|360:372,1,80,8|0,0:0|0:0,0:0:0:0:
148,278,28155,6,8,P|225:287|268:352,2,160
172,372,28988,1,0,0:0:0:0:
76,352,29155,1,8,0:0:0:0:
48,260,29321,1,0,0:0:0:0:
104,184,29488,6,0,L|120:84,1,80,8|0,0:0|0:0,0:0:0:0:
192,48,29821,1,8,0:0:0:0:
276,96,29988,1,0,0:0:0:0:
360,40,30155,2,0,P|376:76|372:128,1,80,8|0,0:0|0:0,0:0:0:0:
235,222,30488,2,0,P|261:193|300:184,1,80,8|0,0:0|0:0,0:0:0:0:
248,304,30821,6,8,L|132:172,1,160
48,176,31321,1,0,0:0:0:0:
88,88,31488,2,0,P|120:52|168:44,1,80,8|0,0:0|0:0,0:0:0:0:
240,76,31821,2,0,P|272:104|320:108,1,80,8|0,0:0|0:0,0:0:0:0:
464,52,32155,6,0,L|384:52,1,80,8|0,0:0|0:0,0:0:0:0:
420,140,32488,1,8,0:0:0:0:
472,220,32655,1,0,0:0:0:0:
420,300,32821,2,0,L|340:300,1,80,8|0,0:0|0:0,0:0:0:0:
284,224,33155,1,8,0:0:0:0:
240,140,33321,1,0,0:0:0:0:
152,176,33488,6,8,P|104:168|12:252,2,160
240,140,34321,1,0,0:0:0:0:
284,224,34488,2,0,P|336:224|364:208,1,80,8|0,0:0|0:0,0:0:0:0:
240,140,34821,6,8,L|244:324,1,160
164,352,35321,1,0,0:0:0:0:
72,328,35488,2,0,L|68:232,2,80,8|0|8,0:0|0:0|0:0,0:0:0:0:
164,352,35988,1,0,0:0:0:0:
244,300,36154,6,8,P|272:268|392:260,1,160
382,255,36821,1,8,0:0:0:0:
440,180,36988,1,0,0:0:0:0:
444,84,37154,1,8,0:0:0:0:
380,12,37321,1,0,0:0:0:0:
380,12,37404,1,0,0:0:0:0:
380,12,37488,5,0,0:0:0:0:
88,152,39821,5,0,0:0:0:0:
172,104,39988,1,0,0:0:0:0:
240,172,40154,6,0,P|272:188|332:184,1,80,12|0,0:0|0:0,0:0:0:0:
473,136,40488,2,0,P|434:127|396:136,1,80,8|0,0:0|0:0,0:0:0:0:
388,232,40821,2,8,L|328:68,2,160
220,328,41821,6,8,P|200:296|72:288,1,160
8,332,42321,1,0,0:0:0:0:
20,236,42488,1,8,0:0:0:0:
36,140,42654,1,0,0:0:0:0:
116,84,42821,6,8,L|288:104,1,160
320,188,43321,1,0,0:0:0:0:
412,156,43488,2,0,P|444:124|452:84,1,80,8|0,0:0|0:0,0:0:0:0:
464,228,43821,2,0,P|436:260|432:308,1,80,8|0,0:0|0:0,0:0:0:0:
504,356,44154,6,8,L|332:336,1,160
156,308,44821,1,8,0:0:0:0:
68,264,44988,1,0,0:0:0:0:
84,168,45154,1,8,0:0:0:0:
184,156,45321,1,0,0:0:0:0:
224,244,45488,6,0,P|272:232|300:204,1,80,8|0,0:0|0:0,0:0:0:0:
175,78,45821,2,0,P|172:118|184:156,1,80,8|0,0:0|0:0,0:0:0:0:
356,252,46154,2,8,P|300:300|216:320,1,160
124,300,46654,1,0,0:0:0:0:
72,220,46821,6,8,L|56:48,2,160
124,300,47654,1,0,0:0:0:0:
176,220,47821,1,8,0:0:0:0:
268,188,47988,1,0,0:0:0:0:
364,184,48154,6,0,P|400:208|416:252,1,80,8|0,0:0|0:0,0:0:0:0:
400,336,48488,2,0,L|312:336,1,80,8|0,0:0|0:0,0:0:0:0:
256,268,48821,2,0,L|160:252,1,80,8|0,0:0|0:0,0:0:0:0:
180,160,49154,2,0,L|88:127,1,80,8|0,0:0|0:0,0:0:0:0:
256,48,49488,6,8,P|292:28|400:72,1,160
460,140,49988,1,0,0:0:0:0:
380,192,50154,1,8,0:0:0:0:
460,244,50321,1,0,0:0:0:0:
380,296,50488,1,8,0:0:0:0:
460,344,50654,1,0,0:0:0:0:
304,348,50821,6,0,L|212:336,1,80,8|0,0:0|0:0,0:0:0:0:
200,244,51154,2,0,L|300:256,1,80,8|0,0:0|0:0,0:0:0:0:
120,292,51488,2,8,P|164:260|168:144,2,160
110,108,52488,6,0,P|146:80|198:80,1,80,8|0,0:0|0:0,0:0:0:0:
276,100,52821,1,8,0:0:0:0:
340,172,52988,1,0,0:0:0:0:
436,160,53154,2,0,P|426:116|398:92,1,80,8|0,0:0|0:0,0:0:0:0:
340,172,53488,6,8,L|356:344,2,160
208,312,54488,1,8,0:0:0:0:
68,116,54821,6,8,P|112:84|216:112,2,160
144,176,55654,1,0,0:0:0:0:
240,188,55821,1,8,0:0:0:0:
336,200,55988,1,0,0:0:0:0:
384,280,56154,6,0,L|372:368,1,80,8|0,0:0|0:0,0:0:0:0:
476,224,56488,2,0,L|488:132,1,80,8|0,0:0|0:0,0:0:0:0:
428,68,56821,2,8,P|392:48|268:68,2,160
248,136,57821,6,0,L|160:136,1,80,8|0,0:0|0:0,0:0:0:0:
104,208,58154,1,8,0:0:0:0:
12,228,58321,1,0,0:0:0:0:
72,300,58488,1,8,0:0:0:0:
104,208,58654,1,0,0:0:0:0:
12,228,58821,6,8,L|68:384,1,160
228,276,59488,2,0,P|272:260|316:272,1,80,8|0,0:0|0:0,0:0:0:0:
396,292,59821,2,0,P|432:276|456:236,1,80,8|0,0:0|0:0,0:0:0:0:
440,104,60154,6,8,P|368:76|280:132,2,160
372,172,60988,1,0,0:0:0:0:
296,108,61154,1,8,0:0:0:0:
216,184,61321,1,0,0:0:0:0:
156,84,61488,5,12,0:0:0:0:
300,228,61988,5,0,0:0:0:0:
356,288,62154,2,0,P|276:256|220:344,1,180.000006866455
292,328,62821,5,0,0:0:0:0:
248,384,62988,1,0,0:0:0:0:
84,320,63321,1,0,0:0:0:0:
48,256,63488,2,0,B|36:200|36:200|36:160|80:140,1,120.000004577637
132,120,63988,1,0,0:0:0:0:
200,144,64154,6,0,P|232:156|336:136,1,120.000004577637
380,116,64654,1,0,0:0:0:0:
440,76,64821,2,0,P|432:120|448:216,1,120.000004577637
464,260,65321,6,0,L|420:280,2,30.0000011444092
480,332,65654,2,0,L|416:356,1,60.0000022888184
372,300,65988,1,0,0:0:0:0:
336,364,66154,2,0,P|304:328|316:252,1,120.000004577637
356,204,66654,1,0,0:0:0:0:
396,144,66821,6,0,B|344:144|344:144|280:192|280:192|232:192,1,180.000006866455
216,264,67488,6,0,B|204:184|204:184|196:136|176:108|132:96|96:108|76:124,1,240.000009155274
128,184,68321,1,0,0:0:0:0:
148,328,68654,1,0,0:0:0:0:
216,352,68821,2,0,P|260:344|304:268,1,120.000004577637
308,216,69321,1,0,0:0:0:0:
296,144,69488,6,0,P|320:176|460:164,1,180.000006866455
444,104,70154,2,0,P|404:76|332:80,1,120.000004577637
264,80,70654,6,0,P|236:100|228:112,2,30.0000011444092
220,20,70988,1,0,0:0:0:0:
164,64,71154,2,0,P|136:56|100:64,1,60.0000022888184
68,184,71488,1,0,0:0:0:0:
68,184,71821,5,0,0:0:0:0:
128,144,71988,1,0,0:0:0:0:
196,168,72154,6,0,P|248:180|332:80,1,180.000006866455,12|0,0:0|0:0,0:0:0:0:
340,28,72821,1,0,0:0:0:0:
432,260,73488,5,0,0:0:0:0:
396,320,73654,2,0,L|260:336,1,120.000004577637
212,304,74154,2,0,P|192:268|208:184,1,120.000004577637
272,172,74654,1,0,0:0:0:0:
268,244,74821,6,0,L|76:220,1,180.000006866455,8|0,0:0|0:0,0:0:0:0:
64,156,75488,1,0,0:0:0:0:
332,52,76154,5,0,0:0:0:0:
368,112,76321,2,0,B|392:132|424:128|424:128|424:164|464:184,1,120.000004577637
476,248,76821,2,0,L|452:376,1,120.000004577637
384,344,77321,1,0,0:0:0:0:
316,320,77488,6,0,P|272:296|144:320,1,180.000006866455,8|0,0:0|0:0,0:0:0:0:
80,336,78154,1,0,0:0:0:0:
160,60,78821,5,0,0:0:0:0:
160,60,78988,2,0,B|220:44|220:44|280:80,1,120.000004577637
312,132,79488,2,0,P|344:152|440:128,1,120.000004577637
480,100,79988,1,0,0:0:0:0:
480,28,80154,6,0,L|476:224,1,180.000006866455,8|0,0:0|0:0,0:0:0:0:
428,260,80821,2,0,L|388:268,7,30.0000011444092
364,272,81488,6,0,L|288:284,1,60.0000022888184
164,312,81988,1,0,0:0:0:0:
100,276,82154,2,0,L|60:296,2,30.0000011444092
100,204,82488,2,0,L|100:136,2,60.0000022888184
104,152,87821,6,0,L|168:144,1,60.0000022888184
204,204,88154,6,0,P|236:180|324:188,1,120.000004577637
408,344,88821,2,0,P|368:316|356:244,1,120.000004577637
464,256,89488,5,0,0:0:0:0:
400,128,89821,1,0,0:0:0:0:
324,248,90154,2,0,L|248:232,1,60.0000022888184
208,280,90488,2,0,L|140:288,1,60.0000022888184
92,244,90821,6,0,P|72:208|88:128,1,120.000004577637
200,48,91488,1,0,0:0:0:0:
316,132,91821,1,0,0:0:0:0:
432,48,92154,5,0,0:0:0:0:
316,132,92488,1,0,0:0:0:0:
432,216,92821,2,0,B|452:256|452:280|440:300|440:300|412:316,1,120.000004577637
268,332,93488,6,0,P|220:316|144:340,1,120.000004577637
60,224,94154,2,0,P|92:184|92:104,1,120.000004577637
224,48,94821,6,0,L|344:64,1,120.000004577637
392,200,95488,2,0,L|268:184,1,120.000004577637
312,324,96154,5,0,0:0:0:0:
176,276,96488,1,0,0:0:0:0:
312,324,96821,1,0,0:0:0:0:
392,200,97154,1,0,0:0:0:0:
256,152,97488,5,0,0:0:0:0:
228,12,97821,1,0,0:0:0:0:
136,120,98154,6,0,L|144:160,7,30.0000011444092
160,196,98821,6,0,L|252:200,1,80,12|0,0:0|0:0,0:0:0:0:
268,292,99154,2,0,L|176:288,1,80,8|0,0:0|0:0,0:0:0:0:
336,360,99488,2,8,B|320:312|320:312|344:196,2,160
432,176,100488,6,8,P|380:120|284:132,1,160
224,180,100988,1,0,0:0:0:0:
128,188,101154,1,8,0:0:0:0:
76,108,101321,1,0,0:0:0:0:
172,100,101488,6,8,L|184:284,1,160
260,316,101988,1,0,0:0:0:0:
352,296,102154,2,0,P|384:272|432:272,1,80,8|0,0:0|0:0,0:0:0:0:
496,204,102488,2,0,P|460:164|456:128,1,80,8|0,0:0|0:0,0:0:0:0:
480,48,102821,6,8,P|440:112|348:112,2,160
388,28,103654,1,0,0:0:0:0:
292,44,103821,1,8,0:0:0:0:
196,60,103988,1,0,0:0:0:0:
176,152,104154,6,0,L|176:252,1,80,8|0,0:0|0:0,0:0:0:0:
256,288,104488,1,8,0:0:0:0:
344,248,104654,1,0,0:0:0:0:
432,288,104821,2,8,P|444:232|376:152,1,160
344,248,105321,1,0,0:0:0:0:
352,344,105488,6,8,L|512:352,2,160
344,248,106321,1,0,0:0:0:0:
256,292,106488,1,8,0:0:0:0:
224,200,106654,1,0,0:0:0:0:
140,248,106821,6,0,L|56:236,1,80,8|0,0:0|0:0,0:0:0:0:
224,200,107154,2,0,L|312:216,1,80,8|0,0:0|0:0,0:0:0:0:
184,104,107488,2,0,L|88:88,1,80,8|0,0:0|0:0,0:0:0:0:
264,48,107821,2,0,L|352:64,1,80,8|0,0:0|0:0,0:0:0:0:
416,124,108154,6,8,B|396:176|440:224|416:296,1,160
344,344,108654,1,0,0:0:0:0:
248,360,108821,1,8,0:0:0:0:
156,336,108988,1,0,0:0:0:0:
92,264,109154,2,0,P|72:224|68:180,1,80,8|0,0:0|0:0,0:0:0:0:
211,116,109488,6,0,L|132:120,1,80,8|0,0:0|0:0,0:0:0:0:
303,28,109821,2,0,L|224:32,1,80,8|0,0:0|0:0,0:0:0:0:
300,112,110154,2,8,P|288:168|192:204,2,160
300,112,111154,6,0,L|396:112,1,80,8|0,0:0|0:0,0:0:0:0:
408,204,111488,1,8,0:0:0:0:
432,296,111654,1,0,0:0:0:0:
452,384,111821,1,8,0:0:0:0:
360,360,111988,1,0,0:0:0:0:
272,324,112154,6,8,P|240:300|112:328,2,160
300,112,113154,1,8,0:0:0:0:
116,168,113488,6,8,L|112:356,2,160
172,88,114321,1,0,0:0:0:0:
224,168,114488,1,8,0:0:0:0:
300,112,114654,1,0,0:0:0:0:
348,196,114821,6,0,P|356:236|344:276,1,80,8|0,0:0|0:0,0:0:0:0:
440,360,115154,2,0,P|432:320|444:272,1,80,8|0,0:0|0:0,0:0:0:0:
428,184,115488,2,8,L|256:196,2,160
264,84,116488,6,0,L|168:92,1,80,8|0,0:0|0:0,0:0:0:0:
88,100,116821,1,8,0:0:0:0:
88,100,116988,1,0,0:0:0:0:
48,188,117154,1,8,0:0:0:0:
48,188,117321,1,0,0:0:0:0:
92,272,117488,6,8,P|124:296|244:260,2,160
164,208,118321,1,0,0:0:0:0:
256,184,118488,1,8,0:0:0:0:
320,252,118654,1,0,0:0:0:0:
416,184,118821,6,8,L|424:24,2,160
412,280,119654,1,0,0:0:0:0:
340,344,119821,1,8,0:0:0:0:
320,252,119988,1,0,0:0:0:0:
412,280,120154,6,0,L|492:284,1,80,8|0,0:0|0:0,0:0:0:0:
340,344,120488,2,0,L|248:340,1,80,8|0,0:0|0:0,0:0:0:0:
136,260,120821,2,0,L|215:263,1,80,8|0,0:0|0:0,0:0:0:0:
92,336,121154,2,0,L|12:332,1,80,8|0,0:0|0:0,0:0:0:0:
136,260,121488,6,0,P|136:216|160:176,1,80,8|0,0:0|0:0,0:0:0:0:
292,120,121821,5,8,0:0:0:0:
276,24,121987,1,0,0:0:0:0:
354,9,122154,2,0,L|275:23,1,80,8|0,0:0|0:0,0:0:0:0:
213,135,122487,2,0,L|291:119,1,80,8|0,0:0|0:0,0:0:0:0:
380,156,122821,5,8,0:0:0:0:
428,240,122988,1,0,0:0:0:0:
352,296,123154,2,0,L|256:292,2,80,8|0|8,0:0|0:0|0:0,0:0:0:0:
420,364,123654,1,0,0:0:0:0:
324,376,123821,6,0,L|236:372,2,80,8|0|8,0:0|0:0|0:0,0:0:0:0:
184,312,124321,1,0,0:0:0:0:
96,272,124488,2,0,P|80:236|76:192,1,80,8|0,0:0|0:0,0:0:0:0:
168,168,124821,2,0,P|180:120|204:88,1,80,8|0,0:0|0:0,0:0:0:0:
292,108,125154,2,0,P|336:76|372:72,1,80,8|0,0:0|0:0,0:0:0:0:
444,120,125488,6,0,L|448:220,1,80,8|0,0:0|0:0,0:0:0:0:
372,260,125821,2,0,L|344:352,1,80,8|0,0:0|0:0,0:0:0:0:
252,332,126154,2,0,L|168:360,1,80,8|0,0:0|0:0,0:0:0:0:
108,292,126488,2,0,L|28:256,1,80,8|0,0:0|0:0,0:0:0:0:
44,164,126821,6,0,P|48:116|64:84,1,80,8|0,0:0|0:0,0:0:0:0:
233,87,127154,2,0,P|194:97|156:88,1,80,8|0,0:0|0:0,0:0:0:0:
308,24,127488,2,0,L|320:112,1,80,8|0,0:0|0:0,0:0:0:0:
412,132,127821,1,8,0:0:0:0:
468,212,127988,1,0,0:0:0:0:
436,300,128154,6,0,L|344:312,1,80,8|0,0:0|0:0,0:0:0:0:
260,320,128488,2,0,L|176:328,1,80,8|0,0:0|0:0,0:0:0:0:
120,252,128821,2,0,L|208:244,1,80,8|0,0:0|0:0,0:0:0:0:
296,240,129154,2,0,L|376:232,1,80,8|0,0:0|0:0,0:0:0:0:
396,136,129488,6,0,P|360:112|316:108,1,80,8|0,0:0|0:0,0:0:0:0:
224,112,129821,2,0,L|128:120,1,80
64,160,130154,1,8,0:0:0:0:
20,244,130321,1,0,0:0:0:0:
56,332,130488,1,8,0:0:0:0:
148,356,130654,1,0,0:0:0:0:
236,312,130821,5,12,0:0:0:0:
