osu file format v14

[General]
AudioFilename: League of Legends Music - Get Jinxed.mp3
AudioLeadIn: 0
PreviewTime: 39821
Countdown: 0
SampleSet: Normal
StackLeniency: 0.7
Mode: 0
LetterboxInBreaks: 1
WidescreenStoryboard: 0

[Editor]
Bookmarks: 71821,98154
DistanceSpacing: 1
BeatDivisor: 2
GridSize: 4
TimelineZoom: 1

[Metadata]
Title:Get Jinxed
TitleUnicode:Get Jinxed
Artist:Agnete Kjolsrud
ArtistUnicode:Agnete Kjolsrud
Creator:Yuthuil
Version:Easy
Source:League Of Legends
Tags:LoL jinx fishbones character song
BeatmapID:766429
BeatmapSetID:347294

[Difficulty]
HPDrainRate:3
CircleSize:3
OverallDifficulty:2
ApproachRate:3
SliderMultiplier:0.8
SliderTickRate:1

[Events]
//Background and Video events
0,0,"jinx_1366.jpg",0,0
//Break Periods
2,37688,38714
2,61688,70714
2,83021,86714
//Storyboard Layer 0 (Background)
//Storyboard Layer 1 (Fail)
//Storyboard Layer 2 (Pass)
//Storyboard Layer 3 (Foreground)
//Storyboard Sound Samples

[TimingPoints]
16155,333.333333333333,4,1,1,40,1,0
40154,-100,4,1,1,50,0,1
61488,-100,4,1,1,40,0,0
98821,-100,4,1,1,60,0,1
120154,-100,4,1,1,65,0,0

[Colours]
Combo1 : 255,128,128
Combo2 : 128,128,255
Combo3 : 255,128,192
Combo4 : 0,128,192

[HitObjects]
88,168,26821,6,8,P|144:120|232:144,1,160,12|8,0:0|0:0,0:0:0:0:
248,212,27821,1,8,0:0:0:0:
267,291,28155,6,8,P|192:272|168:200,1,160
248,212,29155,1,8,0:0:0:0:
328,208,29488,6,8,L|488:232,1,160
492,152,30488,1,8,0:0:0:0:
492,72,30821,6,8,L|312:44,1,160
252,48,31821,1,8,0:0:0:0:
216,120,32155,6,8,B|176:184|176:184|84:204,1,160
96,120,33155,1,8,0:0:0:0:
24,156,33488,6,8,P|12:220|100:288,1,160
152,288,34488,1,8,0:0:0:0:
228,268,34821,6,8,P|304:256|400:272,1,160
464,288,35821,1,8,0:0:0:0:
464,208,36154,2,8,L|464:124,1,80
396,84,36821,2,8,L|336:32,1,80
256,28,37488,1,0,0:0:0:0:
92,68,40154,6,8,P|135:131|212:128,1,160
256,60,41154,1,8,0:0:0:0:
300,128,41488,6,8,P|376:132|420:62,1,160
340,60,42488,1,8,0:0:0:0:
300,128,42821,6,8,B|300:208|300:208|300:256|260:280,1,160
184,284,43821,1,8,0:0:0:0:
143,215,44154,2,8,P|181:204|220:212,1,80
265,276,44821,2,8,P|303:283|341:271,1,80
412,236,45488,6,8,B|452:204|452:204|468:92,1,160
412,36,46488,1,8,0:0:0:0:
332,52,46821,6,8,L|248:52,1,80
208,120,47488,2,8,L|128:120,1,80
60,164,48154,6,8,P|40:228|104:304,1,160
168,284,49154,1,8,0:0:0:0:
246,268,49488,2,8,P|197:208|121:217,1,160
168,284,50488,1,8,0:0:0:0:
216,348,50821,6,8,L|384:356,1,160
440,308,51821,1,8,0:0:0:0:
436,228,52154,6,8,B|412:180|464:128|440:64,1,160
376,28,53154,1,8,0:0:0:0:
301,63,53488,6,8,P|327:93|364:108,1,80
348,188,54154,2,8,L|264:192,1,80
232,264,54821,6,8,L|136:280,1,80
100,336,55488,2,8,P|76:300|76:260,1,80
84,184,56154,6,8,P|112:132|220:104,1,160
278,127,57154,1,8,0:0:0:0:
355,108,57488,6,8,P|430:126|474:191,1,160
484,272,58488,1,8,0:0:0:0:
424,324,58821,6,8,L|344:328,1,80
284,276,59488,2,8,L|200:276,1,80
172,204,60154,6,8,L|84:184,1,80
72,112,60821,1,8,0:0:0:0:
104,40,61154,1,8,0:0:0:0:
184,36,61488,5,12,0:0:0:0:
64,188,72154,6,0,P|92:148|184:128,1,120,12|0,0:0|0:0,0:0:0:0:
196,132,72821,6,0,P|240:148|344:92,1,160
352,64,73654,1,0,0:0:0:0:
412,168,74154,2,0,L|424:344,1,160
268,284,75488,6,0,P|232:264|112:296,1,160,8|0,0:0|0:0,0:0:0:0:
92,312,76321,1,0,0:0:0:0:
24,212,76821,2,0,L|52:40,1,160
204,96,78154,5,0,0:0:0:0:
360,52,78821,1,8,0:0:0:0:
388,208,79488,1,0,0:0:0:0:
248,280,80154,6,0,P|208:288|112:224,2,160,0|8|0,0:0|0:0|0:0,0:0:0:0:
388,208,82154,1,0,0:0:0:0:
256,116,82821,1,0,0:0:0:0:
72,164,88154,6,0,P|112:120|212:124,1,160
308,248,89488,2,0,P|385:256|443:204,1,160
292,156,90821,6,0,B|236:160|212:212|212:212|176:200|128:220,1,160
24,116,92154,1,0,0:0:0:0:
164,40,92821,1,0,0:0:0:0:
312,100,93488,6,0,L|308:280,1,160
156,304,94821,2,0,L|160:136,1,160
288,48,96154,5,0,0:0:0:0:
424,132,96821,1,0,0:0:0:0:
320,256,97488,5,0,0:0:0:0:
152,280,98154,1,0,0:0:0:0:
108,136,98821,6,8,P|136:120|248:168,1,160,12|8,0:0|0:0,0:0:0:0:
256,244,99821,1,8,0:0:0:0:
184,280,100154,2,8,B|141:276|129:256|108:249|108:249|129:240|137:208|182:194,1,160
120,132,101154,1,8,0:0:0:0:
199,114,101488,6,8,P|257:166|256:244,1,160
184,276,102488,1,8,0:0:0:0:
252,320,102821,6,8,L|344:316,1,80
408,340,103488,2,8,L|444:260,1,80
460,188,104154,5,8,0:0:0:0:
420,120,104488,2,8,P|392:96|344:88,2,80
352,172,105488,6,8,L|176:156,1,160
152,224,106488,1,8,0:0:0:0:
172,300,106821,6,8,P|200:312|248:308,1,80
320,276,107488,2,8,P|368:264|408:276,1,80
476,288,108154,6,8,L|468:108,1,160
412,72,109154,1,8,0:0:0:0:
332,52,109488,6,8,P|284:48|192:124,1,160
204,192,110488,1,8,0:0:0:0:
153,254,110821,2,8,P|229:269|280:212,1,160
204,192,111821,1,8,0:0:0:0:
128,176,112154,6,8,P|88:204|72:244,1,80
80,312,112821,2,8,L|128:376,1,80
208,368,113488,5,8,0:0:0:0:
284,348,113821,1,8,0:0:0:0:
360,324,114154,2,8,P|424:300|436:192,1,160
454,138,115154,6,8,P|383:164|368:240,1,160
360,324,116154,2,8,L|280:348,1,80
224,296,116821,1,8,0:0:0:0:
156,256,117154,1,8,0:0:0:0:
92,208,117488,6,8,B|72:148|128:124|100:44,1,160
32,92,118488,1,8,0:0:0:0:
12,168,118821,6,8,P|12:216|24:248,1,80
80,304,119488,1,8,0:0:0:0:
152,336,119821,1,8,0:0:0:0:
232,336,120154,6,8,L|324:328,1,80
392,328,120821,2,8,L|444:268,1,80
480,196,121488,6,8,P|468:156|440:132,1,80
360,128,122154,2,8,P|324:100|308:64,1,80
240,32,122821,6,8,B|200:36|200:36|172:72,1,80
104,104,123488,2,8,B|128:136|128:136|172:148,1,80
234,188,124154,6,8,B|248:152|248:152|240:112,1,80
175,67,124821,2,8,P|152:36|100:28,1,80
36,52,125488,6,8,P|16:92|24:132,1,80
64,192,126154,2,8,P|80:224|68:272,1,80
60,344,126821,6,8,L|160:344,1,80
220,356,127488,2,8,L|304:312,1,80
336,252,128154,5,8,0:0:0:0:
416,236,128488,1,8,0:0:0:0:
424,156,128821,1,8,0:0:0:0:
352,120,129154,1,8,0:0:0:0:
296,180,129488,6,8,L|216:176,1,80
152,220,130154,2,8,L|64:216,2,80,8|8|12,0:0|0:0|0:0,0:0:0:0:
