osu file format v5

[General]
AudioFilename: Minamimoto Iterated the Precious Sine.mp3
AudioLeadIn: 0
PreviewTime: -1
Countdown: 1
SampleSet: Normal
StackLeniency: 0.7
Mode: 0
LetterboxInBreaks: 1
EditorBookmarks: 94612,96023

[Metadata]
Title:Minamimoto Iterated the Precious Sine
Artist:AgelessObsession
Creator:Luna1337H4x
Version:Zetta hard
Source:
Tags:Sho Minamimoto Marisa Stole The Precious Thing So Zetta Slow

[Difficulty]
HPDrainRate:6
CircleSize:6
OverallDifficulty:6
SliderMultiplier:1.1
SliderTickRate:0.5

[Events]
//Background and Video events
0,0,"zettaslowbannerhk2.png"
//Break Periods
//Storyboard Layer 0 (Background)
//Storyboard Layer 1 (Failing)
//Storyboard Layer 2 (Passing)
//Storyboard Layer 3 (Foreground)
//Storyboard Sound Samples
//Background Colour Transformations
3,100,163,162,255

[TimingPoints]
24,352.941176470588,4,1,0,100,1,0

[Colours]
Combo1 : 110,110,110
Combo2 : 55,55,55
Combo3 : 255,0,0

[HitObjects]
64,128,6376,1,0
128,128,6729,1,0
128,224,7788,1,0
64,224,8141,1,0
64,320,9200,1,0
128,320,9553,1,0
128,256,9906,1,0
128,192,10259,1,0
64,160,10612,1,0
96,96,11318,5,0
160,96,11671,1,0
224,96,12023,1,0
288,96,12376,1,0
352,96,12729,1,0
416,96,13082,1,0
480,96,13435,1,0
480,160,13788,1,4
416,160,14141,5,0
352,160,14494,1,0
288,160,14847,1,0
224,160,15200,1,0
160,160,15553,1,0
96,160,15906,1,0
32,160,16259,1,0
32,224,16612,1,2
96,224,16965,5,0
160,224,17318,1,0
224,224,17671,1,0
288,224,18023,1,0
352,224,18376,1,0
416,224,18729,1,0
480,224,19082,1,0
480,288,19435,1,8
416,288,19788,5,0
352,288,20141,1,0
352,224,20494,1,0
352,160,20847,1,0
448,160,21200,1,0
448,224,21553,1,0
448,288,21906,1,0
352,288,22259,1,0
288,256,22612,5,0
256,192,22965,1,0
224,256,23318,1,0
192,192,23671,1,0
160,256,24023,1,0
128,192,24376,1,0
96,256,24729,1,0
64,192,25082,1,0
96,128,25435,5,0
128,64,25788,1,0
160,128,26141,1,0
192,64,26494,1,0
224,128,26847,1,0
256,64,27200,1,0
288,128,27553,1,0
320,64,27906,1,0
352,128,28259,5,0
416,160,28612,1,0
352,192,28965,1,0
416,224,29318,1,0
352,256,29671,1,0
416,288,30023,1,0
352,320,30376,1,0
288,320,30729,1,0
224,256,31082,5,0
224,256,31435,1,0
224,256,31788,1,0
224,256,32141,1,0
224,256,32494,1,0
224,256,32847,1,0
224,256,33200,1,0
128,160,33906,6,0,B|352:160,4,220
96,224,37082,2,0,B|320:224,3,220
320,160,39553,5,0
320,96,39906,1,0
256,96,40259,1,0
256,160,40612,1,0
256,224,40965,1,0
256,288,41318,1,0
320,288,41671,1,0
384,288,42023,1,0
384,224,42376,1,0
384,160,42729,1,0
384,96,43082,1,0
320,96,43435,1,0
256,96,43788,1,0
192,96,44141,1,0
192,192,44494,1,0
96,192,44847,1,0
64,128,45200,6,0,B|224:128,5,110
226,128,47318,2,0,B|354:128,7,110
333,128,50141,1,0
334,128,50494,1,0
288,64,50847,5,0
384,64,51200,1,0
384,128,51553,1,0
384,192,51906,1,0
320,192,52259,1,0
256,192,52612,1,0
192,192,52965,1,0
192,128,53318,1,0
256,128,53671,1,0
256,192,54023,1,0
256,256,54376,1,0
192,256,54729,1,0
192,192,55082,1,0
256,192,55435,1,0
256,256,55788,1,0
256,256,56141,1,0
192,192,56494,5,0
320,192,56847,1,0
320,320,57200,1,0
192,320,57553,1,0
256,256,57906,1,0
192,192,58259,1,0
320,192,58612,1,0
320,320,58965,1,0
384,256,59318,5,0
448,192,59671,1,0
448,320,60023,1,0
384,256,60376,1,0
320,192,60729,1,0
320,320,61082,1,0
256,256,61435,1,0
192,320,61788,1,0
192,192,62141,5,0
256,128,62494,1,0
352,128,62847,1,0
352,224,63200,1,0
256,224,63553,5,0
160,224,63906,1,0
160,320,64259,1,0
256,320,64612,1,0
352,320,64965,1,8
352,224,65318,1,8
256,224,65671,1,8
256,128,66023,1,8
160,128,66376,5,0
160,128,66729,1,0
160,128,67082,1,0
256,160,67788,5,0
352,224,69200,1,0
256,288,69906,1,0
160,224,70612,1,0
256,224,70965,1,0
256,160,71318,1,0
352,224,71671,1,0
256,224,72023,1,0
256,288,72376,1,0
160,224,72729,1,0
224,160,73082,5,0
320,96,73435,1,0
320,192,74141,1,0
320,288,74494,1,0
224,256,74847,1,0
160,192,75553,1,0
224,128,75906,1,0
320,128,76259,1,0
320,224,76965,1,0
224,224,77318,1,0
224,128,77671,1,0
352,128,78376,1,0
352,256,78729,1,0
224,256,79082,1,0
96,160,80494,5,0
192,160,81200,1,0
192,256,81906,1,0
320,256,82259,1,0
320,160,82612,1,0
448,160,82965,1,0
448,256,83318,1,0
384,320,83671,1,0
320,256,84023,1,0
224,256,84376,1,0
224,160,84729,1,0
320,160,85435,1,0
320,64,85788,1,0
224,64,86141,1,0
224,160,86847,1,0
224,256,87200,1,0
288,256,87553,1,0
352,256,88259,1,0
256,192,88612,12,0,89671
160,128,90376,5,0
288,128,90729,1,0
224,192,91082,1,0
160,256,91435,1,0
288,256,91788,1,0
288,192,92141,2,0,B|288:64,3,110
384,96,93553,5,0
448,192,93906,1,0
384,288,94259,1,0
288,256,94612,2,0,B|288:128,3,110
192,128,96023,5,0
128,128,96376,1,0
128,192,96729,1,0
128,256,97082,1,0
128,320,97435,1,0
192,288,97788,1,0
257,246,98141,1,0
256,192,98494,1,0
192,160,98847,5,0
192,64,99200,1,0
288,64,99553,1,0
384,64,99906,1,0
384,160,100259,1,0
352,256,101671,5,0
290,202,102023,1,0
227,155,102376,1,0
160,128,102729,1,0
224,64,103082,2,0,B|352:64,3,110
256,128,104494,5,0
160,128,104847,1,0
160,224,105200,1,0
256,224,105553,1,0
352,224,105906,2,0,B|352:96,4,110
320,224,107671,5,0
320,160,108023,1,0
384,160,108376,1,0
384,224,108729,1,0
320,224,109082,1,0
256,224,109435,1,0
192,224,109788,1,0
192,160,110141,5,0
288,96,110847,1,0
352,128,111553,1,0
384,192,112259,1,0
320,192,112612,1,0
256,192,112965,1,0
128,128,115788,6,0,B|256:128,3,110
256,192,117200,2,0,B|128:192,3,110
128,256,118612,2,0,B|256:256,3,110
320,288,120023,2,4,B|320:160,3,110
