osu file format v9

[General]
AudioFilename: Age Pee - When The Rain Begins To Fall (Nightcore Mix).mp3
AudioLeadIn: 1000
PreviewTime: 53497
Countdown: 0
SampleSet: Normal
StackLeniency: 0.3
Mode: 0
LetterboxInBreaks: 0

[Editor]
Bookmarks: 89273
DistanceSpacing: 0.8
BeatDivisor: 2
GridSize: 8

[Metadata]
Title:When The Rain Begins To Fall (Nightcore Mix)
Artist:Age Pee
Creator:ztrot
Version:Easy
Source:
Tags:Charles445

[Difficulty]
HPDrainRate:2
CircleSize:3
OverallDifficulty:2
ApproachRate:2
SliderMultiplier:1.2
SliderTickRate:2

[Events]
//Background and Video events
0,0,"BG.jpg"
//Break Periods
2,52951,57154
//Storyboard Layer 0 (Background)
//Storyboard Layer 1 (Fail)
//Storyboard Layer 2 (Pass)
//Storyboard Layer 3 (Foreground)
//Storyboard Sound Samples
//Background Colour Transformations
3,100,163,162,255

[TimingPoints]
578,372.670807453416,4,2,1,100,1,0
27223,-100,4,1,1,90,0,0
88714,-100,4,2,1,90,0,0
112379,-100,4,2,1,5,0,0

[Colours]
Combo1 : 180,168,198
Combo2 : 66,132,132
Combo3 : 60,60,77
Combo4 : 255,83,0
SliderBorder : 160,160,160

[HitObjects]
136,64,1323,2,0,B|384:64,1,240
352,208,2627,1,2
256,232,3000,1,0
160,208,3373,1,2
376,320,4304,6,0,B|128:320,1,240,2|2
160,176,5608,1,2
256,152,5981,1,0
352,176,6354,1,2
88,72,7286,6,0,B|88:320,1,240
232,344,8590,1,2
312,296,8963,1,0
232,240,9335,1,2
424,72,10267,6,0,B|424:320,1,240
280,344,11571,1,2
200,296,11944,1,0
280,240,12316,1,2
152,40,13248,5,0
360,40,13994,1,2
256,136,14553,1,2
256,232,14925,1,0
256,328,15298,1,2
56,192,16230,6,0,B|56:56|192:16,1,240,2|0
352,120,17720,2,0,B|352:256|216:296,1,240,2|4
240,104,19211,5,0
424,48,19956,1,0
456,192,20515,1,2
408,280,20888,1,0
312,280,21261,1,2
256,48,22192,6,0,B|128:48|56:176,2,240
256,192,24428,12,4,27410
256,24,28155,5,0
448,24,28900,1,0
352,136,29459,2,0,B|352:256,2,120
64,24,31137,5,0
256,24,31882,1,0
160,136,32441,2,0,B|160:256,2,120
256,360,34118,5,0
448,360,34863,1,0
448,216,35422,1,0
448,120,35795,1,0
448,24,36168,1,0
256,152,37099,5,0
64,152,37845,1,0
160,48,38404,1,0
256,48,38776,1,0
352,48,39149,1,0
352,48,39335,1,4
256,144,40081,5,0
160,144,40453,1,8
208,232,40826,1,0
304,232,41199,1,8
304,232,41385,6,0,B|440:232,2,120
256,216,42317,1,0
256,120,42689,1,8
256,312,43435,5,8
184,136,44180,1,8
256,72,44553,1,0
328,136,44925,1,8
136,224,45671,6,0,B|376:224,1,240,8|8
208,128,47161,1,8
256,48,47534,1,0
304,128,47907,1,8
376,304,48652,6,0,B|120:304,1,240,8|8
256,152,50143,1,8
336,96,50515,1,0
256,40,50888,1,8
176,96,51261,1,4
256,192,51447,12,4,52751
256,64,58714,5,0
160,232,59459,1,0
352,232,60205,1,0
256,128,60764,1,0
256,272,61323,1,0
256,368,61696,1,0
72,320,62441,6,0,B|16:208|152:208|48:88,1,240
192,64,63745,1,0
256,136,64118,1,0
256,136,64304,1,0
256,232,64677,5,4
352,232,65050,1,8
352,40,65795,1,8
160,40,66540,1,8
160,232,67286,1,8
56,72,68031,6,0,B|56:312,1,240,8|8
256,312,69522,2,8,B|256:64,1,240
456,72,71012,2,8,B|456:312,1,240
256,352,72503,5,8
256,352,73248,1,8
256,32,73994,5,8
256,32,74739,1,8
40,192,75484,5,8
40,192,76230,1,8
136,192,76602,5,4
232,192,76975,1,8
360,48,77720,1,8
488,192,78466,1,8
360,336,79211,1,8
264,336,79584,1,0
168,336,79956,5,8
168,144,80702,1,8
360,144,81447,1,8
360,336,82192,1,8
264,336,82565,5,4
168,336,82938,2,0,B|48:296|40:152,2,240,8|8|8
256,168,85174,5,8
256,72,85546,1,4
352,48,85919,1,8
176,120,86664,5,4
256,168,87037,1,4
400,192,87596,1,8
400,336,88155,1,8
256,192,88528,12,0,91509
136,64,92255,6,0,B|384:64,1,240
352,208,93559,1,2
256,232,93932,1,0
160,208,94305,1,2
424,312,95237,6,0,B|424:64,1,240
280,40,96541,1,2
200,88,96914,1,0
280,144,97286,1,2
88,312,98218,6,0,B|88:64,1,240
232,40,99522,1,2
312,88,99895,1,0
232,144,100267,1,2
360,344,101199,5,0
152,344,101945,1,0
256,248,102504,1,2
256,152,102876,1,0
256,56,103249,1,2
456,192,104181,6,0,B|456:328|320:368,1,240
160,264,105671,2,0,B|160:128|296:88,1,240
272,280,107162,5,0
88,336,107907,1,0
56,192,108466,1,2
104,104,108839,1,0
200,104,109212,1,2
256,336,110143,6,0,B|384:336|456:208,2,240
256,192,112379,12,0,115360
