osu file format v5

[General]
AudioFilename: Agape.mp3
AudioLeadIn: 0
PreviewTime: -1
Countdown: 1
SampleSet: Normal
StackLeniency: 0.7
Mode: 0
LetterboxInBreaks: 1

[Metadata]
Title:Agape(NOT FINISHED)
Artist:
Creator:michaelido
Version:Hard
Source:
Tags:

[Difficulty]
HPDrainRate:5
CircleSize:6
OverallDifficulty:8
SliderMultiplier:1.5
SliderTickRate:3

[Events]
//Background and Video events
1,0,"Agape.avi"
0,0,"agepe-bg.jpg"
//Break Periods
2,35012,37746
//Storyboard Layer 0 (Background)
//Storyboard Layer 1 (Failing)
//Storyboard Layer 2 (Passing)
//Storyboard Layer 3 (Foreground)
//Storyboard Sound Samples
//Background Colour Transformations
3,100,163,162,255

[TimingPoints]
3238,409.38864628821,4,1,0,100,1

[HitObjects]
32,64,3238,1,0
96,64,3443,1,0
160,64,3648,1,0
228,65,3852,2,0,B|341:100|412:203|411:203,1,225
216,282,4875,5,0
156,316,5080,1,0
95,344,5284,2,0,B|76:324,1,18.75
32,224,5694,5,0
64,160,5899,1,0
96,96,6103,1,0
256,64,6717,6,0,B|352:64|384:128,1,150
416,192,7536,1,0
384,256,7741,1,0
295,300,8150,1,0
223,321,8355,1,0
147,343,8560,2,0,B|128:328|126:328,1,18.75
45,237,8918,5,0
24,167,9122,1,0
12,68,9327,1,0
109,59,9737,5,0
179,44,9941,1,0
247,49,10146,1,0
317,60,10351,2,0,B|424:70|529:190|512:192,1,243.75
463,287,11425,6,0,B|416:312|382:312|381:312,1,75
301,332,11783,6,0,B|277:336,1,18.75
193,341,12244,1,0
130,324,12449,1,0
76,284,12653,1,0
25,173,13012,1,0
49,113,13216,1,0
145,62,13626,6,0,B|222:28|303:47,1,150
387,54,14240,1,0
461,133,14649,1,0
485,189,14854,1,0
256,192,15314,12,0,16901
250,40,17975,1,0
181,100,18180,5,0
343,106,18385,6,0,B|436:236,1,150
241,151,19204,6,0,B|122:250,1,150
320,208,20022,6,0,B|413:339,1,150
260,333,20841,5,0
198,300,21199,5,0
92,299,21403,1,0
207,214,21609,1,0
115,214,22018,1,0
142,126,22479,1,0
38,183,22837,1,0
52,82,23246,5,0
97,51,23451,2,0,B|164:28|251:39,1,150
243,39,24065,1,0
192,122,24475,5,0
143,156,24679,1,0
96,192,24884,1,0
96,320,25293,1,0
224,320,25703,1,0
224,192,26112,1,0
97,191,26521,1,0
95,321,26931,1,0
224,318,27340,1,0
379,172,27750,5,0
480,224,27955,1,0
376,284,28160,1,0
506,228,28568,5,0
414,228,28978,5,0
315,228,29387,5,0
202,229,29797,6,0,B|140:232|108:214|95:182|101:145|128:118|153:104|204:85|308:68,1,337.5
256,192,31639,12,0,34812
53,57,38496,5,0
99,88,38701,1,0
181,148,39110,1,0
276,219,39520,1,0
489,59,40185,5,0
444,96,40390,1,0
346,153,40799,1,0
240,218,41208,1,0
255,333,41822,5,0
253,278,42027,1,0
253,175,42436,1,0
253,74,42846,1,0
