osu file format v6

[General]
AudioFilename: 08 - Afterlife - glide.mp3
AudioLeadIn: 0
PreviewTime: 22731
Countdown: 1
SampleSet: Soft
StackLeniency: 0.7
Mode: 0
LetterboxInBreaks: 1

[Editor]
Bookmarks: 142730
DistanceSpacing: 0.899999976158142
BeatDivisor: 2
GridSize: 8

[Metadata]
Title:Glide
Artist:Afterlife
Creator:NachoPiggy
Version:Hard
Source:Afterlife
Tags:Ambient Funky Space whymeman

[Difficulty]
HPDrainRate:7
CircleSize:5
OverallDifficulty:6
SliderMultiplier:1.4
SliderTickRate:1

[Events]
//Background and Video events
0,0,"GalaxyBG.jpg"
//Break Periods
2,53690,60382
2,126396,134676
//Storyboard Layer 0 (Background)
//Storyboard Layer 1 (Fail)
//Storyboard Layer 2 (Pass)
//Storyboard Layer 3 (Foreground)
//Storyboard Sound Samples
//Background Colour Transformations
3,100,163,162,255

[TimingPoints]
22785,352.941176470588,4,2,0,100,1,0

[HitObjects]
56,48,22784,1,4
112,128,23137,2,2,B|136:200|176:104,1,70
248,112,23667,1,0
344,136,24020,2,2,B|376:224|208:288,1,210
72,328,25608,6,2,B|72:192|192:160,1,210
272,136,26490,1,0
368,128,26843,2,2,B|440:200|248:296,1,210
112,56,28432,6,2,B|400:56|400:56|368:168,1,350
360,208,29667,2,2,B|352:312|344:296|160:288,1,210
48,40,31255,6,2,C|136:48|144:120,1,140
144,160,31784,1,0
136,288,32137,1,0
200,288,32314,1,0
248,248,32490,6,2,B|304:120|176:96,1,140
168,120,33020,1,0
104,120,33196,1,0
64,224,33549,1,0
96,280,33726,1,2
216,264,34079,6,2,B|376:136,1,140,6|2
368,128,34608,1,0
312,88,34784,1,0
264,128,34961,1,0
216,168,35137,1,0
152,160,35314,2,2,B|152:8|336:40,2,210
256,192,37079,12,0,38314
432,72,38843,5,0
384,112,39020,1,0
336,152,39196,1,0
288,192,39373,1,4
184,264,39902,6,2,B|80:320|48:144,1,210
87,104,40608,1,0
143,75,40784,1,0
205,63,40961,2,2,B|293:183|205:247|197:263|197:263|205:263,1,210
312,280,41843,5,2
352,232,42020,1,2
320,176,42196,1,2
240,272,42549,6,2,L|184:144|168:128,1,140
152,88,43079,1,0
280,88,43432,1,0
344,88,43608,1,0
368,144,43784,6,2,B|472:336|504:208,1,210
480,96,44667,1,0
440,48,44843,1,0
152,256,45373,6,2,B|176:40|464:32,1,420
504,152,46784,2,2,B|432:336|192:368,1,350
192,192,48196,2,2,B|192:24,1,140
256,56,48726,2,2,B|256:248,1,140
384,184,49432,5,4
256,192,49961,12,0,50843
144,48,51373,5,0
104,96,51549,1,0
144,216,51902,1,0
104,168,52079,1,0
160,128,52255,6,2,B|408:128,1,210
496,120,53137,5,0
456,168,53314,1,0
408,208,53490,1,2
144,32,61432,6,2,B|376:32|384:160,1,280
352,200,62314,1,4
248,272,62667,1,2
200,232,62843,1,2
184,104,63196,1,2
232,64,63373,1,2
256,184,63726,6,2,B|280:72|400:32,1,210
480,128,64608,1,0
424,160,64784,1,0
312,232,65137,6,2,B|128:256|152:80,1,210
217,35,66020,1,0
279,42,66196,1,0
318,91,66373,2,2,B|358:259|222:259,1,210
56,208,67432,6,2,B|112:168|128:224,3,70,2|2|2|6
160,96,68314,1,8
112,56,68490,1,0
352,96,68843,1,0
400,56,69020,1,8
448,168,69373,5,0
400,288,69726,1,8
275,271,70079,1,0
231,223,70255,1,0
207,165,70432,1,8
248,120,70608,6,2,B|416:120|440:232,1,210,2|10
398,256,71314,1,0
343,287,71490,1,0
225,240,71843,1,8
184,192,72020,6,2,B|120:112|432:40,1,280
424,168,73079,5,8
376,208,73255,1,8
256,240,73608,2,2,B|112:248|80:136,1,210,6|2
72,88,74314,5,2
72,24,74490,1,2
200,24,74843,1,2
200,360,75196,5,0
200,296,75373,1,8
200,168,75726,1,2
240,120,75902,1,0
280,168,76079,1,10
240,217,76255,5,0
301,232,76432,2,2,C|453:144,1,140,2|10
473,125,76961,1,0
472,256,77314,1,0
472,320,77490,1,8
408,320,77667,6,2,C|408:104,1,210,2|10
88,40,78549,5,8
88,104,78726,1,0
88,168,78902,1,8
88,232,79079,1,0
88,296,79255,1,4
336,288,79961,5,0
400,288,80137,1,0
368,168,80490,1,2
448,72,80843,5,0
448,136,81020,1,2
64,72,81549,1,0
64,136,81726,1,2
128,136,81902,5,0
128,200,82079,2,2,B|120:336|344:304,1,210
384,256,82961,1,0
336,216,83137,1,0
288,176,83314,6,2,B|120:72|288:32,1,210
328,48,84020,1,0
392,48,84196,1,2
456,48,84373,1,0
456,112,84549,1,2
392,112,84726,1,0
328,112,84902,1,4
208,152,85255,5,0
160,192,85432,1,0
208,232,85608,1,2
256,192,85785,1,2
208,312,86137,6,0,B|312:360|456:200,1,280,0|2
454,82,87196,5,0
404,120,87373,1,2
356,161,87549,5,0
292,158,87726,2,2,B|292:-26|428:30,1,210
464,136,88608,1,0
464,200,88785,1,0
416,240,88961,6,2,B|272:168|304:344,1,210
272,8,89843,5,0
240,64,90020,1,0
192,104,90196,2,2,B|192:184,2,70,2|2|6
320,112,90902,5,8
272,152,91079,1,0
152,192,91432,1,0
184,248,91608,1,8
216,192,91785,6,0,B|224:24|360:40,1,210,0|8
464,16,92667,5,2
424,64,92843,1,0
384,112,93020,1,10
344,160,93196,1,0
296,200,93373,6,2,B|184:176|256:48,1,140,2|10
272,48,93902,1,0
392,8,94255,1,0
424,64,94432,1,8
448,120,94608,6,2,B|520:200|512:248,1,140,2|10
456,272,95137,1,2
402,238,95314,1,0
361,189,95490,1,2
337,130,95667,1,0
331,67,95843,1,10
384,33,96020,1,2
446,35,96196,1,6
464,136,96549,5,10
280,192,97079,1,10
168,248,97432,2,10,B|40:320|192:360,1,140
208,336,97961,1,4
320,272,98314,5,0
376,240,98490,1,0
408,184,98667,1,10
408,120,98843,2,2,B|328:72|192:120,1,210,2|10
160,160,99549,5,0
120,208,99726,1,0
120,272,99902,1,0
176,296,100079,1,8
296,272,100432,6,2,B|376:272|376:88|376:88|376:16,1,280
312,32,101314,6,2,B|192:32|208:32,3,70,2|10|2|2
272,152,102196,1,8
216,336,102726,5,8
136,240,103079,2,2,B|176:120|288:136,1,140
280,120,103608,1,8
456,80,104137,5,0
408,120,104314,1,2
360,160,104490,1,0
312,200,104667,1,0
272,248,104843,5,8
272,248,105020,1,10
224,200,105196,1,8
224,200,105373,1,8
160,200,105549,1,8
160,200,105726,1,10
120,248,105902,1,4
48,144,106255,5,2
96,104,106432,1,0
160,88,106608,1,0
224,80,106785,1,2
288,96,106961,1,0
336,136,107137,1,6
256,352,107843,5,8
256,192,108373,1,8
256,192,108726,1,8
256,32,109255,1,8
136,184,109785,5,0
184,144,109961,1,8
240,128,110137,1,0
296,144,110314,1,0
376,240,110667,5,8
440,240,110843,1,0
408,360,111196,1,0
408,24,111549,1,8
112,64,111902,5,2
160,104,112079,1,8
280,80,112432,1,8
336,56,112608,1,0
400,64,112785,6,2,B|472:104|472:64,2,70,10|10|6
272,40,113490,5,8
112,136,114020,1,8
208,216,114373,1,8
384,152,114902,1,10
392,336,115432,5,0
336,304,115608,1,8
336,240,115785,1,0
392,208,115961,1,0
472,112,116314,5,8
424,64,116490,1,0
304,96,116843,1,10
224,192,117196,1,10
112,136,117549,5,8
152,88,117726,1,0
216,72,117902,2,2,B|320:88,3,70
336,112,118608,1,8
368,160,118785,1,4
448,256,119137,5,8
336,112,119667,1,8
216,144,120020,1,8
104,296,120549,1,10
72,112,121079,5,0
120,160,121255,1,8
160,208,121432,1,0
208,248,121608,1,0
320,248,121961,5,8
360,200,122137,1,0
304,80,122490,1,10
176,80,122843,1,10
56,112,123196,6,0,B|56:232,1,70,8|0
136,280,123726,1,8
176,232,123902,1,0
224,192,124079,2,0,B|320:192,1,70,10|2
360,192,124432,1,0
256,56,124785,5,8
256,304,125314,1,8
128,192,125667,1,8
384,192,126196,1,10
80,56,135726,5,6
80,184,136079,1,10
264,128,136608,1,2
264,128,136785,1,10
264,128,136961,1,2
424,32,137490,5,8
408,216,138020,1,0
384,272,138196,1,8
320,272,138373,1,0
264,240,138549,1,0
232,120,138902,5,10
96,256,139432,1,0
144,296,139608,1,8
208,304,139785,1,0
280,200,140137,5,8
336,168,140314,1,0
224,104,140667,2,2,B|152:96|208:32,3,70,10|2|10|2
248,40,141373,5,0
248,40,141726,1,8
392,264,142255,1,0
392,264,142432,1,8
360,168,142608,6,2,B|336:72|56:160|120:368|136:368|296:368,1,490
360,216,144726,6,2,B|336:312|56:224|120:16|136:16|296:16,1,490
296,296,146667,6,2,B|192:296|224:344,2,70,10|8|6
184,232,147373,5,8
280,64,147902,1,0
336,88,148079,1,8
376,136,148255,1,0
280,216,148608,6,0,B|216:104,1,70,0|8
112,16,149314,1,0
96,80,149490,1,8
136,128,149667,1,0
184,168,149843,1,0
288,240,150196,6,0,B|344:288|344:288,1,70,8|0
464,256,150726,1,0
424,200,150902,1,8
376,152,151079,1,0
280,88,151432,6,0,B|192:88,1,70,8|0
88,168,152137,1,0
88,232,152314,1,8
208,248,152667,5,0
288,152,153020,1,8
288,152,153196,1,0
288,280,153549,1,0
288,280,153726,1,8
288,216,153902,1,0
288,88,154255,6,0,B|392:88,1,70,0|8
360,280,154961,1,0
424,280,155137,2,0,B|528:312|416:368,1,140,8|0
320,8,155843,5,8
336,136,156196,2,0,B|416:184|344:264,1,140,0|8
320,200,156726,1,0
192,176,157079,6,2,C|160:200|176:232,7,70,2|2|2|2|2|2|2|4
240,120,158667,5,8
240,120,158843,1,0
240,232,159196,1,0
304,216,159373,1,8
344,168,159549,1,0
384,120,159726,5,2
336,72,159902,1,2
288,32,160079,1,10
224,48,160255,1,2
168,80,160432,1,2
272,144,160785,5,10
272,208,160961,1,0
224,248,161137,1,0
160,256,161314,1,0
120,208,161490,1,8
128,144,161667,1,0
240,88,162020,1,10
368,88,162373,1,10
288,200,162726,5,8
288,200,162902,2,0,B|240:256,4,70,2|2|2|2|8
336,80,163961,5,0
240,160,164314,1,8
192,200,164490,1,0
272,296,164843,1,10
392,256,165196,1,10
336,144,165549,6,2,B|400:24|544:64,2,210
224,200,166961,1,8
200,144,167137,2,2,B|104:8|16:88|16:88|24:88,2,210
264,136,168373,1,12
264,136,168549,1,2
56,40,168902,5,0
256,240,169255,1,0
256,240,169432,1,2
456,40,169785,1,2
256,240,170137,1,2
72,280,171020,5,0
144,272,171196,1,2
136,144,171549,1,2
208,24,171902,6,0,B|296:72|200:120,1,70,0|8
256,136,172255,1,0
232,192,172432,1,0
152,288,172785,1,8
112,232,172961,1,0
200,144,173314,1,2
320,104,173667,1,2
424,168,174020,5,8
400,224,174196,1,0
336,224,174373,1,0
280,192,174549,1,0
232,144,174726,1,0
200,88,174902,1,8
136,104,175079,5,0
88,144,175255,1,0
152,256,175608,1,2
216,256,175785,1,0
280,152,176137,1,2
368,56,176490,1,2
192,120,177020,5,0
104,208,177373,2,2,B|48:264|128:304,1,70
152,248,177726,1,2
216,248,177902,5,0
256,200,178079,1,0
160,128,178432,1,2
208,88,178608,6,0,B|320:72,1,70
336,88,178961,2,0,B|368:192,1,70,2|2
320,208,179314,2,0,B|240:224,1,70,0|2
184,184,179667,5,0
128,160,179843,1,2
240,112,180196,1,2
296,136,180373,1,2
328,192,180549,6,0,B|272:256|376:272,2,70,2|0|4
416,104,181255,5,0
392,160,181432,1,0
320,264,181785,1,2
200,312,182137,1,2
344,72,182667,5,2
280,64,182843,1,0
160,104,183196,1,0
128,160,183373,1,2
184,176,183549,1,0
248,184,183726,1,0
368,152,184079,6,0,B|456:192|376:256,1,70
304,272,184608,2,2,B|232:280|264:168,1,70
312,208,184961,1,2
288,80,185314,6,0,B|192:80|192:80|192:72,1,70
88,80,185843,2,0,B|88:184,1,70,2|0
88,216,186196,2,2,B|216:216,1,70
224,216,186549,1,0
328,136,186902,5,0
328,136,187079,1,0
432,208,187432,1,2
320,272,187785,1,2
248,144,188314,5,0
56,128,188843,5,0
112,160,189020,1,2
56,128,189196,1,0
112,160,189373,1,0
248,208,189902,5,0
376,208,190255,1,0
320,104,190608,1,2
320,104,190961,1,2
320,104,191137,1,2
192,96,191490,5,2
152,144,191667,1,0
136,200,191843,1,2
144,264,192020,1,0
200,296,192196,1,0
360,232,192726,6,2,B|416:144|432:264,1,70,2|0
448,248,193079,5,0
328,296,193432,1,2
216,240,193785,1,2
240,184,193961,1,0
344,120,194314,1,2
296,80,194490,1,0
240,112,194667,1,2
184,144,194843,1,0
136,184,195020,1,0
112,304,195373,5,0
112,304,195549,1,0
400,304,195902,1,2
256,56,196255,1,2
256,184,196608,5,8
256,184,196785,1,10
448,184,197314,5,8
448,184,197490,1,8
448,184,197667,1,8
448,184,197843,1,8
272,80,198196,6,2,B|160:128|160:128|160:136,1,70
120,200,198726,2,0,B|216:216,1,70
248,192,199079,2,0,B|352:104,1,70
424,112,199608,2,2,B|384:208,1,70
320,272,200137,5,0
264,240,200314,1,0
224,192,200490,1,0
256,136,200667,1,0
200,96,200843,6,2,B|120:152|168:280,1,140,2|0
216,232,201373,2,2,B|424:120|376:296,1,210
248,112,202432,5,4
368,80,202785,6,2,B|360:24|440:48,4,70,2|2|2|2|4
288,184,203843,5,8
232,152,204020,1,0
120,88,204373,1,10
120,216,204726,1,10
232,64,205255,5,8
416,64,205785,1,0
416,128,205961,1,8
416,192,206137,1,0
416,256,206314,1,0
288,256,206667,5,8
224,256,206843,1,0
224,128,207196,1,10
96,128,207549,1,10
224,128,207902,5,8
288,128,208079,2,0,B|408:128,3,70
416,128,208785,1,10
416,64,208961,1,0
352,64,209137,1,0
224,64,209490,5,8
224,64,209667,1,0
96,64,210020,1,0
96,128,210196,1,8
96,192,210373,1,0
344,208,210902,5,8
344,16,211432,1,0
296,56,211608,1,8
248,104,211785,1,0
200,144,211961,1,0
312,192,212314,5,8
312,192,212490,1,0
256,80,212843,1,0
192,80,213020,1,8
136,112,213196,1,0
256,360,213549,5,0
256,360,213726,1,8
256,24,214079,5,2
256,24,214255,1,2
104,144,214785,6,2,C|432:144|416:256|104:272|104:272|104:272,1,770
256,280,217079,5,0
360,192,217255,1,2
256,104,217432,1,0
152,192,217608,1,0
256,192,217961,5,8
256,192,218137,1,0
144,96,218490,1,2
96,136,218667,1,8
144,176,218843,1,2
272,192,219196,5,10
312,144,219373,1,0
376,136,219549,1,2
416,184,219726,1,2
432,248,219902,1,0
368,264,220079,1,10
304,264,220255,5,0
248,232,220432,1,0
296,112,220785,1,8
240,88,220961,1,0
128,144,221314,5,0
192,152,221490,1,8
224,208,221667,1,0
344,168,222020,6,0,B|360:88|280:88,1,70,2|8
304,224,222549,2,0,B|400:304,1,70,0|8
464,224,223079,1,8
408,184,223255,1,0
360,64,223608,6,2,B|360:160,1,70,10|2
232,144,224137,2,2,B|232:232,1,70,2|10
168,216,224490,2,2,B|168:296,1,70
104,272,224843,2,0,B|104:368,1,70,10|10
184,336,225196,6,8,B|264:328|232:280|232:280|240:288,5,70,10|10|10|10|10|4
