osu file format v10

[General]
AudioFilename: Because Of You.mp3
AudioLeadIn: 0
PreviewTime: 65509
Countdown: 0
SampleSet: Normal
StackLeniency: 0.8
Mode: 0
LetterboxInBreaks: 0

[Editor]
Bookmarks: 35078,65509,96474,127238,142562,173287
DistanceSpacing: 0.8
BeatDivisor: 4
GridSize: 4

[Metadata]
Title:Because of You
TitleUnicode:
Artist:After School
ArtistUnicode:
Creator:Wiinter
Version:Normal
Source:
Tags:kpop
BeatmapID:141257
BeatmapSetID:45204

[Difficulty]
HPDrainRate:4
CircleSize:4
OverallDifficulty:4
ApproachRate:4
SliderMultiplier:1.2
SliderTickRate:1

[Events]
//Background and Video events
0,0,"bg.jpg"
//Break Periods
2,96718,108638
2,173518,179198
//Storyboard Layer 0 (Background)
//Storyboard Layer 1 (Fail)
//Storyboard Layer 2 (Pass)
//Storyboard Layer 3 (Foreground)
//Storyboard Sound Samples
//Background Colour Transformations
3,100,163,162,255

[TimingPoints]
4358,480,4,2,2,60,1,0
35078,-100,4,2,1,70,0,0
65798,-100,4,1,1,60,0,1
96518,-100,4,2,1,80,0,0
109958,-100,4,2,1,50,0,0
111398,-100,4,2,1,80,0,0
142598,-100,4,1,1,60,0,1
173318,-100,4,1,1,20,0,0
180278,-100,4,2,2,50,0,0
219398,-100,4,1,1,60,0,1
235718,-100,4,2,1,5,0,0

[Colours]
Combo1 : 209,153,247
Combo2 : 160,160,160
Combo3 : 251,155,199
SliderBorder : 255,255,255

[HitObjects]
300,236,3398,2,0,B|360:236|356:296|420:300,2,120,0|2|0,0:0|0:0|0:0,0:0:0
208,208,4838,2,0,B|308:128,1,120,2|0,0:0|0:0,0:0:0
380,76,5798,1,2,0:0:0
452,140,6278,1,0,0:0:0
292,248,7238,6,0,B|212:224|160:344|60:332,1,240
40,244,8678,1,2,0:0:0
52,148,9158,1,0,0:0:0
136,100,9638,1,2,0:0:0
228,132,10118,1,0,0:0:0
288,208,10598,6,0,B|392:132,1,120,2|0,0:0|0:0,0:0:0
396,232,11558,1,2,0:0:0
340,312,12038,1,0,0:0:0
252,276,12518,5,2,0:0:0
160,244,12998,1,0,0:0:0
80,296,13478,1,2,0:0:0
24,220,13958,2,0,B|108:164|100:44,1,180
148,52,14918,6,0,B|280:64,2,120
180,240,16838,5,0,0:0:0
88,268,17318,1,2,0:0:0
32,192,17798,2,0,B|116:176|172:108,1,120,0|2,0:0|0:0,0:0:0
120,100,18518,2,0,B|292:188,1,180,0|2,0:0|0:0,0:0:0
372,152,19718,6,0,B|440:132|464:64,1,120,0|2,0:0|0:0,0:0:0
364,60,20678,1,0,0:0:0
272,84,21158,1,2,0:0:0
180,60,21638,2,0,B|128:96,2,60,0|0|2,0:0|0:0|0:0,0:0:0
208,100,22358,2,0,B|244:156|180:220|224:304,1,180,0|2,0:0|0:0,0:0:0
304,252,23558,5,0,0:0:0
380,196,24038,1,2,0:0:0
464,244,24518,1,0,0:0:0
380,196,24998,2,0,B|304:184|260:108,1,120,2|0,0:0|0:0,0:0:0
348,68,25958,5,2,0:0:0
252,56,26438,1,0,0:0:0
168,100,26918,1,2,0:0:0
100,168,27398,6,0,B|108:224|152:288|245:292|328:248,1,240
284,168,28838,1,2,0:0:0
376,140,29318,2,0,B|440:112,2,60,0|0|2,0:0|0:0|0:0,0:0:0
412,228,30278,1,0,0:0:0
332,280,30758,1,2,0:0:0
236,284,31238,5,0,0:0:0
168,216,31718,2,0,B|124:164|64:152,1,120,2|0,0:0|0:0,0:0:0
0,200,32678,2,0,B|204:48,1,240,2|2,0:0|0:0,0:0:0
256,128,34118,1,0,0:0:0
240,224,34598,1,2,0:0:0
288,308,35078,6,0,B|400:232,1,120,0|8,0:0|0:0,0:0:0
424,152,36038,1,0,0:0:0
476,72,36518,1,8,0:0:0
380,68,36998,1,0,0:0:0
308,132,37478,5,8,0:0:0
240,200,37958,1,0,0:0:0
164,136,38438,1,8,0:0:0
236,72,38918,1,0,0:0:0
144,44,39398,6,0,B|72:40|24:112,1,120,8|0,0:0|0:0,0:0:0
64,184,40358,1,8,0:0:0
40,276,40838,1,0,0:0:0
136,296,41318,2,0,B|208:256,2,60,8|0|0,0:0|0:0|0:0,0:0:0
224,336,42278,1,8,0:0:0
300,276,42758,1,0,0:0:0
348,192,43238,5,8,0:0:0
260,160,43718,2,0,B|164:240,2,120,0|8|0,0:0|0:0|0:0,0:0:0
348,124,45158,1,8,0:0:0
420,188,45638,1,0,0:0:0
488,120,46118,1,8,0:0:0
416,56,46598,1,0,0:0:0
320,48,47078,6,0,B|260:32|194:42,2,120,8|0|8,0:0|0:0|0:0,0:0:0
272,132,48518,1,0,0:0:0
184,172,48998,1,8,0:0:0
100,220,49478,2,0,B|160:260,2,60,0|0|8,0:0|0:0|0:0,0:0:0
52,136,50438,5,0,0:0:0
148,152,50918,1,8,0:0:0
220,216,51398,1,0,0:0:0
284,288,51878,2,0,B|344:276|404:220,1,120,8|0,0:0|0:0,0:0:0
476,196,52838,6,0,B|376:100,1,120,8|0,0:0|0:0,0:0:0
292,104,53798,1,8,0:0:0
204,140,54278,1,0,0:0:0
136,208,54758,6,0,B|88:256,2,60,8|0|0,0:0|0:0|0:0,0:0:0
224,240,55718,2,0,B|252:304|368:328,1,120,8|0,0:0|0:0,0:0:0
348,224,56678,1,8,0:0:0
280,156,57158,2,0,B|312:104|388:132|420:84,2,120,0|8|0,0:0|0:0|0:0,0:0:0
188,160,58598,5,8,0:0:0
104,208,59078,1,0,0:0:0
32,272,59558,1,8,0:0:0
12,176,60038,1,0,0:0:0
64,96,60518,5,8,0:0:0
160,108,60998,2,0,B|216:68|292:80,1,120,0|8,0:0|0:0,0:0:0
220,160,61958,2,0,B|248:196|255:225|256:284,1,120,0|8,0:0|0:0,0:0:0
168,232,62918,5,0,0:0:0
80,196,63398,1,8,0:0:0
56,288,63878,2,0,B|116:316,1,60
160,312,64358,2,0,B|268:352,2,60,8|0|0,0:0|0:0|0:0,0:0:0
236,256,65318,6,0,B|328:180,1,120,8|4,0:0|0:0,0:0:0
416,140,66278,1,8,0:0:0
344,76,66758,2,0,B|344:12,2,60,0|0|8,0:0|0:0|0:0,0:0:0
280,144,67718,2,0,B|160:168|156:240|248:224|220:164|80:156,1,240
64,244,69158,5,8,0:0:0
28,156,69638,1,0,0:0:0
80,76,70118,1,8,0:0:0
176,92,70598,2,0,B|240:104|304:88,1,120,0|8,0:0|0:0,0:0:0
388,76,71558,2,0,B|356:124|372:216,1,120,0|8,0:0|0:0,0:0:0
284,240,72518,1,0,0:0:0
196,208,72998,1,8,0:0:0
120,264,73478,5,4,0:0:0
56,192,73958,1,8,0:0:0
36,100,74438,2,0,B|136:64,1,60
136,100,74918,2,0,B|176:136|268:132,1,120,8|0,0:0|0:0,0:0:0
344,128,75878,1,8,0:0:0
428,84,76358,2,0,B|480:120|476:228,1,120,0|8,0:0|0:0,0:0:0
388,232,77318,5,0,0:0:0
300,272,77798,1,8,0:0:0
204,240,78278,1,0,0:0:0
120,284,78758,1,8,0:0:0
64,208,79238,2,0,B|28:160,2,60,0|0|8,0:0|0:0|0:0,0:0:0
108,192,79958,2,0,B|236:224|364:128,1,240,0|4,0:0|0:0,0:0:0
364,108,81158,5,0,0:0:0
448,156,81638,1,8,0:0:0
384,228,82118,1,0,0:0:0
348,140,82598,1,8,0:0:0
260,176,83078,5,0,0:0:0
272,80,83558,1,8,0:0:0
348,140,84038,1,0,0:0:0
384,228,84518,6,0,B|384:288|444:344,1,120,8|0,0:0|0:0,0:0:0
484,252,85478,2,0,B|492:188|420:120,1,120,8|0,0:0|0:0,0:0:0
348,140,86438,1,8,0:0:0
264,184,86918,6,0,B|224:236|124:220,2,120,0|8|0,0:0|0:0|0:0,0:0:0
256,88,88358,2,0,B|256:16,2,60,8|0|4,0:0|0:0|0:0,0:0:0
340,136,89318,5,8,0:0:0
272,204,89798,2,0,B|296:268|400:248|432:296,2,180,0|0|8,0:0|0:0|0:0,0:0:0
204,272,91718,1,0,0:0:0
116,316,92198,1,8,0:0:0
20,328,92678,1,0,0:0:0
52,232,93158,6,0,B|56:168|24:112,1,120,8|0,0:0|0:0,0:0:0
120,104,94118,2,0,B|120:172|220:208,1,120,8|0,0:0|0:0,0:0:0
272,148,95078,1,8,0:0:0
368,136,95558,1,0,0:0:0
428,212,96038,1,8,0:0:0
396,304,96518,1,2,0:0:0
248,184,109958,5,2,0:0:0
176,120,110438,1,2,0:0:0
268,92,110918,1,2,0:0:0
248,184,111398,1,2,0:0:0
248,184,111878,6,0,B|128:264,1,120,0|8,0:0|0:0,0:0:0
188,340,112838,2,0,B|160:208|44:136,1,240
144,104,114278,5,8,0:0:0
236,132,114758,1,0,0:0:0
324,172,115238,1,8,0:0:0
372,256,115718,1,0,0:0:0
456,304,116198,6,0,B|492:252|488:168,1,120,8|0,0:0|0:0,0:0:0
432,112,117158,1,8,0:0:0
336,124,117638,1,0,0:0:0
240,104,118118,2,0,B|172:124,2,60,8|0|0,0:0|0:0|0:0,0:0:0
260,196,119078,1,8,0:0:0
192,264,119558,5,0,0:0:0
264,328,120038,1,8,0:0:0
352,288,120518,2,0,B|416:288|476:340,1,120,0|8,0:0|0:0,0:0:0
484,236,121478,1,0,0:0:0
408,176,121958,6,0,B|344:156|304:76,2,120,8|0|8,0:0|0:0|0:0,0:0:0
440,84,123398,1,0,0:0:0
356,40,123878,1,8,0:0:0
260,36,124358,1,0,0:0:0
176,80,124838,1,8,0:0:0
96,132,125318,6,0,B|92:188|12:240,1,120
112,276,126278,2,0,B|176:296,1,60
208,264,126758,2,0,B|300:296,1,60,8|0,0:0|0:0,0:0:0
312,276,127238,6,0,B|380:264|432:184,1,120,0|2,0:0|0:0,0:0:0
336,152,128198,1,0,0:0:0
268,84,128678,1,2,0:0:0
360,52,129158,5,0,0:0:0
440,104,129638,1,2,0:0:0
396,188,130118,1,0,0:0:0
464,256,130598,1,2,0:0:0
380,300,131078,6,0,B|308:296|268:336|268:336|224:288|112:304,1,240
120,212,132518,1,2,0:0:0
56,140,132998,2,0,B|24:84,2,60,0|0|2,0:0|0:0|0:0,0:0:0
144,108,133958,1,0,0:0:0
236,136,134438,2,0,B|296:172|392:148,1,120,2|0,0:0|0:0,0:0:0
432,104,135398,5,2,0:0:0
456,196,135878,1,0,0:0:0
372,244,136358,1,2,0:0:0
280,212,136838,6,0,B|216:196|132:224,1,120,0|2,0:0|0:0,0:0:0
92,280,137798,1,0,0:0:0
184,312,138278,1,2,0:0:0
280,316,138758,5,0,0:0:0
372,284,139238,1,2,0:0:0
292,224,139718,2,0,B|380:108,1,120,0|2,0:0|0:0,0:0:0
256,192,140678,12,4,142598,0:0:0
196,128,143078,22,0,B|188:160|136:192,2,60,8|0|0,0:0|0:0|0:0,0:0:0
292,116,144038,1,8,0:0:0
236,196,144518,2,0,B|370:206|450:110,1,240,8|8,0:0|0:0,0:0:0
372,56,145958,1,0,0:0:0
280,32,146438,6,0,B|280:100|332:156,1,120,0|8,0:0|0:0,0:0:0
244,200,147398,1,0,0:0:0
180,128,147878,1,8,0:0:0
120,204,148358,1,0,0:0:0
60,280,148838,2,0,B|84:300|120:320|164:296|200:240,2,120,8|0|8,0:0|0:0|0:0,0:0:0
3,206,150278,6,0,B|12:196|52:172|88:188|116:204,1,120,4|8,0:0|0:0,0:0:0
96,108,151238,2,0,B|154:112|222:148|238:224|218:276,1,240
140,220,152678,1,8,0:0:0
44,236,153158,1,0,0:0:0
12,328,153638,1,8,0:0:0
108,336,154118,6,0,B|188:344|228:288,1,120,0|8,0:0|0:0,0:0:0
248,208,155078,2,0,B|182:188|132:240,1,120,0|8,0:0|0:0,0:0:0
40,236,156038,1,0,0:0:0
44,140,156518,1,8,0:0:0
132,108,156998,1,0,0:0:0
188,184,157478,6,0,B|256:144|344:232|444:172,1,240,8|8,0:0|0:0,0:0:0
356,112,158918,1,0,0:0:0
264,84,159398,1,8,0:0:0
168,104,159878,5,0,0:0:0
84,148,160358,2,0,B|88:208|20:264,2,120,8|0|8,0:0|0:0|0:0,0:0:0
40,64,161798,5,0,0:0:0
136,48,162278,1,8,0:0:0
192,124,162758,1,0,0:0:0
164,216,163238,1,8,0:0:0
80,264,163718,6,0,B|144:328|256:340|324:280,1,240
236,228,165158,1,8,0:0:0
260,136,165638,1,4,0:0:0
176,88,166118,5,8,0:0:0
100,148,166598,1,0,0:0:0
40,72,167078,1,8,0:0:0
136,60,167558,6,0,B|200:44|264:60,1,120,0|8,0:0|0:0,0:0:0
236,152,168518,2,0,B|360:168|300:292|424:344,1,240
424,236,169958,6,0,B|472:192|472:116,1,120,8|0,0:0|0:0,0:0:0
380,100,170918,1,8,0:0:0
296,52,171398,1,0,0:0:0
220,112,171878,1,8,0:0:0
272,192,172358,2,0,B|209:228|209:285|209:285|171:243|52:248,1,240
144,152,180518,6,0,B|264:112,1,120,2|0,0:0|0:0,0:0:0
280,208,181478,1,0,0:0:0
352,148,181958,1,0,0:0:0
264,112,182438,5,2,0:0:0
348,64,182918,1,0,0:0:0
436,104,183398,1,2,0:0:0
396,192,183878,5,0,0:0:0
360,220,184118,1,0,0:0:0
316,244,184358,1,2,0:0:0
240,184,184838,1,0,0:0:0
208,92,185318,6,0,B|88:132,2,120,2|0|2,0:0|0:0|0:0,0:0:0
300,64,186758,1,0,0:0:0
380,124,187238,1,2,0:0:0
348,216,187718,1,0,0:0:0
156,200,188678,6,0,B|100:148,2,60,0|0|2,0:0|0:0|0:0,0:0:0
248,180,189638,1,0,0:0:0
336,220,190118,1,2,0:0:0
428,196,190598,1,0,0:0:0
472,112,191078,5,2,0:0:0
384,76,191558,2,0,B|264:132|144:112,1,240
84,184,192998,5,2,0:0:0
44,272,193478,1,0,0:0:0
132,312,193958,2,0,B|204:312|268:268,1,120,2|0,0:0|0:0,0:0:0
328,332,194918,6,0,B|216:280|184:116,1,240,2|2,0:0|0:0,0:0:0
272,96,196358,1,0,0:0:0
344,160,196838,5,2,0:0:0
408,232,197318,1,0,0:0:0
460,312,197798,1,2,0:0:0
364,328,198278,2,0,B|244:368|112:308,1,240
96,224,199718,5,2,0:0:0
64,132,200198,1,0,0:0:0
160,132,200678,2,0,B|200:80|280:112|364:44,2,180,2|0|0,0:0|0:0|0:0,0:0:0
244,180,202598,2,0,B|140:240|0:220,1,240,2|2,0:0|0:0,0:0:0
52,136,204038,6,0,B|148:88,1,60
152,120,204518,2,0,B|248:80,2,60,2|0|0,0:0|0:0|0:0,0:0:0
116,208,205478,2,0,B|168:256|260:216,1,120,2|0,0:0|0:0,0:0:0
336,140,207398,5,2,0:0:0
408,200,207878,2,0,B|484:256,2,60,0|0|2,0:0|0:0|0:0,0:0:0
368,224,208598,2,0,B|304:268,1,60
260,184,209318,2,0,B|216:224|120:200,1,120,2|0,0:0|0:0,0:0:0
436,196,211238,6,0,B|376:224|348:284,1,120,2|0,0:0|0:0,0:0:0
260,304,212198,2,0,B|260:248|324:192,1,120,2|0,0:0|0:0,0:0:0
272,116,213158,2,0,B|248:48,2,60,2|0|0,0:0|0:0|0:0,0:0:0
176,112,214118,6,0,B|120:128|152:256|40:316,1,240,2|2,0:0|0:0,0:0:0
148,320,215558,5,0,0:0:0
232,276,216038,1,2,0:0:0
324,256,216518,1,0,0:0:0
384,180,216998,1,2,0:0:0
304,128,217478,6,0,B|264:64,2,60,0|0|0,0:0|0:0|0:0,0:0:0
276,164,218198,2,0,B|264:224|136:244,1,120,0|2,0:0|0:0,0:0:0
136,232,218918,1,0,0:0:0
84,156,219398,5,4,0:0:0
136,76,219878,1,8,0:0:0
232,60,220358,1,0,0:0:0
312,112,220838,1,0,0:0:0
408,128,221318,2,0,B|424:188|368:256,1,120
292,204,222278,1,0,0:0:0
220,268,222758,1,8,0:0:0
276,344,223238,6,0,B|204:371|108:303|40:351,1,240
44,256,224678,1,8,0:0:0
124,204,225158,6,0,B|200:184|220:116,1,120,0|8,0:0|0:0,0:0:0
296,84,226118,1,0,0:0:0
344,168,226598,2,0,B|360:200|412:216,2,60,8|0|4,0:0|0:0|0:0,0:0:0
424,112,227558,5,8,0:0:0
476,192,228038,2,0,B|380:236|360:348,1,180
248,240,229478,5,8,0:0:0
152,256,229958,1,0,0:0:0
68,212,230438,1,8,0:0:0
40,172,230678,1,0,0:0:0
20,128,230918,1,0,0:0:0
112,96,231398,6,0,B|288:76,2,120,8|0|8,0:0|0:0|0:0,0:0:0
132,192,232838,1,0,0:0:0
220,228,233318,1,8,0:0:0
256,192,233798,12,0,235718,0:0:0
