osu file format v5

[General]
AudioFilename: 01 - Minna no Peace.mp3
AudioLeadIn: 0
PreviewTime: -1
Countdown: 0
SampleSet: Normal
StackLeniency: 0.7
Mode: 0
EditorBookmarks: 23114,25095,43242,57336,57360,77454,79435,91736,104654,113901,125124,131760

[Metadata]
Title:Minna no Peace
Artist:Afromania
Creator:Headbang
Version:Normal
Source:
Tags:

[Difficulty]
HPDrainRate:5
CircleSize:5
OverallDifficulty:5
SliderMultiplier:1.2
SliderTickRate:2

[Events]
//Background and Video events
0,0,"[AnimePaper]wallpapers_Tengen-Toppa-Gurren-Lagann_finalfantasyfanatic(1.33)_800x600_56546.jpg"
//Break Periods
2,23031,23895
2,43466,56184
2,77371,78235
2,104878,112725
2,125348,130584
//Storyboard Layer 0 (Background)
//Storyboard Layer 1 (Failing)
//Storyboard Layer 2 (Passing)
//Storyboard Layer 3 (Foreground)
//Storyboard Sound Samples
//Background Colour Transformations
3,100,163,162,255

[TimingPoints]
11808,283.018867924528,4,1,0,100

[HitObjects]
160,192,12091,1,0
256,192,12374,1,0
256,32,12798,1,0
352,32,13081,1,0
352,128,13364,1,0
352,224,13647,2,4,B|352:352,1,120
256,320,14355,5,0
256,224,14638,1,0
320,96,15062,1,0
224,64,15345,1,0
128,96,15628,2,0,B|128:352,1,240
96,192,16619,5,0
192,192,16902,1,0
320,192,17326,1,0
416,192,17609,1,0
416,96,17892,1,4
256,96,18317,5,0
160,96,18600,1,0
160,224,19024,1,0
288,224,19449,1,0
416,224,19874,1,4
256,192,20298,12,4,22845
64,160,25392,6,0,B|448:160,1,360
416,256,26524,1,0
288,256,27091,2,0,B|32:256,1,240
160,160,28081,1,0
288,160,28506,1,0
352,224,28789,1,0
288,288,29072,1,0
224,224,29355,1,0
128,224,29638,5,0
160,128,29921,1,0
288,128,30345,1,4
352,256,30770,2,0,B|224:256,1,120
96,224,31477,1,4
32,352,31902,5,0
128,352,32185,2,0,B|384:352,1,240
448,320,33034,1,0
384,256,33317,1,0
384,160,33600,1,0
352,64,33883,1,0
256,64,34166,1,0
160,64,34449,1,0
160,192,34874,1,4
160,320,35298,1,0
256,320,35581,1,0
384,320,36006,1,4
384,160,36430,5,0
288,160,36713,1,0
128,160,37138,1,0
64,32,37562,2,0,B|224:32|224:192,1,240
320,192,38411,1,0
352,288,38694,1,0
256,320,38977,2,0,B|128:320|64:256,1,180
96,160,39826,1,0
96,160,40109,1,0
224,160,40534,1,4
128,288,40958,5,0
224,288,41241,1,4
256,192,41524,12,4,42940
160,192,57374,5,0
256,192,57657,1,0
256,32,58081,1,0
352,32,58364,1,0
352,128,58647,1,0
352,224,58930,2,4,B|352:352,1,120
192,320,59638,5,0
256,256,59921,1,0
320,128,60345,1,0
256,64,60628,1,0
160,64,60911,2,0,B|160:320,1,240
96,192,61902,5,0
192,192,62185,1,0
320,192,62609,1,0
320,96,62892,1,0
416,96,63175,1,4
288,32,63600,5,0
192,32,63883,1,0
32,32,64307,1,0
64,160,64732,1,0
192,160,65157,1,4
320,160,65581,2,0,B|448:160,1,120
352,192,66430,5,0
256,192,66713,1,0
256,352,67138,1,0
160,352,67421,1,0
160,256,67704,1,0
160,160,67987,2,4,B|160:32,1,120
256,64,68694,5,0
256,160,68977,1,0
192,288,69402,1,0
288,320,69685,1,0
384,288,69968,2,0,B|384:32,1,240
384,192,70958,5,0
288,192,71241,1,0
160,192,71666,1,0
64,224,71949,1,0
32,320,72232,1,4
64,192,72657,5,0
128,256,72940,1,0
256,288,73364,1,0
384,320,73789,1,0
384,160,74213,1,4
256,192,74638,12,4,77185
32,64,79732,6,0,L|224:64,1,180
448,320,81147,1,0
352,320,81430,1,0
256,320,81713,1,0
192,256,81996,2,4,L|0:256,1,180
64,128,84260,5,0
192,128,84685,2,0,L|384:128,1,180
480,128,85534,1,0
480,256,85958,1,0
288,256,86524,1,0
288,96,86949,2,0,L|96:96,1,180
288,320,88223,1,4
192,160,88789,5,0
128,32,89213,1,0
128,32,89355,1,0
224,32,89638,1,0
320,32,89921,1,0
448,192,90487,1,0
288,320,91053,1,0
256,192,91477,1,0
256,192,91619,1,0
64,160,92185,2,4,B|64:288|192:352,1,240
160,160,93317,6,4,B|416:160,1,240
288,320,94449,2,4,B|32:320,1,240
96,128,95581,1,0
224,192,96006,1,0
96,288,96430,2,0,B|224:320|352:288,1,240
384,224,97279,1,4
384,32,97845,5,0
96,64,98694,2,0,B|65:256|320:352,1,390
416,192,100109,6,0,B|320:96,1,120
64,32,101241,1,0
64,128,101524,2,0,B|64:256,1,120
192,288,102232,2,0,B|288:320|384:288,1,180
256,32,103506,1,0
256,32,103789,1,0
256,128,104072,1,0
256,128,104355,1,4
160,192,113977,5,0
160,288,114260,1,0
64,192,114685,1,0
96,96,114968,1,0
192,96,115251,1,0
288,96,115534,2,4,B|288:224,1,120
416,288,116241,5,0
416,192,116524,1,0
416,32,116949,1,0
320,32,117232,1,0
224,64,117515,2,0,B|224:320,1,240
96,320,118506,5,0
96,224,118789,1,0
96,64,119213,1,0
192,64,119496,1,0
288,64,119779,1,4
416,96,120204,5,0
416,192,120487,1,0
416,320,120911,1,4
256,320,121336,1,0
96,320,121760,1,4
256,192,122185,12,0,125015
32,160,131807,1,0
128,160,132091,1,0
224,160,132374,1,4
416,160,132940,1,0
416,256,133223,1,0
416,352,133506,1,4
288,288,134072,5,0
192,288,134355,1,0
96,288,134638,1,4
96,96,135204,1,0
192,96,135487,1,0
288,96,135770,1,4
480,96,136336,5,0
384,32,136619,1,0
288,32,136902,1,4
96,32,137468,1,0
96,128,137751,1,0
96,224,138034,1,4
256,288,138600,5,0
160,288,138883,1,0
64,288,139166,1,0
64,192,139449,1,0
64,96,139732,1,0
160,64,140015,1,0
256,64,140298,1,4
448,128,140864,5,0
448,224,141147,1,0
384,288,141430,1,4
256,352,141855,1,0
160,256,142279,1,0
160,160,142562,1,4
352,128,143128,5,0
352,224,143411,1,0
352,320,143694,1,4
192,320,144119,1,0
96,192,144543,1,0
96,96,144826,1,4
352,128,145392,6,0,B|416:288|320:320|256:320|160:320|64:256|64:160|96:96|192:64|256:64|320:96|320:160|288:192|256:224|224:192,1,720
96,288,147657,5,0
96,192,147940,1,0
96,96,148223,1,4
160,32,148506,1,0
256,32,148789,1,0
352,32,149072,1,0
352,128,149355,1,4
