osu file format v5

[General]
AudioFilename: 01 - Minna no Peace.mp3
AudioLeadIn: 0
PreviewTime: -1
Countdown: 0
SampleSet: Normal
StackLeniency: 0.7
Mode: 0
EditorBookmarks: 23114,24954,43242,57360,77666,79435,91736,104654,113901,125124,131760

[Metadata]
Title:Minna no Peace
Artist:Afromania
Creator:Headbang
Version:Hard
Source:
Tags:

[Difficulty]
HPDrainRate:6
CircleSize:5
OverallDifficulty:6
SliderMultiplier:1.2
SliderTickRate:2

[Events]
//Background and Video events
0,0,"[AnimePaper]wallpapers_Tengen-Toppa-Gurren-Lagann_finalfantasyfanatic(1.33)_800x600_56546.jpg"
//Break Periods
2,23031,23904
2,43466,56184
2,77654,78385
2,104878,112725
2,125348,130584
//Storyboard Layer 0 (Background)
//Storyboard Layer 1 (Failing)
//Storyboard Layer 2 (Passing)
//Storyboard Layer 3 (Foreground)
//Storyboard Sound Samples
//Background Colour Transformations
3,100,163,162,255

[TimingPoints]
11808,283.018867924528,4,1,0,100

[HitObjects]
160,224,12091,1,0
256,224,12374,1,0
256,192,12515,1,0
256,96,12798,1,0
352,96,13081,1,0
352,192,13364,1,0
352,288,13647,2,4,B|352:352,2,60
224,320,14355,5,0
224,224,14638,1,0
224,192,14779,1,0
320,192,15062,1,0
384,128,15345,1,0
320,64,15628,1,0
160,64,16053,1,0
128,64,16194,1,4
128,160,16619,5,0
224,160,16902,1,0
256,160,17043,1,0
288,256,17326,1,0
352,320,17609,1,0
416,256,17892,1,4
480,128,18317,5,0
384,96,18600,1,0
352,64,18741,1,0
256,64,19024,1,4
96,64,19449,1,0
96,96,19591,1,0
96,192,19874,1,4
256,192,20298,12,4,22845
96,160,25392,6,0,B|224:160,1,120
288,160,25958,2,0,B|416:160,1,120
416,288,26524,1,0
320,288,26807,1,0
256,256,26949,2,0,B|128:192,1,120
64,128,27656,1,0
160,128,27939,1,0
192,128,28081,1,0
320,128,28506,1,0
320,224,28789,1,0
256,288,29072,1,0
192,224,29355,1,0
128,128,29638,5,0
128,128,29779,1,0
128,128,29921,1,0
224,128,30204,1,0
256,128,30345,1,4
320,256,30770,1,0
320,256,30911,1,0
320,256,31053,1,0
224,256,31336,1,0
192,256,31477,1,4
64,320,31902,5,0
160,320,32185,2,0,B|416:320,1,240
480,256,33034,1,0
384,256,33317,1,0
384,160,33600,1,0
352,64,33883,1,0
256,64,34166,1,0
160,64,34449,1,0
160,160,34732,1,0
160,192,34874,1,4
160,320,35299,1,0
256,320,35582,1,0
352,320,35865,1,0
352,320,36006,1,4
224,256,36430,5,0
224,160,36713,1,0
96,128,37138,1,0
128,32,37562,2,0,B|256:32,1,120
320,96,38128,1,0
384,192,38411,1,0
416,288,38694,1,0
320,288,38977,2,4,B|128:288,1,180
96,160,39826,1,0
96,160,39968,1,0
96,160,40109,1,0
192,160,40392,1,0
224,160,40534,1,0
224,288,40958,5,0
256,288,41100,1,0
288,288,41241,1,4
256,192,41666,12,4,42940
352,160,57374,5,0
256,160,57657,1,0
256,192,57798,1,0
256,288,58081,1,0
160,288,58364,1,0
160,192,58647,1,0
160,96,58930,2,4,B|160:32,2,60
288,64,59638,5,0
288,160,59921,1,0
288,192,60062,1,0
192,192,60345,1,0
128,256,60628,1,0
192,320,60911,1,0
320,320,61336,1,0
352,320,61477,1,4
384,192,61902,5,0
288,224,62185,1,0
256,224,62326,1,0
224,128,62609,1,0
160,64,62892,1,0
96,128,63175,1,0
32,256,63600,5,0
96,288,63883,1,0
128,320,64024,1,0
224,320,64307,1,0
384,320,64732,1,0
384,288,64874,1,0
384,192,65157,1,0
256,160,65581,2,4,L|128:160,1,120
160,160,66430,5,0
256,160,66713,1,0
256,192,66855,1,0
256,288,67138,1,0
352,288,67421,1,0
352,192,67704,1,0
352,96,67987,2,4,B|352:32,2,60
224,64,68694,5,0
224,160,68977,1,0
224,192,69119,1,0
320,192,69402,1,0
384,256,69685,1,0
320,320,69968,1,0
224,320,70251,1,0
224,320,70392,1,0
224,320,70534,1,4
128,224,70958,5,0
224,224,71241,1,0
256,224,71383,1,0
256,128,71666,1,0
320,64,71949,1,0
384,128,72232,1,0
480,224,72657,5,0
416,288,72940,1,0
384,320,73081,1,0
288,320,73364,1,4
128,320,73789,1,0
128,288,73930,1,0
224,256,74213,1,4
256,192,74638,12,4,77468
32,64,79732,2,0,L|224:64,1,180
448,320,81147,1,0
352,320,81430,1,0
256,320,81713,1,0
192,256,81996,2,4,L|0:256,1,180
64,128,84260,5,0
64,128,84402,1,0
160,128,84685,2,4,L|288:128,1,120
352,128,85180,1,0
384,128,85322,1,0
448,128,85534,1,0
448,160,85675,1,0
448,256,85958,1,0
416,256,86100,1,0
256,256,86524,1,0
288,128,86949,2,0,L|96:128,1,180
32,224,87657,1,0
32,224,87798,1,0
32,320,88081,1,0
32,320,88223,1,4
128,160,88789,5,0
128,160,88930,1,0
128,256,89213,1,0
128,256,89355,1,0
192,192,89638,2,0,L|384:192,1,180
416,320,90487,1,0
416,320,90628,1,0
288,288,91053,1,0
288,256,91194,1,0
288,160,91477,1,0
288,160,91619,1,0
192,160,91902,1,0
96,160,92185,2,4,B|96:288|224:352,1,240
128,192,93317,6,4,B|384:192,1,240
256,352,94449,2,4,B|0:352,1,240
32,160,95581,1,0
128,160,95864,1,0
160,160,96006,1,0
192,288,96430,2,0,B|320:320|448:288,1,240
448,192,97279,1,0
448,160,97421,1,4
480,32,97845,5,0
480,32,98128,1,0
256,96,98694,1,0
256,96,98836,1,0
256,192,99119,1,0
256,288,99402,1,0
256,288,99543,1,0
352,288,99826,1,4
448,256,100109,6,0,B|448:128,1,120
192,32,101241,1,0
128,128,101524,2,0,B|128:256,1,120
256,288,102232,2,0,B|352:320|448:288,1,180
256,64,103506,1,0
192,128,103789,1,0
256,192,104072,1,0
320,128,104355,1,4
160,160,113977,5,0
256,160,114260,1,0
256,192,114402,1,0
256,288,114685,1,0
352,288,114968,1,0
352,192,115251,1,0
352,96,115534,2,4,B|352:32,2,60
224,64,116241,5,0
224,160,116524,1,0
224,192,116666,1,0
320,192,116949,1,0
384,256,117232,1,0
320,320,117515,1,0
224,320,117798,1,0
224,320,117940,1,0
224,320,118081,1,4
128,224,118506,5,0
224,224,118789,1,0
256,224,118930,1,0
256,128,119213,1,0
320,64,119496,1,0
384,128,119779,1,0
480,256,120204,5,0
384,288,120487,1,0
352,320,120628,1,0
256,320,120911,1,0
96,320,121336,1,0
96,288,121477,1,0
96,192,121760,1,0
256,192,122114,12,4,124732
96,160,131807,1,0
192,160,132091,1,0
192,160,132232,1,0
192,160,132374,1,0
288,160,132657,1,0
320,160,132798,1,0
448,192,133223,1,0
448,288,133506,1,4
256,288,134072,5,0
160,288,134355,1,0
64,288,134638,1,0
64,192,134921,1,0
64,160,135062,1,0
64,64,135345,1,0
96,64,135487,1,0
192,64,135770,1,4
96,160,136336,5,0
192,160,136619,1,0
192,160,136760,1,0
192,160,136902,1,0
224,160,137043,1,0
320,160,137326,1,0
448,192,137751,1,0
448,288,138034,1,4
256,288,138600,5,0
160,288,138883,1,0
64,288,139166,1,0
64,192,139449,1,0
64,160,139591,1,0
64,64,139874,1,0
96,64,140015,1,0
192,64,140298,1,4
384,128,140864,5,0
320,224,141147,1,0
320,224,141289,1,0
320,224,141430,1,0
224,224,141713,1,0
192,224,141855,1,0
32,224,142279,1,0
32,128,142562,1,0
224,96,143128,5,0
320,96,143411,1,0
416,96,143694,1,0
448,192,143977,1,0
448,192,144119,1,0
448,288,144402,1,0
448,320,144543,1,0
352,320,144826,1,0
384,128,145392,6,0,B|448:320|352:352|288:352|192:352|96:288|96:192|128:128|224:96|288:96|352:128|352:192|320:224|288:256|288:256,1,720
96,224,147657,5,0
160,160,147940,1,0
224,96,148223,1,0
288,32,148506,1,0
320,32,148647,1,0
416,64,148930,1,0
416,96,149072,1,0
416,192,149355,1,4
