osu file format v13

[General]
AudioFilename: SML (TV size).mp3
AudioLeadIn: 1500
PreviewTime: 38661
Countdown: 0
SampleSet: Normal
StackLeniency: 0.7
Mode: 0
LetterboxInBreaks: 0
WidescreenStoryboard: 0

[Editor]
DistanceSpacing: 1
BeatDivisor: 4
GridSize: 4
TimelineZoom: 1

[Metadata]
Title:S.M.L (TV size ver.)
TitleUnicode:S・M・L☆ (TV size ver.)
Artist:Afilia Saga
ArtistUnicode:アフィリア・サーガ
Creator:Chaoslitz
Version:Normal
Source:俺の脳内選択肢が、学園ラブコメを全力で邪魔している
Tags:Noucome Opening PuttyoU -Yuzuriha-inori- Ore no Nounai Sentakushi ga, Gakuen Lovecome o Zenryoku de Jama Shiteiru My Mental Choices are Completely Interfering with my School Romantic Comedy
BeatmapID:499015
BeatmapSetID:209651

[Difficulty]
HPDrainRate:4
CircleSize:3
OverallDifficulty:4
ApproachRate:5
SliderMultiplier:1.2
SliderTickRate:1

[Events]
//Background and Video events
Video,-752,"OP.avi"
0,0,"noucomebg.png",0,0
//Break Periods
//Storyboard Layer 0 (Background)
//Storyboard Layer 1 (Fail)
//Storyboard Layer 2 (Pass)
//Storyboard Layer 3 (Foreground)
//Storyboard Sound Samples
//Background Colour Transformations
3,100,163,162,255

[TimingPoints]
336,300,4,1,2,60,1,0
33936,-100,4,1,2,65,0,0
38736,-100,4,1,2,70,0,1
47136,-100,4,1,2,70,0,0
48336,-100,4,1,2,70,0,1
57936,-100,4,1,2,50,0,0
74736,-100,4,1,2,60,0,0
77136,-100,4,1,2,70,0,1
86736,-100,4,1,2,60,0,0
87336,-100,4,1,2,50,0,0
87936,-100,4,1,2,30,0,0
88536,-100,4,1,2,15,0,0
89136,-100,4,1,2,5,0,0

[Colours]
Combo1 : 255,77,255
Combo2 : 39,177,237
Combo3 : 255,141,28
Combo4 : 19,255,19
SliderBorder : 255,255,255

[HitObjects]
32,248,336,6,0,B|96:236|96:268|156:257,1,120
256,316,936,2,0,L|248:188,1,120,8|0,0:0|0:0,0:0:0:0:
244,136,1386,1,8,0:0:0:0:
125,150,1686,2,0,P|132:92|184:32,1,120
226,31,2136,2,0,L|346:27,1,120
441,100,2736,6,0,P|465:176|449:230,1,120,0|0,0:0|0:0,0:0:0:0:
408,324,3336,1,8,0:0:0:0:
288,312,3636,2,0,L|220:308,1,60,0|8,0:0|0:0,0:0:0:0:
169,296,3936,6,0,L|180:354,2,60,0|0|0,0:0|0:0|0:0,0:0:0:0:
157,237,4386,1,0,0:0:0:0:
94,135,4686,2,0,L|150:99,1,60,0|0,0:0|0:0,0:0:0:0:
248,41,5136,6,0,L|367:47,1,120
481,89,5736,2,0,B|461:155|419:130|401:208,1,120,8|0,0:0|0:0,0:0:0:0:
392,240,6186,1,8,0:0:0:0:
478,324,6486,2,0,P|410:361|344:352,1,120
314,335,6936,2,0,P|273:276|276:207,1,120
263,109,7536,6,0,L|203:114,2,60,2|0|0,0:0|0:0|0:0,0:0:0:0:
323,103,7986,1,2,0:0:0:0:
416,180,8286,2,0,L|488:172,2,60,0|0|2,0:0|0:0|0:0,0:0:0:0:
296,196,8886,6,0,L|223:205,1,60
176,212,9186,2,0,L|103:221,1,60,0|0,0:0|0:0,0:0:0:0:
18,150,9636,2,0,P|-4:216|12:279,1,120
108,324,10236,5,8,0:0:0:0:
223,356,10536,2,0,P|225:297|196:240,1,120,0|8,0:0|0:0,0:0:0:0:
118,155,11136,2,0,P|91:102|93:42,2,120,0|8|0,0:0|0:0|0:0,0:0:0:0:
198,243,12036,1,8,0:0:0:0:
297,313,12336,6,0,P|318:221|222:123,1,240
112,164,13236,1,8,0:0:0:0:
199,243,13536,2,0,P|251:223|335:123,2,180,0|0|8,0:0|0:0|0:0,0:0:0:0:
210,364,14736,6,0,P|111:327|92:188,1,240,0|8,0:0|0:0,0:0:0:0:
117,90,15636,1,8,0:0:0:0:
219,27,15936,2,0,P|286:14|336:30,2,120,0|8|0,0:0|0:0|0:0,0:0:0:0:
274,134,16836,1,8,0:0:0:0:
388,96,17136,6,0,P|408:144|398:217,1,120,0|8,0:0|0:0,0:0:0:0:
335,311,17736,2,0,P|279:332|215:331,1,120,0|8,0:0|0:0,0:0:0:0:
198,213,18336,2,0,P|124:258|101:353,2,180,2|2|2,0:0|0:0|0:0,0:0:0:0:
316,184,19536,6,0,P|358:166|406:93,1,120,4|8,0:0|0:0,0:0:0:0:
284,60,20136,2,0,L|164:74,1,120,0|8,0:0|0:0,0:0:0:0:
48,56,20736,2,0,P|74:115|64:184,1,120,0|8,0:0|0:0,0:0:0:0:
24,280,21336,1,0,0:0:0:0:
140,312,21636,1,8,0:0:0:0:
256,344,21936,6,0,P|336:352|446:233,1,240,0|0,0:0|0:0,0:0:0:0:
441,128,22836,1,8,0:0:0:0:
335,72,23136,2,0,P|239:56|158:69,2,180,0|8|8,0:0|0:0|0:0,0:0:0:0:
451,40,24336,6,0,P|450:99|421:154,1,120,4|8,0:0|0:0,0:0:0:0:
488,252,24936,2,0,P|442:290|381:302,1,120,0|8,0:0|0:0,0:3:0:0:
309,208,25536,2,0,L|171:230,1,120,0|8,0:0|0:0,0:0:0:0:
273,314,26136,2,0,L|135:336,1,120,0|8,0:0|0:0,0:0:0:0:
47,279,26736,6,0,P|26:205|67:48,1,240,0|8,0:0|0:0,0:0:0:0:
304,64,27936,1,4,0:0:0:0:
244,168,28236,1,4,0:0:0:0:
348,228,28536,1,4,0:0:0:0:
408,124,28836,1,4,0:0:0:0:
304,64,29136,6,0,L|164:72,1,120
108,164,29736,2,0,L|232:156,1,120
348,156,30336,2,0,P|388:168|440:232,2,120,0|8|0,0:0|0:0|0:0,0:0:0:0:
228,156,31236,1,8,0:0:0:0:
108,164,31536,6,0,P|56:196|28:276,1,120,4|0,0:0|0:0,0:0:0:0:
97,347,32136,2,0,P|149:315|177:235,1,120
228,156,32736,2,0,P|232:75|264:35,2,120,0|8|0,0:0|0:0|0:0,0:0:0:0:
287,263,33636,1,8,0:0:0:0:
397,216,33936,6,0,L|389:152,1,60,4|0,0:0|0:0,0:0:0:0:
220,96,34536,2,0,L|230:168,1,60,4|0,0:0|0:0,0:0:0:0:
295,323,35136,2,0,L|287:263,1,60,4|0,0:0|0:0,0:0:0:0:
116,208,35736,2,0,L|122:267,1,60,4|0,0:0|0:0,0:0:0:0:
256,192,36336,12,4,37536,0:0:0:0:
111,260,38436,5,0,0:0:0:0:
2,208,38736,6,0,P|44:154|111:138,1,120,4|8,0:0|0:0,0:0:0:0:
212,124,39336,2,0,P|266:101|302:54,1,120,0|8,0:0|0:0,0:0:0:0:
424,48,39936,2,0,L|440:176,1,120,0|8,0:0|0:0,0:0:0:0:
380,272,40536,1,0,0:0:0:0:
268,316,40836,1,8,0:0:0:0:
148,308,41136,6,0,L|20:296,1,120,0|8,0:0|0:0,0:0:0:0:
43,178,41736,2,0,L|171:190,1,120,0|8,0:0|0:0,0:0:0:0:
282,204,42336,2,0,P|334:180|350:5,2,240,0|0|4,0:0|0:0|0:0,0:0:0:0:
263,85,43836,6,0,P|202:102|168:157,2,120,8|0|8,0:0|0:0|0:0,0:0:0:0:
382,70,44736,2,0,L|502:58,2,120,0|8|0,0:0|0:0|0:0,0:0:0:0:
263,85,45636,1,8,0:0:0:0:
163,19,45936,6,0,P|147:109|250:205,1,240,4|8,0:0|0:0,0:0:0:0:
364,232,46836,1,0,0:0:0:0:
448,320,47136,2,8,B|400:348|400:348|316:348,1,120
215,348,47736,2,8,B|150:348|150:348|102:320,1,120
46,214,48336,6,0,P|111:200|174:223,1,120,4|8,0:0|0:0,0:0:0:0:
276,248,48936,2,0,P|333:263|391:248,1,120,0|8,0:0|0:0,0:0:0:0:
492,184,49536,2,0,L|480:60,1,120,0|8,0:0|0:0,0:0:0:0:
364,36,50136,1,0,0:0:0:0:
244,48,50436,1,8,0:0:0:0:
124,56,50736,6,0,P|84:56|12:20,2,120,0|8|0,0:0|0:0|0:0,0:0:0:0:
244,48,51636,1,8,0:0:0:0:
364,36,51936,2,0,P|428:60|463:213,2,240,0|0|4,0:0|0:0|0:0,0:0:0:0:
360,156,53436,5,8,0:0:0:0:
348,276,53736,2,0,P|292:332|236:336,1,120,0|8,0:0|0:0,0:0:0:0:
134,334,54336,2,0,L|-14:326,2,120,0|8|0,0:0|0:0|0:0,0:0:0:0:
254,338,55236,1,8,0:0:0:0:
374,346,55536,6,0,P|350:265|247:218,2,180,4|0|0,0:0|0:0|0:0,0:0:0:0:
488,308,56736,2,0,P|476:256|424:187,1,120,8|8,0:0|0:0,0:0:0:0:
348,124,57336,1,8,0:0:0:0:
232,92,57636,1,8,0:0:0:0:
128,32,57936,6,0,P|112:84|129:152,1,120,4|8,0:0|0:0,0:0:0:0:
232,92,58536,2,0,P|246:149|229:206,1,120,0|8,0:0|0:0,0:0:0:0:
180,316,59136,1,0,0:0:0:0:
300,308,59436,2,0,P|360:288|408:236,2,120,8|0|8,0:0|0:0|0:0,0:0:0:0:
180,316,60336,6,0,L|56:324,1,120,0|8,0:0|0:0,0:0:0:0:
8,216,60936,2,0,L|156:208,1,120,0|8,0:0|0:0,0:0:0:0:
248,200,61536,1,0,0:0:0:0:
368,196,61836,1,8,0:0:0:0:
440,292,62136,2,0,P|485:227|482:162,1,120,0|8,0:0|0:0,0:0:0:0:
456,72,62736,5,0,0:0:0:0:
340,40,63036,2,0,P|260:36|200:56,1,120,8|0,0:0|0:0,0:0:0:0:
102,49,63636,2,0,L|122:177,1,120,8|0,0:0|0:0,0:0:0:0:
73,278,64236,1,8,0:0:0:0:
192,267,64536,2,0,P|251:262|298:227,1,120,0|8,0:0|0:0,0:0:0:0:
238,123,65136,6,0,P|345:115|417:218,2,240,4|4|4,0:0|0:0|0:0,0:0:0:0:
130,175,66636,2,0,P|64:138|39:77,1,120,8|0,0:0|0:0,0:0:0:0:
155,58,67236,1,8,0:0:0:0:
274,45,67536,6,0,P|330:47|413:199,1,240,0|8,0:0|0:0,0:0:0:0:
298,165,68436,1,0,0:0:0:0:
308,284,68736,2,0,L|180:276,1,120
68,264,69336,1,8,0:0:0:0:
208,68,69936,6,0,P|110:44|43:153,2,240,0|8|0,0:0|0:0|0:0,0:0:0:0:
320,112,71436,2,0,P|368:124|432:96,2,120,8|0|8,0:0|0:0|0:0,0:0:0:0:
208,68,72336,6,0,L|148:304,1,240,0|8,0:0|0:0,0:0:0:0:
268,320,73236,1,8,0:0:0:0:
388,340,73536,2,0,P|440:300|460:180,2,180,0|8|8,0:0|0:0|0:0,0:0:0:0:
268,320,74736,5,4,0:0:0:0:
76,175,75336,1,4,0:0:0:0:
266,29,75936,1,4,0:0:0:0:
457,174,76536,1,4,0:0:0:0:
268,320,77136,6,0,P|204:332|129:302,1,120,4|0,0:0|0:0,0:0:0:0:
211,212,77736,2,0,P|275:200|350:230,1,120,4|0,0:0|0:0,0:0:0:0:
428,260,78336,2,0,L|468:84,2,180,4|4|4,0:0|0:0|0:0,0:0:0:0:
320,312,79536,5,4,0:0:0:0:
201,330,79836,2,0,P|118:305|82:262,1,120,0|4,0:0|0:0,0:0:0:0:
192,208,80436,1,0,0:0:0:0:
240,100,80736,2,4,P|290:50|400:71,2,180,4|4|4,0:0|0:0|0:0,0:0:0:0:
192,208,81936,6,0,L|321:225,1,120,4|0,0:0|0:0,0:0:0:0:
220,300,82536,2,0,L|344:316,1,120,4|0,0:0|0:0,0:0:0:0:
428,235,83136,2,0,P|452:311|540:356,2,180,4|4|4,0:0|0:0|0:0,0:0:0:0:
360,136,84336,5,4,0:0:0:0:
276,49,84636,1,0,0:0:0:0:
157,31,84936,1,4,0:0:0:0:
46,76,85236,1,0,0:0:0:0:
36,195,85536,2,4,P|70:267|164:307,1,180,4|4,0:0|0:0,0:0:0:0:
278,320,86286,2,4,L|354:316,1,60
256,192,86736,12,0,89136,2:0:0:0:
