osu file format v12

[General]
AudioFilename: Ore no Nounai Sentakushi ga, Gakuen Lovecome o Zenryoku de Jama Shiteiru.mp3
AudioLeadIn: 0
PreviewTime: 38728
Countdown: 0
SampleSet: Normal
StackLeniency: 0.7
Mode: 1
LetterboxInBreaks: 0
WidescreenStoryboard: 1

[Editor]
DistanceSpacing: 0.8
BeatDivisor: 4
GridSize: 4

[Metadata]
Title:S.M.L (TV Size)
TitleUnicode:S・M・L☆ (TV Size)
Artist:Afilia Saga
ArtistUnicode:アフィリア・サーガ
Creator:kanpakyin
Version:Oni
Source:Ore no Nounai Sentakushi ga, Gakuen Lovecome o Zenryoku de Jama Shiteiru
Tags:opening 俺の脳内選択肢が、学園ラブコメを全力で邪魔している
BeatmapID:321291
BeatmapSetID:126342

[Difficulty]
HPDrainRate:5
CircleSize:5
OverallDifficulty:5
ApproachRate:5
SliderMultiplier:1.4
SliderTickRate:1

[Events]
//Background and Video events
0,0,"bg.jpg",0,0
Video,0,"OP.avi"
//Break Periods
//Storyboard Layer 0 (Background)
//Storyboard Layer 1 (Fail)
//Storyboard Layer 2 (Pass)
//Storyboard Layer 3 (Foreground)
//Storyboard Sound Samples
//Background Colour Transformations
3,100,163,162,255

[TimingPoints]
328,300,4,1,0,65,1,0
38728,-90.9090909090909,4,1,0,65,0,1
66628,-100,4,1,0,65,0,1
67528,-100,4,1,0,65,0,0
86878,-100,4,2,0,5,0,0

[HitObjects]
400,84,328,1,4,0:0:0:0:
400,84,628,1,8,0:0:0:0:
400,84,928,1,0,0:0:0:0:
400,84,1228,1,8,0:0:0:0:
400,84,1378,1,8,0:0:0:0:
400,84,1678,1,8,0:0:0:0:
400,84,1978,1,8,0:0:0:0:
400,84,2128,1,0,0:0:0:0:
400,84,2428,1,8,0:0:0:0:
400,84,2728,1,4,0:0:0:0:
400,84,3028,1,8,0:0:0:0:
400,84,3328,1,0,0:0:0:0:
400,84,3628,1,8,0:0:0:0:
400,84,3778,1,8,0:0:0:0:
400,84,4078,1,0,0:0:0:0:
400,84,4228,1,0,0:0:0:0:
400,84,4378,1,0,0:0:0:0:
400,84,4678,1,12,0:0:0:0:
400,84,4828,1,12,0:0:0:0:
400,84,5128,1,4,0:0:0:0:
400,84,5428,1,8,0:0:0:0:
400,84,5728,1,0,0:0:0:0:
400,84,6028,1,8,0:0:0:0:
400,84,6178,1,8,0:0:0:0:
400,84,6478,1,8,0:0:0:0:
400,84,6778,1,8,0:0:0:0:
400,84,6928,1,0,0:0:0:0:
400,84,7228,1,8,0:0:0:0:
400,84,7528,1,0,0:0:0:0:
400,84,7678,1,8,0:0:0:0:
400,84,7828,1,8,0:0:0:0:
400,84,7978,1,0,0:0:0:0:
400,84,8278,1,0,0:0:0:0:
400,84,8428,1,8,0:0:0:0:
400,84,8578,1,0,0:0:0:0:
400,84,8878,1,0,0:0:0:0:
400,84,9028,1,8,0:0:0:0:
400,84,9178,1,8,0:0:0:0:
400,84,9328,1,8,0:0:0:0:
400,84,9628,1,8,0:0:0:0:
400,84,9778,1,8,0:0:0:0:
400,84,9853,1,8,0:0:0:0:
400,84,9928,1,0,0:0:0:0:
400,84,10078,1,0,0:0:0:0:
400,84,10228,1,8,0:0:0:0:
400,84,10378,1,0,0:0:0:0:
400,84,10528,1,0,0:0:0:0:
400,84,10678,1,0,0:0:0:0:
400,84,10753,1,0,0:0:0:0:
400,84,10828,1,8,0:0:0:0:
400,84,10978,1,8,0:0:0:0:
400,84,11128,1,0,0:0:0:0:
400,84,11428,1,8,0:0:0:0:
400,84,11578,1,0,0:0:0:0:
400,84,11728,1,0,0:0:0:0:
400,84,11878,1,0,0:0:0:0:
400,84,12028,1,8,0:0:0:0:
400,84,12178,1,8,0:0:0:0:
400,84,12328,1,0,0:0:0:0:
400,84,12478,1,0,0:0:0:0:
400,84,12553,1,0,0:0:0:0:
400,84,12628,1,8,0:0:0:0:
400,84,12778,1,8,0:0:0:0:
400,84,12928,1,0,0:0:0:0:
400,84,13078,1,0,0:0:0:0:
400,84,13228,1,8,0:0:0:0:
400,84,13303,1,8,0:0:0:0:
400,84,13378,1,0,0:0:0:0:
400,84,13453,1,0,0:0:0:0:
400,84,13528,1,0,0:0:0:0:
400,84,13678,1,0,0:0:0:0:
400,84,13828,1,8,0:0:0:0:
400,84,13978,1,8,0:0:0:0:
400,84,14053,1,8,0:0:0:0:
400,84,14128,1,0,0:0:0:0:
400,84,14278,1,0,0:0:0:0:
400,84,14428,1,8,0:0:0:0:
400,84,14728,1,0,0:0:0:0:
400,84,15028,1,8,0:0:0:0:
400,84,15178,1,8,0:0:0:0:
400,84,15328,1,0,0:0:0:0:
400,84,15478,1,0,0:0:0:0:
400,84,15553,1,0,0:0:0:0:
400,84,15628,1,8,0:0:0:0:
400,84,15778,1,0,0:0:0:0:
400,84,15928,1,0,0:0:0:0:
400,84,16078,1,0,0:0:0:0:
400,84,16153,1,0,0:0:0:0:
400,84,16228,1,8,0:0:0:0:
400,84,16378,1,8,0:0:0:0:
400,84,16528,1,0,0:0:0:0:
400,84,16603,1,0,0:0:0:0:
400,84,16678,1,0,0:0:0:0:
400,84,16828,1,8,0:0:0:0:
400,84,16978,1,0,0:0:0:0:
400,84,17128,1,4,0:0:0:0:
400,84,17428,1,8,0:0:0:0:
400,84,17578,1,8,0:0:0:0:
400,84,17728,1,0,0:0:0:0:
400,84,17878,1,0,0:0:0:0:
400,84,18028,1,8,0:0:0:0:
400,84,18178,1,0,0:0:0:0:
400,84,18328,1,12,0:0:0:0:
400,84,18478,1,0,0:0:0:0:
400,84,18628,1,0,0:0:0:0:
400,84,18778,1,8,0:0:0:0:
400,84,19078,1,12,0:0:0:0:
400,84,19228,1,12,0:0:0:0:
400,84,19528,1,4,0:0:0:0:
400,84,19678,1,0,0:0:0:0:
400,84,19828,1,8,0:0:0:0:
400,84,19978,1,8,0:0:0:0:
400,84,20053,1,8,0:0:0:0:
400,84,20128,1,0,0:0:0:0:
400,84,20278,1,0,0:0:0:0:
400,84,20428,1,8,0:0:0:0:
400,84,20578,1,0,0:0:0:0:
400,84,20728,1,0,0:0:0:0:
400,84,20803,1,0,0:0:0:0:
400,84,20878,1,0,0:0:0:0:
400,84,20953,1,0,0:0:0:0:
400,84,21028,1,8,0:0:0:0:
400,84,21178,1,8,0:0:0:0:
400,84,21328,1,0,0:0:0:0:
400,84,21478,1,0,0:0:0:0:
400,84,21553,1,0,0:0:0:0:
400,84,21628,1,8,0:0:0:0:
400,84,21778,1,0,0:0:0:0:
400,84,21928,1,0,0:0:0:0:
400,84,22078,1,0,0:0:0:0:
400,84,22228,1,8,0:0:0:0:
400,84,22378,1,8,0:0:0:0:
400,84,22453,1,8,0:0:0:0:
400,84,22528,1,0,0:0:0:0:
400,84,22678,1,0,0:0:0:0:
400,84,22828,1,8,0:0:0:0:
400,84,22978,1,0,0:0:0:0:
400,84,23128,1,0,0:0:0:0:
400,84,23278,1,0,0:0:0:0:
400,84,23353,1,0,0:0:0:0:
400,84,23428,1,8,0:0:0:0:
400,84,23578,1,8,0:0:0:0:
400,84,23728,1,0,0:0:0:0:
400,84,23803,1,0,0:0:0:0:
400,84,23878,1,0,0:0:0:0:
400,84,24028,1,8,0:0:0:0:
400,84,24178,1,8,0:0:0:0:
400,84,24253,1,8,0:0:0:0:
400,84,24328,1,0,0:0:0:0:
400,84,24478,1,0,0:0:0:0:
400,84,24628,1,8,0:0:0:0:
400,84,24778,1,8,0:0:0:0:
400,84,24928,1,0,0:0:0:0:
400,84,25078,1,0,0:0:0:0:
400,84,25228,1,8,0:0:0:0:
400,84,25378,1,0,0:0:0:0:
400,84,25528,1,0,0:0:0:0:
400,84,25678,1,0,0:0:0:0:
400,84,25828,1,8,0:0:0:0:
400,84,25978,1,8,0:0:0:0:
400,84,26128,1,0,0:0:0:0:
400,84,26278,1,0,0:0:0:0:
400,84,26353,1,0,0:0:0:0:
400,84,26428,1,8,0:0:0:0:
400,84,26578,1,0,0:0:0:0:
400,84,26728,1,0,0:0:0:0:
400,84,26878,1,0,0:0:0:0:
400,84,27028,1,12,0:0:0:0:
400,84,27328,1,0,0:0:0:0:
400,84,27478,1,0,0:0:0:0:
400,84,27628,1,12,0:0:0:0:
400,84,27928,1,12,0:0:0:0:
400,84,28228,1,12,0:0:0:0:
400,84,28528,1,12,0:0:0:0:
400,84,28828,1,12,0:0:0:0:
400,84,29128,1,4,0:0:0:0:
400,84,29428,1,8,0:0:0:0:
400,84,29578,1,8,0:0:0:0:
400,84,29728,1,0,0:0:0:0:
400,84,30028,1,8,0:0:0:0:
400,84,30178,1,0,0:0:0:0:
400,84,30328,1,4,0:0:0:0:
400,84,30628,1,12,0:0:0:0:
400,84,30928,1,4,0:0:0:0:
400,84,31228,1,12,0:0:0:0:
400,84,31378,1,0,0:0:0:0:
400,84,31528,1,0,0:0:0:0:
400,84,31828,1,8,0:0:0:0:
400,84,31978,1,8,0:0:0:0:
400,84,32128,1,0,0:0:0:0:
400,84,32278,1,0,0:0:0:0:
400,84,32353,1,0,0:0:0:0:
400,84,32428,1,8,0:0:0:0:
400,84,32578,1,8,0:0:0:0:
400,84,32728,1,4,0:0:0:0:
400,84,33028,1,12,0:0:0:0:
400,84,33328,1,4,0:0:0:0:
400,84,33628,1,12,0:0:0:0:
400,84,33928,1,0,0:0:0:0:
400,84,34078,1,0,0:0:0:0:
400,84,34528,1,0,0:0:0:0:
400,84,34678,1,0,0:0:0:0:
400,84,35128,1,0,0:0:0:0:
400,84,35278,1,0,0:0:0:0:
400,84,35728,1,0,0:0:0:0:
400,84,35878,1,0,0:0:0:0:
400,84,36328,1,8,0:0:0:0:
400,84,36403,1,0,0:0:0:0:
400,84,36478,1,0,0:0:0:0:
400,84,36553,1,0,0:0:0:0:
400,84,36628,1,0,0:0:0:0:
400,84,36703,1,0,0:0:0:0:
400,84,36778,1,0,0:0:0:0:
400,84,36853,1,0,0:0:0:0:
400,84,36928,1,8,0:0:0:0:
400,84,37003,1,8,0:0:0:0:
400,84,37078,1,0,0:0:0:0:
400,84,37153,1,0,0:0:0:0:
400,84,37228,1,8,0:0:0:0:
400,84,37303,1,8,0:0:0:0:
400,84,37378,1,0,0:0:0:0:
400,84,37528,1,4,0:0:0:0:
400,84,37728,1,12,0:0:0:0:
400,84,37928,1,12,0:0:0:0:
400,84,38128,1,12,0:0:0:0:
400,84,38428,1,0,0:0:0:0:
400,84,38728,1,4,0:0:0:0:
400,84,38953,1,0,0:0:0:0:
400,84,39028,1,8,0:0:0:0:
400,84,39178,1,0,0:0:0:0:
400,84,39328,1,0,0:0:0:0:
400,84,39553,1,0,0:0:0:0:
400,84,39628,1,8,0:0:0:0:
400,84,39778,1,0,0:0:0:0:
400,84,39928,1,0,0:0:0:0:
400,84,40078,1,0,0:0:0:0:
400,84,40153,1,0,0:0:0:0:
400,84,40228,1,8,0:0:0:0:
400,84,40378,1,8,0:0:0:0:
400,84,40528,1,0,0:0:0:0:
400,84,40828,1,8,0:0:0:0:
400,84,40978,1,0,0:0:0:0:
400,84,41128,1,0,0:0:0:0:
400,84,41428,1,8,0:0:0:0:
400,84,41578,1,8,0:0:0:0:
400,84,41728,1,0,0:0:0:0:
400,84,41878,1,0,0:0:0:0:
400,84,42028,1,8,0:0:0:0:
400,84,42178,1,0,0:0:0:0:
400,84,42253,1,8,0:0:0:0:
400,84,42328,1,0,0:0:0:0:
400,84,42478,1,0,0:0:0:0:
400,84,42628,1,8,0:0:0:0:
400,84,42928,1,0,0:0:0:0:
400,84,43078,1,0,0:0:0:0:
400,84,43228,1,8,0:0:0:0:
400,84,43378,1,8,0:0:0:0:
400,84,43528,1,4,0:0:0:0:
400,84,43753,1,0,0:0:0:0:
400,84,43828,1,8,0:0:0:0:
400,84,43978,1,8,0:0:0:0:
400,84,44128,1,0,0:0:0:0:
400,84,44278,1,0,0:0:0:0:
400,84,44353,1,0,0:0:0:0:
400,84,44428,1,8,0:0:0:0:
400,84,44578,1,0,0:0:0:0:
400,84,44728,1,0,0:0:0:0:
400,84,44878,1,0,0:0:0:0:
400,84,45028,1,8,0:0:0:0:
400,84,45178,1,0,0:0:0:0:
400,84,45328,1,8,0:0:0:0:
400,84,45478,1,0,0:0:0:0:
400,84,45628,1,8,0:0:0:0:
400,84,45778,1,0,0:0:0:0:
400,84,45853,1,0,0:0:0:0:
400,84,45928,1,8,0:0:0:0:
400,84,46228,1,8,0:0:0:0:
400,84,46378,1,0,0:0:0:0:
400,84,46453,1,0,0:0:0:0:
400,84,46528,1,0,0:0:0:0:
400,84,46678,1,0,0:0:0:0:
400,84,46828,1,8,0:0:0:0:
400,84,46978,1,0,0:0:0:0:
400,84,47128,1,8,0:0:0:0:
400,84,47278,1,0,0:0:0:0:
400,84,47353,1,0,0:0:0:0:
400,84,47428,1,8,0:0:0:0:
400,84,47578,1,0,0:0:0:0:
400,84,47653,1,0,0:0:0:0:
400,84,47728,1,8,0:0:0:0:
400,84,47878,1,0,0:0:0:0:
400,84,47953,1,0,0:0:0:0:
400,84,48028,1,8,0:0:0:0:
400,84,48178,1,8,0:0:0:0:
400,84,48328,1,4,0:0:0:0:
400,84,48628,1,8,0:0:0:0:
400,84,48778,1,0,0:0:0:0:
400,84,48853,1,0,0:0:0:0:
400,84,48928,1,8,0:0:0:0:
400,84,49078,1,0,0:0:0:0:
400,84,49228,1,8,0:0:0:0:
400,84,49378,1,8,0:0:0:0:
400,84,49453,1,0,0:0:0:0:
400,84,49528,1,8,0:0:0:0:
400,84,49678,1,0,0:0:0:0:
400,84,49828,1,8,0:0:0:0:
400,84,49978,1,0,0:0:0:0:
400,84,50053,1,0,0:0:0:0:
400,84,50128,1,8,0:0:0:0:
400,84,50278,1,0,0:0:0:0:
400,84,50428,1,8,0:0:0:0:
400,84,50578,1,8,0:0:0:0:
400,84,50728,1,0,0:0:0:0:
400,84,51028,1,8,0:0:0:0:
400,84,51178,1,0,0:0:0:0:
400,84,51328,1,0,0:0:0:0:
400,84,51553,1,0,0:0:0:0:
400,84,51628,1,8,0:0:0:0:
400,84,51778,1,0,0:0:0:0:
400,84,51928,1,8,0:0:0:0:
400,84,52078,1,0,0:0:0:0:
400,84,52153,1,0,0:0:0:0:
400,84,52228,1,0,0:0:0:0:
400,84,52378,1,0,0:0:0:0:
400,84,52528,1,8,0:0:0:0:
400,84,52678,1,0,0:0:0:0:
400,84,52828,1,0,0:0:0:0:
400,84,52978,1,8,0:0:0:0:
400,84,53053,1,8,0:0:0:0:
400,84,53128,1,0,0:0:0:0:
400,84,53428,1,8,0:0:0:0:
400,84,53578,1,0,0:0:0:0:
400,84,53728,1,0,0:0:0:0:
400,84,54028,1,8,0:0:0:0:
400,84,54178,1,0,0:0:0:0:
400,84,54328,1,0,0:0:0:0:
400,84,54628,1,8,0:0:0:0:
400,84,54778,1,0,0:0:0:0:
400,84,54853,1,0,0:0:0:0:
400,84,54928,1,8,0:0:0:0:
400,84,55078,1,0,0:0:0:0:
400,84,55228,1,8,0:0:0:0:
400,84,55378,1,8,0:0:0:0:
400,84,55453,1,0,0:0:0:0:
400,84,55528,1,0,0:0:0:0:
400,84,55678,1,0,0:0:0:0:
400,84,55828,1,8,0:0:0:0:
400,84,55978,1,0,0:0:0:0:
400,84,56053,1,0,0:0:0:0:
400,84,56128,1,8,0:0:0:0:
400,84,56278,1,0,0:0:0:0:
400,84,56428,1,8,0:0:0:0:
400,84,56578,1,8,0:0:0:0:
400,84,56728,1,4,0:0:0:0:
400,84,57028,1,12,0:0:0:0:
400,84,57328,1,4,0:0:0:0:
400,84,57628,1,12,0:0:0:0:
400,84,57928,1,0,0:0:0:0:
400,84,58228,1,8,0:0:0:0:
384,104,58378,1,0,0:0:0:0:
400,84,58453,1,0,0:0:0:0:
400,84,58528,1,0,0:0:0:0:
400,84,58678,1,0,0:0:0:0:
400,84,58828,1,8,0:0:0:0:
400,84,58978,1,8,0:0:0:0:
400,84,59278,1,0,0:0:0:0:
400,84,59428,1,8,0:0:0:0:
400,84,59578,1,8,0:0:0:0:
400,84,59728,1,0,0:0:0:0:
400,84,59878,1,8,0:0:0:0:
400,84,60028,1,8,0:0:0:0:
400,84,60328,1,4,0:0:0:0:
400,84,60478,1,0,0:0:0:0:
400,84,60628,1,8,0:0:0:0:
400,84,60928,1,0,0:0:0:0:
400,84,61228,1,8,0:0:0:0:
400,84,61378,1,8,0:0:0:0:
400,84,61528,1,0,0:0:0:0:
400,84,61828,1,8,0:0:0:0:
400,84,61978,1,0,0:0:0:0:
400,84,62128,1,8,0:0:0:0:
400,84,62278,1,0,0:0:0:0:
400,84,62353,1,0,0:0:0:0:
400,84,62428,1,8,0:0:0:0:
400,84,62578,1,8,0:0:0:0:
400,84,62728,1,0,0:0:0:0:
400,84,63028,1,8,0:0:0:0:
400,84,63178,1,0,0:0:0:0:
400,84,63328,1,0,0:0:0:0:
400,84,63628,1,8,0:0:0:0:
400,84,63778,1,0,0:0:0:0:
400,84,63928,1,8,0:0:0:0:
400,84,64078,1,0,0:0:0:0:
400,84,64153,1,0,0:0:0:0:
400,84,64228,1,8,0:0:0:0:
400,84,64378,1,8,0:0:0:0:
400,84,64528,1,0,0:0:0:0:
400,84,64678,1,0,0:0:0:0:
400,84,64828,1,8,0:0:0:0:
400,84,64978,1,0,0:0:0:0:
400,84,65128,1,12,0:0:0:0:
400,84,65428,1,0,0:0:0:0:
400,84,65728,1,12,0:0:0:0:
400,84,66028,1,0,0:0:0:0:
400,84,66178,1,12,0:0:0:0:
400,84,66328,1,0,0:0:0:0:
400,84,66628,1,8,0:0:0:0:
400,84,66728,1,8,0:0:0:0:
400,84,66828,1,8,0:0:0:0:
400,84,66928,1,0,0:0:0:0:
400,84,67028,1,0,0:0:0:0:
400,84,67128,1,0,0:0:0:0:
400,84,67228,1,0,0:0:0:0:
400,84,67328,1,0,0:0:0:0:
400,84,67428,1,0,0:0:0:0:
400,84,67528,1,0,0:0:0:0:
400,84,67828,1,0,0:0:0:0:
400,84,68128,1,12,0:0:0:0:
400,84,68428,1,0,0:0:0:0:
400,84,68578,1,8,0:0:0:0:
400,84,68878,1,0,0:0:0:0:
400,84,69028,1,8,0:0:0:0:
400,84,69178,1,0,0:0:0:0:
400,84,69328,1,8,0:0:0:0:
400,84,69628,1,0,0:0:0:0:
400,84,69928,1,0,0:0:0:0:
400,84,70228,1,0,0:0:0:0:
400,84,70528,1,12,0:0:0:0:
400,84,70828,1,8,0:0:0:0:
400,84,70978,1,0,0:0:0:0:
400,84,71278,1,0,0:0:0:0:
400,84,71428,1,0,0:0:0:0:
400,84,71578,1,0,0:0:0:0:
400,84,71728,1,8,0:0:0:0:
400,84,72028,1,8,0:0:0:0:
400,84,72328,1,4,0:0:0:0:
400,84,72478,1,0,0:0:0:0:
400,84,72628,1,8,0:0:0:0:
400,84,72778,1,0,0:0:0:0:
400,84,72928,1,0,0:0:0:0:
400,84,73078,1,0,0:0:0:0:
400,84,73228,1,8,0:0:0:0:
400,84,73378,1,0,0:0:0:0:
400,84,73528,1,0,0:0:0:0:
400,84,73678,1,0,0:0:0:0:
400,84,73753,1,0,0:0:0:0:
400,84,73828,1,8,0:0:0:0:
400,84,73978,1,0,0:0:0:0:
400,84,74128,1,0,0:0:0:0:
400,84,74278,1,0,0:0:0:0:
400,84,74428,1,8,0:0:0:0:
400,84,74578,1,0,0:0:0:0:
400,84,74728,1,4,0:0:0:0:
400,84,74878,1,0,0:0:0:0:
400,84,75028,1,8,0:0:0:0:
400,84,75178,1,0,0:0:0:0:
400,84,75328,1,0,0:0:0:0:
400,84,75478,1,0,0:0:0:0:
400,84,75628,1,8,0:0:0:0:
400,84,75778,1,0,0:0:0:0:
400,84,75928,1,4,0:0:0:0:
400,84,76078,1,0,0:0:0:0:
400,84,76228,1,8,0:0:0:0:
400,84,76378,1,0,0:0:0:0:
400,84,76528,1,0,0:0:0:0:
400,84,76678,1,0,0:0:0:0:
400,84,76828,1,8,0:0:0:0:
400,84,76978,1,0,0:0:0:0:
400,84,77128,1,12,0:0:0:0:
400,84,77428,1,12,0:0:0:0:
400,84,77728,1,0,0:0:0:0:
400,84,77878,1,0,0:0:0:0:
400,84,78028,1,12,0:0:0:0:
400,84,78328,1,0,0:0:0:0:
400,84,78478,1,8,0:0:0:0:
400,84,78628,1,8,0:0:0:0:
400,84,78778,1,0,0:0:0:0:
400,84,79078,1,0,0:0:0:0:
400,84,79228,1,8,0:0:0:0:
400,84,79528,1,12,0:0:0:0:
400,84,79828,1,12,0:0:0:0:
400,84,80128,1,0,0:0:0:0:
400,84,80278,1,0,0:0:0:0:
400,84,80428,1,12,0:0:0:0:
400,84,80728,1,0,0:0:0:0:
400,84,80878,1,8,0:0:0:0:
400,84,81028,1,0,0:0:0:0:
400,84,81178,1,8,0:0:0:0:
400,84,81478,1,0,0:0:0:0:
400,84,81628,1,8,0:0:0:0:
400,84,81928,1,12,0:0:0:0:
400,84,82228,1,12,0:0:0:0:
400,84,82528,1,0,0:0:0:0:
400,84,82678,1,0,0:0:0:0:
400,84,82828,1,12,0:0:0:0:
400,84,83128,1,0,0:0:0:0:
400,84,83278,1,8,0:0:0:0:
400,84,83428,1,0,0:0:0:0:
400,84,83578,1,8,0:0:0:0:
400,84,83878,1,0,0:0:0:0:
400,84,84028,1,8,0:0:0:0:
400,84,84328,1,12,0:0:0:0:
400,84,84628,1,12,0:0:0:0:
400,84,84928,1,0,0:0:0:0:
400,84,85078,1,0,0:0:0:0:
400,84,85228,1,12,0:0:0:0:
400,84,85528,1,0,0:0:0:0:
400,84,85678,1,8,0:0:0:0:
400,84,85828,1,0,0:0:0:0:
400,84,85978,1,8,0:0:0:0:
400,84,86053,1,8,0:0:0:0:
400,84,86128,1,0,0:0:0:0:
400,84,86203,1,8,0:0:0:0:
400,84,86278,1,8,0:0:0:0:
400,84,86353,1,8,0:0:0:0:
400,84,86428,1,0,0:0:0:0:
400,84,86578,1,8,0:0:0:0:
400,84,86728,1,0,0:0:0:0:
256,192,86878,12,0,88678,0:0:0:0:
