osu file format v12

[General]
AudioFilename: Ore no Nounai Sentakushi ga, Gakuen Lovecome o Zenryoku de Jama Shiteiru.mp3
AudioLeadIn: 0
PreviewTime: 38728
Countdown: 0
SampleSet: Soft
StackLeniency: 0.7
Mode: 1
LetterboxInBreaks: 0
WidescreenStoryboard: 1

[Editor]
DistanceSpacing: 0.8
BeatDivisor: 4
GridSize: 4

[Metadata]
Title:S.M.L (TV Size)
TitleUnicode:S・M・L☆ (TV Size)
Artist:Afilia Saga
ArtistUnicode:アフィリア・サーガ
Creator:kanpakyin
Version:Kantan
Source:Ore no Nounai Sentakushi ga, Gakuen Lovecome o Zenryoku de Jama Shiteiru
Tags:opening 俺の脳内選択肢が、学園ラブコメを全力で邪魔している
BeatmapID:322538
BeatmapSetID:126342

[Difficulty]
HPDrainRate:2
CircleSize:5
OverallDifficulty:2
ApproachRate:5
SliderMultiplier:1.1
SliderTickRate:1

[Events]
//Background and Video events
0,0,"bg.jpg",0,0
Video,0,"OP.avi"
//Break Periods
//Storyboard Layer 0 (Background)
//Storyboard Layer 1 (Fail)
//Storyboard Layer 2 (Pass)
//Storyboard Layer 3 (Foreground)
//Storyboard Sound Samples
//Background Colour Transformations
3,100,163,162,255

[TimingPoints]
328,300,4,1,0,65,1,0
38728,-100,4,1,0,65,0,1
67528,-100,4,1,0,65,0,0
86878,-100,4,2,0,5,0,0

[HitObjects]
448,84,328,1,4,0:0:0:0:
448,84,928,1,8,0:0:0:0:
448,84,2128,1,8,0:0:0:0:
448,84,2728,1,0,0:0:0:0:
448,84,3328,1,8,0:0:0:0:
448,84,3928,1,0,0:0:0:0:
448,84,4828,1,8,0:0:0:0:
448,84,5128,1,0,0:0:0:0:
448,84,5728,1,8,0:0:0:0:
448,84,6328,1,8,0:0:0:0:
448,84,6928,1,0,0:0:0:0:
448,84,7528,1,0,0:0:0:0:
448,84,7978,1,8,0:0:0:0:
448,84,8578,1,8,0:0:0:0:
448,84,9328,1,12,0:0:0:0:
448,84,9928,1,0,0:0:0:0:
448,84,10528,1,8,0:0:0:0:
448,84,11128,1,0,0:0:0:0:
448,84,11728,1,0,0:0:0:0:
448,84,12328,1,8,0:0:0:0:
448,84,13528,1,8,0:0:0:0:
448,84,13978,1,8,0:0:0:0:
448,84,14428,1,8,0:0:0:0:
448,84,14728,1,0,0:0:0:0:
448,84,15328,1,8,0:0:0:0:
448,84,15928,1,8,0:0:0:0:
448,84,16528,1,8,0:0:0:0:
448,84,17128,1,4,0:0:0:0:
448,84,18328,1,12,0:0:0:0:
448,84,18778,1,8,0:0:0:0:
448,84,19228,1,8,0:0:0:0:
448,84,19528,1,0,0:0:0:0:
448,84,20128,1,8,0:0:0:0:
448,84,20728,1,8,0:0:0:0:
448,84,21328,1,8,0:0:0:0:
448,84,21928,1,0,0:0:0:0:
448,84,22528,1,0,0:0:0:0:
448,84,23128,1,0,0:0:0:0:
448,84,23578,1,8,0:0:0:0:
448,84,24028,1,8,0:0:0:0:
448,84,24328,1,12,0:0:0:0:
448,84,24928,1,8,0:0:0:0:
448,84,25528,1,0,0:0:0:0:
448,84,26128,1,8,0:0:0:0:
448,84,26728,1,8,0:0:0:0:
448,84,27328,1,0,0:0:0:0:
448,84,27928,1,12,0:0:0:0:
448,84,28528,1,8,0:0:0:0:
448,84,29128,1,0,0:0:0:0:
448,84,30028,1,8,0:0:0:0:
448,84,30328,1,8,0:0:0:0:
448,84,31228,1,0,0:0:0:0:
448,84,31528,1,0,0:0:0:0:
448,84,32128,1,8,0:0:0:0:
448,84,32728,1,0,0:0:0:0:
448,84,33328,1,8,0:0:0:0:
448,84,33928,1,4,0:0:0:0:
448,84,34528,1,4,0:0:0:0:
448,84,35128,1,4,0:0:0:0:
448,84,35728,1,12,0:0:0:0:
448,84,36328,1,12,0:0:0:0:
448,84,36928,1,0,0:0:0:0:
448,84,37528,5,4,0:0:0:0:
448,84,38128,1,8,0:0:0:0:
448,84,38428,1,0,0:0:0:0:
448,84,38728,1,4,0:0:0:0:
448,84,39328,1,8,0:0:0:0:
448,84,39928,1,0,0:0:0:0:
448,84,40528,1,8,0:0:0:0:
448,84,41128,1,0,0:0:0:0:
448,84,42028,1,8,0:0:0:0:
448,84,42328,5,8,0:0:0:0:
448,84,42928,1,0,0:0:0:0:
448,84,43528,1,8,0:0:0:0:
448,84,44428,1,8,0:0:0:0:
448,84,44728,1,8,0:0:0:0:
448,84,45628,1,8,0:0:0:0:
448,84,45928,1,0,0:0:0:0:
448,84,47128,1,8,0:0:0:0:
448,84,47428,1,8,0:0:0:0:
448,84,47728,1,8,0:0:0:0:
448,84,48028,1,8,0:0:0:0:
448,84,48328,1,0,0:0:0:0:
448,84,48928,1,8,0:0:0:0:
448,84,49528,1,0,0:0:0:0:
448,84,50128,1,8,0:0:0:0:
448,84,50728,1,0,0:0:0:0:
448,84,51628,1,0,0:0:0:0:
448,84,51928,1,8,0:0:0:0:
448,84,52528,1,0,0:0:0:0:
448,84,53128,1,12,0:0:0:0:
448,84,54028,1,8,0:0:0:0:
448,84,54328,1,8,0:0:0:0:
448,84,55228,1,0,0:0:0:0:
448,84,55528,1,0,0:0:0:0:
448,84,56128,1,0,0:0:0:0:
408,80,56728,1,0,0:0:0:0:
408,80,57328,1,8,0:0:0:0:
408,80,57928,1,4,0:0:0:0:
408,80,58528,1,8,0:0:0:0:
408,80,59428,1,8,0:0:0:0:
408,80,59728,1,8,0:0:0:0:
408,80,60328,1,0,0:0:0:0:
408,80,60928,1,8,0:0:0:0:
408,80,61828,1,0,0:0:0:0:
408,80,62128,1,8,0:0:0:0:
408,80,62728,1,8,0:0:0:0:
380,80,63328,1,0,0:0:0:0:
408,80,64228,1,8,0:0:0:0:
408,80,64528,1,8,0:0:0:0:
408,80,64828,1,0,0:0:0:0:
408,80,65128,1,4,0:0:0:0:
408,80,65728,1,12,0:0:0:0:
408,80,66178,1,12,0:0:0:0:
408,80,66628,1,0,0:0:0:0:
408,80,66928,1,0,0:0:0:0:
408,80,67228,1,8,0:0:0:0:
408,80,67528,1,0,0:0:0:0:
408,80,68128,1,12,0:0:0:0:
408,80,69028,1,8,0:0:0:0:
408,80,69328,1,8,0:0:0:0:
408,80,69928,1,0,0:0:0:0:
408,80,70528,1,12,0:0:0:0:
36,132,71428,1,0,0:0:0:0:
408,80,71728,1,0,0:0:0:0:
408,80,72028,1,0,0:0:0:0:
408,80,72328,1,0,0:0:0:0:
408,80,73528,1,0,0:0:0:0:
408,80,74128,1,0,0:0:0:0:
408,80,74728,1,12,0:0:0:0:
408,80,75328,1,12,0:0:0:0:
408,80,75928,1,12,0:0:0:0:
408,80,76528,1,12,0:0:0:0:
408,80,77128,1,4,0:0:0:0:
408,80,78328,1,12,0:0:0:0:
408,80,79528,1,12,0:0:0:0:
408,80,80728,1,12,0:0:0:0:
408,80,81928,1,8,0:0:0:0:
408,80,82228,1,8,0:0:0:0:
408,80,82528,1,8,0:0:0:0:
408,80,82828,1,8,0:0:0:0:
408,80,83128,1,0,0:0:0:0:
408,80,84328,1,8,0:0:0:0:
408,80,84628,1,8,0:0:0:0:
408,80,84928,1,8,0:0:0:0:
408,80,85228,1,8,0:0:0:0:
408,80,85528,1,0,0:0:0:0:
408,80,85978,1,8,0:0:0:0:
408,80,86428,1,12,0:0:0:0:
408,80,86728,1,0,0:0:0:0:
256,192,86878,12,0,88678,0:0:0:0:
