osu file format v12

[General]
AudioFilename: Ore no Nounai Sentakushi ga, Gakuen Lovecome o Zenryoku de Jama Shiteiru.mp3
AudioLeadIn: 0
PreviewTime: 38728
Countdown: 0
SampleSet: Normal
StackLeniency: 0.7
Mode: 1
LetterboxInBreaks: 0
WidescreenStoryboard: 1

[Editor]
DistanceSpacing: 0.8
BeatDivisor: 4
GridSize: 4

[Metadata]
Title:S.M.L (TV Size)
TitleUnicode:S・M・L☆ (TV Size)
Artist:Afilia Saga
ArtistUnicode:アフィリア・サーガ
Creator:kanpakyin
Version:Inner Oni
Source:Ore no Nounai Sentakushi ga, Gakuen Lovecome o Zenryoku de Jama Shiteiru
Tags:opening 俺の脳内選択肢が、学園ラブコメを全力で邪魔している
BeatmapID:321064
BeatmapSetID:126342

[Difficulty]
HPDrainRate:6
CircleSize:5
OverallDifficulty:6
ApproachRate:5
SliderMultiplier:1.4
SliderTickRate:1

[Events]
//Background and Video events
0,0,"bg.jpg",0,0
Video,0,"OP.avi"
//Break Periods
//Storyboard Layer 0 (Background)
//Storyboard Layer 1 (Fail)
//Storyboard Layer 2 (Pass)
//Storyboard Layer 3 (Foreground)
//Storyboard Sound Samples
//Background Colour Transformations
3,100,163,162,255

[TimingPoints]
328,300,4,1,0,65,1,0
38728,-83.3333333333333,4,1,0,65,0,1
67528,-83.3333333333333,4,1,0,65,0,0
67678,-117.647058823529,4,1,0,65,0,0
72328,-100,4,1,0,65,0,0
77128,-66.6666666666667,4,1,0,65,0,1
86728,-66.6666666666667,4,1,0,65,0,0
86878,-66.6666666666667,4,2,0,5,0,0

[HitObjects]
420,108,328,1,4,0:0:0:0:
420,108,628,1,8,0:0:0:0:
420,108,778,1,0,0:0:0:0:
420,108,928,1,8,0:0:0:0:
420,108,1228,1,8,0:0:0:0:
420,108,1378,1,8,0:0:0:0:
420,108,1528,1,0,0:0:0:0:
420,108,1678,1,8,0:0:0:0:
420,108,1978,1,0,0:0:0:0:
420,108,2053,1,0,0:0:0:0:
420,108,2128,1,8,0:0:0:0:
420,108,2278,1,0,0:0:0:0:
420,108,2428,1,8,0:0:0:0:
420,108,2728,1,0,0:0:0:0:
420,108,3028,1,8,0:0:0:0:
420,108,3328,1,0,0:0:0:0:
420,108,3628,1,8,0:0:0:0:
420,108,3778,1,8,0:0:0:0:
420,108,4078,1,0,0:0:0:0:
420,108,4228,1,0,0:0:0:0:
420,108,4378,1,0,0:0:0:0:
420,108,4678,1,0,0:0:0:0:
420,108,4828,1,12,0:0:0:0:
420,108,5128,1,4,0:0:0:0:
420,108,5428,1,8,0:0:0:0:
420,108,5728,1,0,0:0:0:0:
420,108,6028,1,0,0:0:0:0:
420,108,6178,1,8,0:0:0:0:
420,108,6478,1,8,0:0:0:0:
420,108,6778,1,8,0:0:0:0:
420,108,6928,1,0,0:0:0:0:
420,108,7078,1,0,0:0:0:0:
420,108,7228,1,8,0:0:0:0:
420,108,7378,1,0,0:0:0:0:
420,108,7528,1,0,0:0:0:0:
420,108,7678,1,8,0:0:0:0:
420,108,7828,1,8,0:0:0:0:
420,108,7978,1,0,0:0:0:0:
420,108,8278,1,0,0:0:0:0:
420,108,8428,1,8,0:0:0:0:
420,108,8578,1,0,0:0:0:0:
420,108,8878,1,0,0:0:0:0:
420,108,9028,1,8,0:0:0:0:
420,108,9178,1,8,0:0:0:0:
420,108,9328,1,8,0:0:0:0:
420,108,9628,1,12,0:0:0:0:
420,108,9778,1,8,0:0:0:0:
420,108,9853,1,8,0:0:0:0:
420,108,9928,1,0,0:0:0:0:
420,108,10078,1,0,0:0:0:0:
420,108,10228,1,8,0:0:0:0:
420,108,10378,1,0,0:0:0:0:
420,108,10528,1,0,0:0:0:0:
420,108,10678,1,0,0:0:0:0:
420,108,10753,1,0,0:0:0:0:
420,108,10828,1,8,0:0:0:0:
420,108,10978,1,8,0:0:0:0:
420,108,11128,1,0,0:0:0:0:
420,108,11278,1,0,0:0:0:0:
420,108,11428,1,8,0:0:0:0:
420,108,11578,1,0,0:0:0:0:
420,108,11728,1,0,0:0:0:0:
420,108,11878,1,0,0:0:0:0:
420,108,11953,1,0,0:0:0:0:
420,108,12028,1,8,0:0:0:0:
420,108,12178,1,8,0:0:0:0:
420,108,12328,1,0,0:0:0:0:
420,108,12478,1,0,0:0:0:0:
420,108,12628,1,8,0:0:0:0:
420,108,12778,1,8,0:0:0:0:
420,108,12853,1,8,0:0:0:0:
420,108,12928,1,0,0:0:0:0:
420,108,13078,1,0,0:0:0:0:
420,108,13228,1,8,0:0:0:0:
420,108,13378,1,8,0:0:0:0:
420,108,13528,1,0,0:0:0:0:
420,108,13603,1,0,0:0:0:0:
420,108,13678,1,0,0:0:0:0:
420,108,13828,1,0,0:0:0:0:
420,108,13978,1,8,0:0:0:0:
420,108,14053,1,8,0:0:0:0:
420,108,14128,1,0,0:0:0:0:
420,108,14278,1,0,0:0:0:0:
420,108,14428,1,8,0:0:0:0:
420,108,14578,1,8,0:0:0:0:
420,108,14728,1,4,0:0:0:0:
420,108,15028,1,8,0:0:0:0:
420,108,15178,1,8,0:0:0:0:
420,108,15253,1,8,0:0:0:0:
420,108,15328,1,0,0:0:0:0:
420,108,15478,1,0,0:0:0:0:
420,108,15628,1,8,0:0:0:0:
420,108,15778,1,0,0:0:0:0:
420,108,15928,1,8,0:0:0:0:
420,108,16078,1,0,0:0:0:0:
420,108,16228,1,0,0:0:0:0:
420,108,16378,1,8,0:0:0:0:
420,108,16453,1,8,0:0:0:0:
420,108,16528,1,8,0:0:0:0:
420,108,16678,1,0,0:0:0:0:
420,108,16828,1,8,0:0:0:0:
420,108,16978,1,0,0:0:0:0:
420,108,17128,1,0,0:0:0:0:
420,108,17203,1,0,0:0:0:0:
420,108,17278,1,0,0:0:0:0:
420,108,17353,1,0,0:0:0:0:
420,108,17428,1,8,0:0:0:0:
420,108,17578,1,8,0:0:0:0:
420,108,17728,1,0,0:0:0:0:
420,108,17878,1,8,0:0:0:0:
420,108,17953,1,0,0:0:0:0:
420,108,18028,1,8,0:0:0:0:
420,108,18178,1,8,0:0:0:0:
420,108,18328,1,12,0:0:0:0:
420,108,18478,1,4,0:0:0:0:
420,108,18628,1,4,0:0:0:0:
420,108,18778,1,12,0:0:0:0:
420,108,19078,1,12,0:0:0:0:
420,108,19228,1,12,0:0:0:0:
420,108,19528,1,0,0:0:0:0:
420,108,19678,1,0,0:0:0:0:
420,108,19828,1,8,0:0:0:0:
420,108,19978,1,0,0:0:0:0:
420,108,20053,1,0,0:0:0:0:
420,108,20128,1,8,0:0:0:0:
420,108,20278,1,0,0:0:0:0:
420,108,20428,1,8,0:0:0:0:
420,108,20578,1,0,0:0:0:0:
420,108,20653,1,0,0:0:0:0:
420,108,20728,1,8,0:0:0:0:
420,108,20878,1,0,0:0:0:0:
420,108,21028,1,8,0:0:0:0:
420,108,21178,1,8,0:0:0:0:
420,108,21253,1,8,0:0:0:0:
420,108,21328,1,0,0:0:0:0:
420,108,21478,1,0,0:0:0:0:
420,108,21628,1,8,0:0:0:0:
420,108,21778,1,0,0:0:0:0:
420,108,21928,1,0,0:0:0:0:
420,108,22078,1,0,0:0:0:0:
420,108,22153,1,0,0:0:0:0:
420,108,22228,1,8,0:0:0:0:
420,108,22378,1,0,0:0:0:0:
420,108,22528,1,8,0:0:0:0:
420,108,22603,1,8,0:0:0:0:
420,108,22678,1,0,0:0:0:0:
420,108,22753,1,0,0:0:0:0:
420,108,22828,1,8,0:0:0:0:
420,108,22978,1,8,0:0:0:0:
420,108,23128,1,0,0:0:0:0:
420,108,23428,1,8,0:0:0:0:
420,108,23578,1,8,0:0:0:0:
420,108,23653,1,0,0:0:0:0:
420,108,23728,1,8,0:0:0:0:
420,108,23878,1,0,0:0:0:0:
420,108,24028,1,8,0:0:0:0:
420,108,24178,1,0,0:0:0:0:
392,112,24253,1,0,0:0:0:0:
420,108,24328,1,8,0:0:0:0:
420,108,24478,1,0,0:0:0:0:
392,112,24628,1,8,0:0:0:0:
420,108,24703,1,0,0:0:0:0:
420,108,24778,1,8,0:0:0:0:
420,108,24928,1,8,0:0:0:0:
420,108,25078,1,0,0:0:0:0:
420,108,25228,1,8,0:0:0:0:
420,108,25378,1,0,0:0:0:0:
420,108,25453,1,0,0:0:0:0:
420,108,25528,1,8,0:0:0:0:
420,108,25678,1,0,0:0:0:0:
420,108,25828,1,8,0:0:0:0:
420,108,25978,1,0,0:0:0:0:
420,108,26053,1,0,0:0:0:0:
420,108,26128,1,8,0:0:0:0:
420,108,26278,1,0,0:0:0:0:
420,108,26428,1,8,0:0:0:0:
420,108,26578,1,0,0:0:0:0:
420,108,26728,1,0,0:0:0:0:
420,108,26803,1,0,0:0:0:0:
420,108,26878,1,0,0:0:0:0:
420,108,27028,1,12,0:0:0:0:
420,108,27328,1,0,0:0:0:0:
420,108,27403,1,0,0:0:0:0:
420,108,27478,1,0,0:0:0:0:
420,108,27628,1,12,0:0:0:0:
420,108,27928,1,12,0:0:0:0:
420,108,28228,1,12,0:0:0:0:
420,108,28528,1,12,0:0:0:0:
420,108,28828,1,12,0:0:0:0:
420,108,29128,1,4,0:0:0:0:
420,108,29428,1,8,0:0:0:0:
420,108,29578,1,0,0:0:0:0:
420,108,29728,1,0,0:0:0:0:
420,108,29878,1,0,0:0:0:0:
420,108,29953,1,0,0:0:0:0:
420,108,30028,1,8,0:0:0:0:
420,108,30178,1,8,0:0:0:0:
420,108,30328,1,0,0:0:0:0:
420,108,30478,1,0,0:0:0:0:
420,108,30553,1,0,0:0:0:0:
420,108,30628,1,8,0:0:0:0:
420,108,30778,1,0,0:0:0:0:
420,108,30928,1,8,0:0:0:0:
420,108,31003,1,0,0:0:0:0:
420,108,31078,1,0,0:0:0:0:
420,108,31153,1,0,0:0:0:0:
420,108,31228,1,8,0:0:0:0:
420,108,31378,1,8,0:0:0:0:
420,108,31528,1,4,0:0:0:0:
420,108,31678,1,0,0:0:0:0:
420,108,31753,1,0,0:0:0:0:
420,108,31828,1,8,0:0:0:0:
420,108,31978,1,0,0:0:0:0:
420,108,32128,1,8,0:0:0:0:
420,108,32203,1,8,0:0:0:0:
420,108,32278,1,0,0:0:0:0:
420,108,32428,1,8,0:0:0:0:
420,108,32578,1,0,0:0:0:0:
420,108,32728,1,12,0:0:0:0:
420,108,32878,1,0,0:0:0:0:
420,108,33028,1,12,0:0:0:0:
420,108,33178,1,0,0:0:0:0:
420,108,33328,1,12,0:0:0:0:
420,108,33478,1,0,0:0:0:0:
420,108,33628,1,12,0:0:0:0:
420,108,33778,1,0,0:0:0:0:
420,108,33928,1,4,0:0:0:0:
420,108,34078,1,0,0:0:0:0:
420,108,34228,1,8,0:0:0:0:
420,108,34528,1,4,0:0:0:0:
420,108,34678,1,0,0:0:0:0:
420,108,34828,1,8,0:0:0:0:
420,108,35128,1,4,0:0:0:0:
420,108,35278,1,0,0:0:0:0:
420,108,35428,1,8,0:0:0:0:
420,108,35728,1,4,0:0:0:0:
420,108,35878,1,0,0:0:0:0:
420,108,36028,1,8,0:0:0:0:
420,108,36328,1,8,0:0:0:0:
420,108,36403,1,8,0:0:0:0:
420,108,36478,1,0,0:0:0:0:
420,108,36553,1,0,0:0:0:0:
420,108,36628,1,8,0:0:0:0:
420,108,36703,1,8,0:0:0:0:
420,108,36778,1,0,0:0:0:0:
420,108,36853,1,0,0:0:0:0:
420,108,36928,1,8,0:0:0:0:
420,108,37003,1,8,0:0:0:0:
420,108,37078,1,0,0:0:0:0:
420,108,37153,1,8,0:0:0:0:
420,108,37228,1,8,0:0:0:0:
420,108,37303,1,8,0:0:0:0:
420,108,37378,1,0,0:0:0:0:
420,108,37453,1,0,0:0:0:0:
420,108,37528,1,8,0:0:0:0:
420,108,37728,1,4,0:0:0:0:
420,108,37928,1,12,0:0:0:0:
420,108,38128,1,12,0:0:0:0:
420,108,38428,1,0,0:0:0:0:
420,108,38728,1,4,0:0:0:0:
420,108,38878,1,0,0:0:0:0:
420,108,39028,1,8,0:0:0:0:
420,108,39178,1,0,0:0:0:0:
420,108,39328,1,0,0:0:0:0:
420,108,39478,1,0,0:0:0:0:
420,108,39628,1,8,0:0:0:0:
420,108,39778,1,0,0:0:0:0:
420,108,39853,1,0,0:0:0:0:
420,108,39928,1,8,0:0:0:0:
420,108,40078,1,0,0:0:0:0:
420,108,40228,1,8,0:0:0:0:
420,108,40303,1,8,0:0:0:0:
420,108,40378,1,8,0:0:0:0:
420,108,40453,1,0,0:0:0:0:
420,108,40528,1,8,0:0:0:0:
420,108,40678,1,0,0:0:0:0:
420,108,40828,1,8,0:0:0:0:
420,108,40978,1,0,0:0:0:0:
420,108,41053,1,0,0:0:0:0:
420,108,41128,1,8,0:0:0:0:
420,108,41278,1,0,0:0:0:0:
420,108,41428,1,0,0:0:0:0:
420,108,41503,1,0,0:0:0:0:
420,108,41578,1,0,0:0:0:0:
420,108,41728,1,8,0:0:0:0:
420,108,41878,1,0,0:0:0:0:
420,108,42028,1,8,0:0:0:0:
420,108,42178,1,0,0:0:0:0:
420,108,42253,1,0,0:0:0:0:
420,108,42328,1,8,0:0:0:0:
420,108,42478,1,0,0:0:0:0:
420,108,42628,1,0,0:0:0:0:
420,108,42778,1,0,0:0:0:0:
420,108,42853,1,0,0:0:0:0:
420,108,42928,1,8,0:0:0:0:
420,108,43078,1,0,0:0:0:0:
420,108,43228,1,8,0:0:0:0:
420,108,43378,1,8,0:0:0:0:
420,108,43453,1,8,0:0:0:0:
420,108,43528,1,0,0:0:0:0:
420,108,43828,1,0,0:0:0:0:
420,108,43978,1,0,0:0:0:0:
420,108,44053,1,0,0:0:0:0:
420,108,44128,1,8,0:0:0:0:
420,108,44278,1,0,0:0:0:0:
420,108,44428,1,8,0:0:0:0:
420,108,44578,1,0,0:0:0:0:
420,108,44653,1,0,0:0:0:0:
420,108,44728,1,8,0:0:0:0:
420,108,44878,1,0,0:0:0:0:
420,108,45028,1,0,0:0:0:0:
420,108,45103,1,0,0:0:0:0:
420,108,45178,1,0,0:0:0:0:
420,108,45253,1,0,0:0:0:0:
420,108,45328,1,8,0:0:0:0:
420,108,45478,1,0,0:0:0:0:
420,108,45628,1,8,0:0:0:0:
420,108,45778,1,8,0:0:0:0:
420,108,45928,1,0,0:0:0:0:
420,108,46078,1,0,0:0:0:0:
420,108,46228,1,8,0:0:0:0:
420,108,46378,1,0,0:0:0:0:
420,108,46453,1,0,0:0:0:0:
420,108,46528,1,0,0:0:0:0:
420,108,46678,1,8,0:0:0:0:
420,108,46828,1,8,0:0:0:0:
420,108,46978,1,0,0:0:0:0:
420,108,47128,1,8,0:0:0:0:
420,108,47203,1,8,0:0:0:0:
420,108,47278,1,8,0:0:0:0:
420,108,47353,1,8,0:0:0:0:
420,108,47428,1,0,0:0:0:0:
420,108,47503,1,0,0:0:0:0:
420,108,47578,1,0,0:0:0:0:
420,108,47653,1,0,0:0:0:0:
420,108,47728,1,8,0:0:0:0:
420,108,47803,1,8,0:0:0:0:
420,108,47878,1,8,0:0:0:0:
420,108,47953,1,8,0:0:0:0:
420,108,48028,1,0,0:0:0:0:
420,108,48103,1,0,0:0:0:0:
420,108,48178,1,0,0:0:0:0:
420,108,48253,1,0,0:0:0:0:
420,108,48328,1,12,0:0:0:0:
420,108,48628,1,0,0:0:0:0:
420,108,48778,1,0,0:0:0:0:
420,108,48928,1,8,0:0:0:0:
420,108,49078,1,0,0:0:0:0:
420,108,49153,1,0,0:0:0:0:
420,108,49228,1,0,0:0:0:0:
420,108,49378,1,0,0:0:0:0:
420,108,49528,1,8,0:0:0:0:
420,108,49678,1,0,0:0:0:0:
420,108,49753,1,0,0:0:0:0:
420,108,49828,1,8,0:0:0:0:
420,108,49978,1,0,0:0:0:0:
420,108,50128,1,8,0:0:0:0:
420,108,50278,1,0,0:0:0:0:
420,108,50353,1,0,0:0:0:0:
420,108,50428,1,8,0:0:0:0:
420,108,50503,1,8,0:0:0:0:
420,108,50578,1,0,0:0:0:0:
420,108,50728,1,0,0:0:0:0:
420,108,51028,1,8,0:0:0:0:
420,108,51178,1,0,0:0:0:0:
420,108,51328,1,0,0:0:0:0:
420,108,51478,1,0,0:0:0:0:
420,108,51553,1,0,0:0:0:0:
420,108,51628,1,8,0:0:0:0:
420,108,51778,1,8,0:0:0:0:
420,108,51928,1,0,0:0:0:0:
420,108,52078,1,0,0:0:0:0:
392,100,52153,1,0,0:0:0:0:
392,100,52228,1,8,0:0:0:0:
392,100,52378,1,0,0:0:0:0:
392,100,52528,1,8,0:0:0:0:
360,88,52678,1,0,0:0:0:0:
420,108,52828,1,8,0:0:0:0:
392,100,52903,1,8,0:0:0:0:
392,100,52978,1,0,0:0:0:0:
392,100,53053,1,0,0:0:0:0:
392,100,53128,1,8,0:0:0:0:
392,100,53278,1,0,0:0:0:0:
392,100,53428,1,8,0:0:0:0:
392,100,53578,1,0,0:0:0:0:
392,100,53653,1,8,0:0:0:0:
392,100,53728,1,8,0:0:0:0:
392,100,53878,1,0,0:0:0:0:
392,100,54028,1,8,0:0:0:0:
392,100,54178,1,8,0:0:0:0:
392,100,54253,1,8,0:0:0:0:
392,100,54328,1,0,0:0:0:0:
392,100,54478,1,0,0:0:0:0:
392,100,54628,1,8,0:0:0:0:
392,100,54703,1,8,0:0:0:0:
392,100,54778,1,0,0:0:0:0:
392,100,54928,1,8,0:0:0:0:
392,100,55078,1,0,0:0:0:0:
392,100,55153,1,0,0:0:0:0:
392,100,55228,1,8,0:0:0:0:
392,100,55378,1,0,0:0:0:0:
392,100,55528,1,12,0:0:0:0:
368,88,55678,1,0,0:0:0:0:
368,88,55828,1,0,0:0:0:0:
368,88,56128,1,0,0:0:0:0:
392,100,56278,1,0,0:0:0:0:
392,100,56428,1,8,0:0:0:0:
392,100,56578,1,8,0:0:0:0:
392,100,56728,1,4,0:0:0:0:
392,100,56878,1,0,0:0:0:0:
392,100,56953,1,0,0:0:0:0:
392,100,57028,1,8,0:0:0:0:
392,100,57178,1,0,0:0:0:0:
392,100,57253,1,0,0:0:0:0:
392,100,57328,1,8,0:0:0:0:
392,100,57478,1,0,0:0:0:0:
392,100,57553,1,0,0:0:0:0:
392,100,57628,1,8,0:0:0:0:
392,100,57778,1,0,0:0:0:0:
392,100,57853,1,0,0:0:0:0:
392,100,57928,1,8,0:0:0:0:
392,100,58228,1,8,0:0:0:0:
392,100,58378,1,0,0:0:0:0:
392,100,58453,1,0,0:0:0:0:
392,100,58528,1,8,0:0:0:0:
392,100,58678,1,0,0:0:0:0:
392,100,58828,1,8,0:0:0:0:
392,100,58978,1,8,0:0:0:0:
392,100,59053,1,0,0:0:0:0:
392,100,59128,1,0,0:0:0:0:
392,100,59278,1,8,0:0:0:0:
392,100,59428,1,8,0:0:0:0:
392,100,59503,1,0,0:0:0:0:
392,100,59578,1,8,0:0:0:0:
368,120,59728,1,8,0:0:0:0:
368,120,59878,1,8,0:0:0:0:
392,100,59953,1,0,0:0:0:0:
368,120,60028,1,8,0:0:0:0:
392,100,60178,1,8,0:0:0:0:
392,100,60328,1,8,0:0:0:0:
392,100,60403,1,8,0:0:0:0:
392,100,60478,1,0,0:0:0:0:
392,100,60628,1,8,0:0:0:0:
392,100,60778,1,0,0:0:0:0:
392,100,60928,1,8,0:0:0:0:
392,100,61078,1,0,0:0:0:0:
392,100,61153,1,0,0:0:0:0:
392,100,61228,1,8,0:0:0:0:
392,100,61378,1,8,0:0:0:0:
392,100,61528,1,0,0:0:0:0:
392,100,61828,1,8,0:0:0:0:
392,100,61978,1,0,0:0:0:0:
392,100,62128,1,8,0:0:0:0:
392,100,62278,1,0,0:0:0:0:
392,100,62428,1,8,0:0:0:0:
392,100,62503,1,8,0:0:0:0:
392,100,62578,1,0,0:0:0:0:
392,100,62653,1,0,0:0:0:0:
392,100,62728,1,8,0:0:0:0:
392,100,62878,1,0,0:0:0:0:
392,100,62953,1,0,0:0:0:0:
392,100,63028,1,8,0:0:0:0:
392,100,63178,1,0,0:0:0:0:
392,100,63328,1,8,0:0:0:0:
392,100,63478,1,0,0:0:0:0:
392,100,63553,1,0,0:0:0:0:
392,100,63628,1,8,0:0:0:0:
392,100,63778,1,8,0:0:0:0:
392,100,63928,1,0,0:0:0:0:
392,100,64078,1,0,0:0:0:0:
392,100,64228,1,8,0:0:0:0:
392,100,64378,1,0,0:0:0:0:
392,100,64453,1,0,0:0:0:0:
392,100,64528,1,8,0:0:0:0:
392,100,64678,1,0,0:0:0:0:
392,100,64828,1,8,0:0:0:0:
392,100,64903,1,8,0:0:0:0:
392,100,64978,1,0,0:0:0:0:
392,100,65128,1,4,0:0:0:0:
392,100,65428,1,8,0:0:0:0:
392,100,65728,1,4,0:0:0:0:
392,100,66028,1,0,0:0:0:0:
392,100,66178,1,12,0:0:0:0:
392,100,66328,1,0,0:0:0:0:
392,100,66478,1,0,0:0:0:0:
392,100,66628,1,8,0:0:0:0:
392,100,66728,1,0,0:0:0:0:
392,100,66828,1,0,0:0:0:0:
392,100,66928,1,8,0:0:0:0:
392,100,67028,1,0,0:0:0:0:
392,100,67128,1,0,0:0:0:0:
392,100,67228,1,8,0:0:0:0:
392,100,67328,1,0,0:0:0:0:
392,100,67428,1,0,0:0:0:0:
392,100,67528,1,12,0:0:0:0:
392,100,67828,1,0,0:0:0:0:
392,100,68128,1,12,0:0:0:0:
392,100,68428,1,0,0:0:0:0:
392,100,68578,1,8,0:0:0:0:
392,100,68878,1,0,0:0:0:0:
392,100,69028,1,0,0:0:0:0:
392,100,69178,1,0,0:0:0:0:
392,100,69328,1,8,0:0:0:0:
392,100,69478,1,0,0:0:0:0:
392,100,69628,1,8,0:0:0:0:
392,100,69928,1,0,0:0:0:0:
392,100,70228,1,0,0:0:0:0:
392,100,70528,1,12,0:0:0:0:
392,100,70828,1,0,0:0:0:0:
392,100,70978,1,8,0:0:0:0:
392,100,71428,1,8,0:0:0:0:
392,100,71728,1,0,0:0:0:0:
392,100,72028,1,8,0:0:0:0:
392,100,72328,1,4,0:0:0:0:
392,100,72478,1,0,0:0:0:0:
392,100,72628,1,8,0:0:0:0:
392,100,72778,1,0,0:0:0:0:
392,100,72853,1,0,0:0:0:0:
392,100,72928,1,0,0:0:0:0:
392,100,73078,1,0,0:0:0:0:
392,100,73228,1,8,0:0:0:0:
392,100,73378,1,0,0:0:0:0:
392,100,73528,1,0,0:0:0:0:
392,100,73678,1,0,0:0:0:0:
392,100,73828,1,8,0:0:0:0:
392,100,73978,1,0,0:0:0:0:
392,100,74053,1,0,0:0:0:0:
392,100,74128,1,0,0:0:0:0:
392,100,74278,1,0,0:0:0:0:
392,100,74428,1,8,0:0:0:0:
392,100,74578,1,0,0:0:0:0:
392,100,74728,1,4,0:0:0:0:
392,100,74878,1,0,0:0:0:0:
392,100,75028,1,8,0:0:0:0:
392,100,75178,1,0,0:0:0:0:
392,100,75328,1,4,0:0:0:0:
392,100,75478,1,0,0:0:0:0:
392,100,75628,1,8,0:0:0:0:
392,100,75778,1,0,0:0:0:0:
392,100,75928,1,4,0:0:0:0:
392,100,76078,1,0,0:0:0:0:
392,100,76228,1,8,0:0:0:0:
392,100,76378,1,0,0:0:0:0:
392,100,76528,1,4,0:0:0:0:
392,100,76678,1,0,0:0:0:0:
392,100,76828,1,8,0:0:0:0:
392,100,76978,1,0,0:0:0:0:
392,100,77128,1,12,0:0:0:0:
392,100,77278,1,0,0:0:0:0:
392,100,77428,1,12,0:0:0:0:
392,100,77578,1,0,0:0:0:0:
392,100,77728,1,12,0:0:0:0:
392,100,77878,1,0,0:0:0:0:
392,100,78028,1,12,0:0:0:0:
392,100,78178,1,0,0:0:0:0:
392,100,78328,1,12,0:0:0:0:
392,100,78478,1,0,0:0:0:0:
392,100,78628,1,12,0:0:0:0:
392,100,78778,1,12,0:0:0:0:
392,100,78928,1,0,0:0:0:0:
392,100,79078,1,0,0:0:0:0:
392,100,79228,1,12,0:0:0:0:
392,100,79378,1,0,0:0:0:0:
392,100,79528,1,12,0:0:0:0:
392,100,79678,1,0,0:0:0:0:
392,100,79828,1,12,0:0:0:0:
392,100,79978,1,0,0:0:0:0:
392,100,80128,1,12,0:0:0:0:
392,100,80278,1,0,0:0:0:0:
392,100,80428,1,12,0:0:0:0:
392,100,80578,1,0,0:0:0:0:
392,100,80728,1,12,0:0:0:0:
392,100,80878,1,0,0:0:0:0:
392,100,81028,1,12,0:0:0:0:
392,100,81178,1,12,0:0:0:0:
392,100,81328,1,0,0:0:0:0:
392,100,81478,1,0,0:0:0:0:
392,100,81628,1,12,0:0:0:0:
392,100,81778,1,0,0:0:0:0:
392,100,81928,1,12,0:0:0:0:
392,100,82078,1,0,0:0:0:0:
392,100,82228,1,12,0:0:0:0:
392,100,82378,1,0,0:0:0:0:
392,100,82528,1,12,0:0:0:0:
392,100,82678,1,0,0:0:0:0:
392,100,82828,1,12,0:0:0:0:
392,100,82978,1,0,0:0:0:0:
392,100,83128,1,12,0:0:0:0:
392,100,83278,1,0,0:0:0:0:
392,100,83428,1,12,0:0:0:0:
392,100,83578,1,12,0:0:0:0:
360,100,83728,1,0,0:0:0:0:
392,100,83878,1,0,0:0:0:0:
392,100,84028,1,12,0:0:0:0:
392,100,84178,1,0,0:0:0:0:
392,100,84328,1,12,0:0:0:0:
392,100,84478,1,0,0:0:0:0:
392,100,84628,1,12,0:0:0:0:
392,100,84778,1,0,0:0:0:0:
392,100,84928,1,12,0:0:0:0:
392,100,85078,1,0,0:0:0:0:
392,100,85228,1,12,0:0:0:0:
356,96,85378,1,0,0:0:0:0:
392,100,85528,1,12,0:0:0:0:
392,100,85678,1,0,0:0:0:0:
392,100,85828,1,12,0:0:0:0:
392,100,85978,1,12,0:0:0:0:
392,100,86128,1,0,0:0:0:0:
392,100,86203,1,0,0:0:0:0:
392,100,86278,1,8,0:0:0:0:
392,100,86353,1,8,0:0:0:0:
392,100,86428,1,0,0:0:0:0:
392,100,86503,1,8,0:0:0:0:
392,100,86578,1,8,0:0:0:0:
392,100,86653,1,0,0:0:0:0:
392,100,86728,1,0,0:0:0:0:
256,192,86878,12,0,88678,0:0:0:0:
