osu file format v12

[General]
AudioFilename: Ore no Nounai Sentakushi ga, Gakuen Lovecome o Zenryoku de Jama Shiteiru.mp3
AudioLeadIn: 0
PreviewTime: 38728
Countdown: 0
SampleSet: Normal
StackLeniency: 0.7
Mode: 1
LetterboxInBreaks: 0
WidescreenStoryboard: 1

[Editor]
DistanceSpacing: 0.8
BeatDivisor: 4
GridSize: 4

[Metadata]
Title:S.M.L (TV Size)
TitleUnicode:S・M・L☆ (TV Size)
Artist:Afilia Saga
ArtistUnicode:アフィリア・サーガ
Creator:kanpakyin
Version:Futsuu
Source:Ore no Nounai Sentakushi ga, Gakuen Lovecome o Zenryoku de Jama Shiteiru
Tags:opening 俺の脳内選択肢が、学園ラブコメを全力で邪魔している
BeatmapID:322524
BeatmapSetID:126342

[Difficulty]
HPDrainRate:3
CircleSize:5
OverallDifficulty:3
ApproachRate:5
SliderMultiplier:1.2
SliderTickRate:1

[Events]
//Background and Video events
0,0,"bg.jpg",0,0
Video,0,"OP.avi"
//Break Periods
//Storyboard Layer 0 (Background)
//Storyboard Layer 1 (Fail)
//Storyboard Layer 2 (Pass)
//Storyboard Layer 3 (Foreground)
//Storyboard Sound Samples
//Background Colour Transformations
3,100,163,162,255

[TimingPoints]
328,300,4,1,0,65,1,0
38728,-100,4,1,0,65,0,1
67528,-100,4,1,0,65,0,0
86878,-100,4,2,0,5,0,0

[HitObjects]
412,80,328,1,4,0:0:0:0:
412,80,928,1,8,0:0:0:0:
412,80,1378,1,8,0:0:0:0:
412,80,1678,1,8,0:0:0:0:
412,80,1978,1,8,0:0:0:0:
412,80,2128,1,8,0:0:0:0:
412,80,2428,1,0,0:0:0:0:
412,80,2728,1,8,0:0:0:0:
412,80,3328,1,0,0:0:0:0:
412,80,3778,1,8,0:0:0:0:
412,80,4078,1,0,0:0:0:0:
412,80,4228,1,0,0:0:0:0:
412,80,4378,1,0,0:0:0:0:
412,80,4678,1,8,0:0:0:0:
412,80,4828,1,8,0:0:0:0:
412,80,5128,1,0,0:0:0:0:
412,80,5728,1,8,0:0:0:0:
412,80,6178,1,8,0:0:0:0:
412,80,6478,1,8,0:0:0:0:
412,80,6778,1,8,0:0:0:0:
412,80,6928,1,8,0:0:0:0:
412,80,7228,1,0,0:0:0:0:
412,80,7528,1,0,0:0:0:0:
412,80,7978,1,8,0:0:0:0:
412,80,8578,1,0,0:0:0:0:
412,80,9328,1,8,0:0:0:0:
412,80,9628,1,8,0:0:0:0:
412,80,9928,1,4,0:0:0:0:
412,80,10228,1,0,0:0:0:0:
412,80,10528,1,0,0:0:0:0:
412,80,10828,1,8,0:0:0:0:
412,80,11128,1,0,0:0:0:0:
412,80,11428,1,0,0:0:0:0:
412,80,11728,1,8,0:0:0:0:
412,80,12028,1,8,0:0:0:0:
412,80,12328,1,0,0:0:0:0:
412,80,12778,1,8,0:0:0:0:
412,80,13228,1,8,0:0:0:0:
412,80,13528,1,0,0:0:0:0:
384,84,13978,1,8,0:0:0:0:
384,84,14428,1,8,0:0:0:0:
384,84,14728,1,0,0:0:0:0:
384,84,15178,1,8,0:0:0:0:
384,84,15628,1,8,0:0:0:0:
384,84,15928,1,0,0:0:0:0:
356,80,16228,1,8,0:0:0:0:
356,80,16378,1,8,0:0:0:0:
384,84,16678,1,0,0:0:0:0:
356,80,16828,1,8,0:0:0:0:
384,84,17128,1,4,0:0:0:0:
356,80,17578,1,8,0:0:0:0:
356,80,18028,1,8,0:0:0:0:
384,84,18328,1,4,0:0:0:0:
384,84,18778,1,8,0:0:0:0:
356,80,19228,1,8,0:0:0:0:
356,80,19528,1,4,0:0:0:0:
356,80,19828,1,0,0:0:0:0:
384,84,20128,1,0,0:0:0:0:
356,80,20428,1,8,0:0:0:0:
356,80,20728,1,0,0:0:0:0:
356,80,21028,1,0,0:0:0:0:
384,84,21328,1,8,0:0:0:0:
384,84,21628,1,8,0:0:0:0:
384,84,21928,1,0,0:0:0:0:
356,80,22378,1,8,0:0:0:0:
384,84,22828,1,8,0:0:0:0:
384,84,23128,1,0,0:0:0:0:
356,80,23578,1,8,0:0:0:0:
384,84,24028,1,8,0:0:0:0:
384,84,24328,1,4,0:0:0:0:
384,84,24778,1,8,0:0:0:0:
384,84,25228,1,8,0:0:0:0:
384,84,25528,1,0,0:0:0:0:
384,84,25828,1,8,0:0:0:0:
384,84,25978,1,8,0:0:0:0:
384,84,26428,1,8,0:0:0:0:
384,84,26728,1,0,0:0:0:0:
356,80,27028,1,12,0:0:0:0:
356,80,27628,1,0,0:0:0:0:
356,80,27928,1,12,0:0:0:0:
356,80,28228,1,12,0:0:0:0:
356,80,28528,1,12,0:0:0:0:
356,80,28828,1,12,0:0:0:0:
356,80,29128,1,0,0:0:0:0:
356,80,29728,1,0,0:0:0:0:
356,80,30028,1,0,0:0:0:0:
356,80,30328,1,12,0:0:0:0:
356,80,30628,1,12,0:0:0:0:
356,80,30928,1,12,0:0:0:0:
356,80,31228,1,12,0:0:0:0:
356,80,31528,1,0,0:0:0:0:
356,80,32128,1,0,0:0:0:0:
356,80,32728,1,12,0:0:0:0:
356,80,33028,1,12,0:0:0:0:
356,80,33328,1,12,0:0:0:0:
356,80,33628,1,12,0:0:0:0:
356,80,33928,1,0,0:0:0:0:
356,80,34078,1,0,0:0:0:0:
356,80,34528,1,0,0:0:0:0:
356,80,34678,1,0,0:0:0:0:
356,80,35128,1,0,0:0:0:0:
356,80,35278,1,0,0:0:0:0:
356,80,35728,1,0,0:0:0:0:
356,80,35878,1,0,0:0:0:0:
356,80,36328,2,0,P|212:180|92:72,1,360
356,80,37528,1,4,0:0:0:0:
356,80,38128,1,12,0:0:0:0:
356,80,38428,1,0,0:0:0:0:
356,80,38728,1,4,0:0:0:0:
356,80,39328,1,8,0:0:0:0:
356,80,39928,1,0,0:0:0:0:
356,80,40228,1,8,0:0:0:0:
356,80,40528,1,8,0:0:0:0:
356,80,40828,1,0,0:0:0:0:
356,80,41128,1,8,0:0:0:0:
356,80,41728,1,0,0:0:0:0:
356,80,42028,1,8,0:0:0:0:
356,80,42328,1,0,0:0:0:0:
356,80,42928,1,8,0:0:0:0:
356,80,43228,1,0,0:0:0:0:
356,80,43528,1,0,0:0:0:0:
356,80,43978,1,8,0:0:0:0:
356,80,44128,1,8,0:0:0:0:
356,80,44428,1,8,0:0:0:0:
356,80,44728,1,0,0:0:0:0:
356,80,45328,1,8,0:0:0:0:
356,80,45628,1,8,0:0:0:0:
356,80,45928,1,0,0:0:0:0:
356,80,46528,1,0,0:0:0:0:
356,80,47128,1,8,0:0:0:0:
356,80,47428,1,0,0:0:0:0:
356,80,47728,1,8,0:0:0:0:
356,80,48028,1,0,0:0:0:0:
356,80,48328,1,4,0:0:0:0:
356,80,48928,1,8,0:0:0:0:
356,80,49528,1,0,0:0:0:0:
356,80,49828,1,8,0:0:0:0:
356,80,50128,1,8,0:0:0:0:
356,80,50428,1,0,0:0:0:0:
356,80,50728,1,8,0:0:0:0:
356,80,51328,1,0,0:0:0:0:
356,80,51628,1,8,0:0:0:0:
356,80,51928,1,0,0:0:0:0:
356,80,52528,1,8,0:0:0:0:
356,80,52828,1,0,0:0:0:0:
356,80,53128,1,0,0:0:0:0:
356,80,53728,1,0,0:0:0:0:
356,80,54028,1,8,0:0:0:0:
356,80,54328,1,0,0:0:0:0:
356,80,54928,1,8,0:0:0:0:
356,80,55228,1,8,0:0:0:0:
356,80,55528,1,4,0:0:0:0:
356,80,56128,1,0,0:0:0:0:
356,80,56428,1,0,0:0:0:0:
356,80,56728,1,8,0:0:0:0:
356,80,57028,1,8,0:0:0:0:
356,80,57328,1,8,0:0:0:0:
356,80,57628,1,8,0:0:0:0:
356,80,57928,1,0,0:0:0:0:
356,80,58528,1,8,0:0:0:0:
356,80,58828,1,8,0:0:0:0:
356,80,58978,1,8,0:0:0:0:
356,80,59428,1,0,0:0:0:0:
356,80,59728,1,8,0:0:0:0:
356,80,60028,1,8,0:0:0:0:
356,80,60328,1,0,0:0:0:0:
356,80,60628,1,8,0:0:0:0:
356,80,60928,1,0,0:0:0:0:
356,80,61228,1,8,0:0:0:0:
356,80,61378,1,8,0:0:0:0:
356,80,61828,1,0,0:0:0:0:
356,80,62128,1,8,0:0:0:0:
356,80,62428,1,8,0:0:0:0:
356,80,62728,1,0,0:0:0:0:
356,80,63328,1,0,0:0:0:0:
356,80,63628,1,8,0:0:0:0:
356,80,63778,1,8,0:0:0:0:
356,80,64228,1,0,0:0:0:0:
356,80,64528,1,8,0:0:0:0:
356,80,64828,1,8,0:0:0:0:
356,80,65128,1,4,0:0:0:0:
356,80,65728,1,4,0:0:0:0:
356,80,66178,1,12,0:0:0:0:
356,80,66628,1,0,0:0:0:0:
356,80,66928,1,8,0:0:0:0:
356,80,67228,1,8,0:0:0:0:
356,80,67528,1,4,0:0:0:0:
356,80,68128,1,12,0:0:0:0:
356,80,68578,1,0,0:0:0:0:
356,80,69028,1,8,0:0:0:0:
356,80,69328,1,8,0:0:0:0:
356,80,69628,1,0,0:0:0:0:
356,80,69928,1,0,0:0:0:0:
356,80,70528,1,12,0:0:0:0:
356,80,70828,1,8,0:0:0:0:
356,80,70978,1,8,0:0:0:0:
356,80,71428,1,0,0:0:0:0:
356,80,71728,1,8,0:0:0:0:
356,80,72028,1,8,0:0:0:0:
356,80,72328,1,4,0:0:0:0:
356,80,72928,1,0,0:0:0:0:
356,80,73228,1,8,0:0:0:0:
356,80,73528,1,0,0:0:0:0:
356,80,74128,1,0,0:0:0:0:
328,96,74428,1,8,0:0:0:0:
328,96,74728,1,4,0:0:0:0:
328,96,75328,1,12,0:0:0:0:
328,96,75928,1,4,0:0:0:0:
328,96,76528,1,12,0:0:0:0:
328,96,77128,1,4,0:0:0:0:
328,96,77428,1,8,0:0:0:0:
328,96,77728,1,8,0:0:0:0:
328,96,78028,1,8,0:0:0:0:
328,96,78328,1,0,0:0:0:0:
328,96,78778,1,8,0:0:0:0:
328,96,79228,1,8,0:0:0:0:
328,96,79528,1,0,0:0:0:0:
328,96,79828,1,8,0:0:0:0:
328,96,80128,1,8,0:0:0:0:
328,96,80428,1,8,0:0:0:0:
328,96,80728,1,0,0:0:0:0:
328,96,81178,1,8,0:0:0:0:
328,96,81628,1,8,0:0:0:0:
328,96,81928,1,0,0:0:0:0:
328,96,82228,1,8,0:0:0:0:
328,96,82528,1,8,0:0:0:0:
328,96,82828,1,8,0:0:0:0:
328,96,83128,1,0,0:0:0:0:
328,96,83578,1,8,0:0:0:0:
328,96,84028,1,8,0:0:0:0:
328,96,84328,1,0,0:0:0:0:
328,96,84628,1,8,0:0:0:0:
328,96,84928,1,8,0:0:0:0:
328,96,85228,1,8,0:0:0:0:
328,96,85528,1,0,0:0:0:0:
328,96,85978,1,8,0:0:0:0:
328,96,86428,1,12,0:0:0:0:
328,96,86728,1,0,0:0:0:0:
256,192,86878,12,0,88678,0:0:0:0:
