osu file format v12

[General]
AudioFilename: Ore no Nounai Sentakushi ga, Gakuen Lovecome o Zenryoku de Jama Shiteiru.mp3
AudioLeadIn: 1500
PreviewTime: 38732
Countdown: 0
SampleSet: Soft
StackLeniency: 0.6
Mode: 0
LetterboxInBreaks: 0
WidescreenStoryboard: 0

[Editor]
DistanceSpacing: 1.6
BeatDivisor: 4
GridSize: 4

[Metadata]
Title:S.M.L (TV Size)
TitleUnicode:S・M・L☆ (TV Size)
Artist:Afilia Saga
ArtistUnicode:アフィリア・サーガ
Creator:Fycho
Version:Insane
Source:Ore no Nounai Sentakushi ga, Gakuen Lovecome o Zenryoku de Jama Shiteiru
Tags:Laurier Amamiya yuko [Minakami Yuki] opening 俺の脳内選択肢が、青春ラブコメを全力で邪魔している
BeatmapID:311660
BeatmapSetID:121662

[Difficulty]
HPDrainRate:7
CircleSize:4
OverallDifficulty:7
ApproachRate:9
SliderMultiplier:1.6
SliderTickRate:2

[Events]
//Background and Video events
0,0,"bg.jpg",0,0
Video,0,"OP.avi"
//Break Periods
//Storyboard Layer 0 (Background)
//Storyboard Layer 1 (Fail)
//Storyboard Layer 2 (Pass)
//Storyboard Layer 3 (Foreground)
//Storyboard Sound Samples
//Background Colour Transformations
3,100,163,162,255

[TimingPoints]
332,300,4,2,1,60,1,0
9632,-100,4,2,1,30,0,0
9932,-100,4,2,1,50,0,0
18332,-100,4,2,1,60,0,0
19532,-100,4,2,1,50,0,0
27932,-100,4,2,1,60,0,0
29132,-100,4,2,1,50,0,0
30332,-83.3333333333333,4,2,1,55,0,0
30632,-71.4285714285714,4,2,1,60,0,0
31232,-62.5,4,2,1,70,0,0
31532,-100,4,2,1,50,0,0
36332,-100,4,2,1,60,0,0
36782,-100,4,2,1,30,0,0
37532,-100,4,2,1,60,0,0
38432,-66.6666666666667,4,2,1,60,0,0
38732,-100,4,2,1,70,0,1
47132,-83.3333333333333,4,2,1,50,0,0
47432,-71.4285714285714,4,2,1,55,0,0
47732,-62.5,4,2,1,60,0,0
48032,-55.5555555555556,4,2,1,65,0,0
48107,-55.5555555555556,4,2,1,50,0,0
48332,-100,4,2,1,70,0,1
56732,-83.3333333333333,4,2,1,50,0,0
57032,-71.4285714285714,4,2,1,55,0,0
57332,-71.4285714285714,4,2,1,60,0,0
57407,-71.4285714285714,4,2,1,40,0,0
57932,-100,4,2,1,70,0,1
60032,-100,4,2,1,40,0,1
60332,-100,4,2,1,60,0,1
61832,-100,4,2,1,40,0,1
62132,-100,4,2,1,70,0,1
67232,-100,4,2,1,50,0,0
67532,-133.333333333333,4,2,1,70,0,1
68732,-133.333333333333,4,2,1,50,0,1
69332,-133.333333333333,4,2,1,70,0,1
72332,-100,4,2,1,70,0,1
77132,-100,4,2,1,60,0,0
87182,-100,4,2,1,40,0,0
87632,-100,4,2,1,30,0,0
88082,-100,4,2,1,20,0,0
88532,-100,4,2,1,10,0,0
88982,-100,4,2,1,5,0,0

[Colours]
Combo1 : 255,242,202
Combo2 : 210,255,210
Combo3 : 217,234,255
Combo4 : 253,210,217

[HitObjects]
362,143,332,2,0,P|321:145|276:157,1,80,4|0,0:0|0:0,0:0:0:0:
90,238,632,2,0,P|135:242|178:235,1,80,8|0,0:0|0:0,0:0:0:0:
282,155,932,1,2,0:0:0:0:
240,308,1082,1,2,0:0:0:0:
282,155,1232,1,8,0:0:0:0:
411,257,1382,6,0,P|428:177|376:117,2,160,2|2|0,0:0|0:0|0:0,0:0:0:0:
312,343,2132,1,2,0:0:0:0:
333,200,2282,1,2,0:0:0:0:
333,200,2357,1,0,0:0:0:0:
333,200,2432,2,0,L|246:208,1,80,8|0,0:0|0:0,0:0:0:0:
84,107,2732,6,0,L|173:90,1,80,2|0,0:0|0:0,0:0:0:0:
346,47,3032,2,0,L|256:38,1,80,8|0,0:0|0:0,0:0:0:0:
393,170,3332,1,2,0:0:0:0:
346,47,3482,1,2,0:0:0:0:
285,273,3632,1,8,0:0:0:0:
295,114,3782,1,0,0:0:0:0:
153,187,3932,6,0,L|62:207,1,80,2|8,0:0|0:0,0:0:0:0:
308,200,4232,2,0,L|387:185,1,80,8|8,0:0|0:0,0:0:0:0:
386,185,4682,1,12,0:0:0:0:
108,205,4832,1,12,0:0:0:0:
108,205,5132,6,0,L|100:297,1,80,4|0,0:0|0:0,0:0:0:0:
316,205,5432,2,0,L|309:125,1,80,8|0,0:0|0:0,0:0:0:0:
309,125,5657,1,0,0:0:0:0:
309,125,5732,1,2,0:0:0:0:
261,276,5882,1,2,0:0:0:0:
404,193,6032,1,8,0:0:0:0:
233,106,6182,6,0,P|182:107|143:103,1,80,0|2,0:0|0:0,0:0:0:0:
403,193,6482,2,0,P|454:192|493:196,1,80,0|12,0:0|0:0,0:0:0:0:
309,125,6782,1,0,0:0:0:0:
200,220,6932,1,2,0:0:0:0:
328,290,7082,1,2,0:0:0:0:
233,106,7232,1,8,0:0:0:0:
200,220,7382,1,0,0:0:0:0:
200,220,7457,1,0,0:0:0:0:
200,220,7532,6,0,P|156:213|116:218,1,80,4|2,0:0|0:0,0:0:0:0:
30,126,7832,1,8,0:0:0:0:
66,296,7982,1,4,0:0:0:0:
66,296,8282,1,2,0:0:0:0:
0,207,8432,1,8,0:0:0:0:
179,142,8582,1,4,0:0:0:0:
179,142,8882,5,8,0:0:0:0:
142,278,9032,1,8,0:0:0:0:
271,176,9182,1,8,0:0:0:0:
257,357,9332,1,12,0:0:0:0:
257,357,9632,5,8,0:0:0:0:
296,351,9707,1,8,0:0:0:0:
333,336,9782,1,8,0:0:0:0:
355,302,9857,1,8,0:0:0:0:
349,259,9932,6,0,P|334:186|396:142,2,160,4|8|2,0:0|0:0|0:0,0:0:0:0:
484,178,10682,1,2,0:0:0:0:
437,281,10832,2,0,P|429:319|433:364,1,80,8|0,0:0|0:0,0:0:0:0:
484,178,11132,5,2,0:0:0:0:
437,281,11282,1,0,0:0:0:0:
316,210,11432,2,0,P|275:205|228:209,1,80,8|8,0:0|0:0,0:0:0:0:
91,243,11732,1,2,0:0:0:0:
198,320,11882,1,2,0:0:0:0:
198,320,11957,1,0,0:0:0:0:
198,320,12032,1,8,0:0:0:0:
259,134,12182,1,0,0:0:0:0:
134,70,12332,6,0,P|219:51|299:46,1,160,2|8,0:0|0:0,0:0:0:0:
415,224,12782,2,0,P|335:236|289:176,1,160,8|2,0:0|0:0,0:0:0:0:
415,224,13232,1,8,0:0:0:0:
316,311,13382,1,0,0:0:0:0:
192,240,13532,6,0,P|199:293|197:337,1,80,2|0,0:0|0:0,0:0:0:0:
272,129,13832,1,8,0:0:0:0:
101,190,13982,2,0,P|48:197|7:195,1,80,8|2,0:0|0:0,0:0:0:0:
263,224,14282,1,2,0:0:0:0:
118,287,14432,1,8,0:0:0:0:
263,224,14582,1,0,0:0:0:0:
172,76,14732,6,0,P|212:22|305:35,1,160,2|8,0:0|0:0,0:0:0:0:
295,209,15182,1,8,0:0:0:0:
295,209,15257,1,0,0:0:0:0:
295,209,15332,2,0,P|291:259|297:304,1,80,2|2,0:0|0:0,0:0:0:0:
322,115,15632,1,8,0:0:0:0:
221,166,15782,1,0,0:0:0:0:
387,180,15932,5,2,0:0:0:0:
350,35,16082,1,0,0:0:0:0:
240,77,16232,1,8,0:0:0:0:
418,88,16382,1,8,0:0:0:0:
240,77,16532,2,0,P|202:76|160:82,1,80,2|2,0:0|0:0,0:0:0:0:
341,236,16832,2,0,P|385:240|430:233,1,80,8|0,0:0|0:0,0:0:0:0:
169,303,17132,5,4,0:0:0:0:
341,236,17282,1,0,0:0:0:0:
227,192,17432,1,8,0:0:0:0:
256,348,17582,1,8,0:0:0:0:
302,146,17732,5,2,0:0:0:0:
133,229,17882,1,2,0:0:0:0:
280,312,18032,2,0,P|319:312|371:321,1,80,8|0,0:0|0:0,0:0:0:0:
133,229,18332,5,12,0:0:0:0:
280,312,18482,1,0,0:0:0:0:
80,335,18632,1,8,0:0:0:0:
339,199,18782,1,12,0:0:0:0:
339,199,19082,5,4,0:0:0:0:
220,297,19232,1,12,0:0:0:0:
188,292,19307,1,0,0:0:0:0:
160,292,19382,1,0,0:0:0:0:
128,296,19457,1,0,0:0:0:0:
90,303,19532,6,0,P|18:272|16:197,1,160,4|8,0:0|0:0,0:0:0:0:
90,302,19982,1,0,0:0:0:0:
201,262,20132,2,0,L|285:251,1,80,2|2,0:0|0:0,0:0:0:0:
360,120,20432,2,0,L|280:109,1,80,8|0,0:0|0:0,0:0:0:0:
370,229,20732,5,2,0:0:0:0:
512,171,20882,1,0,0:0:0:0:
440,80,21032,1,8,0:0:0:0:
448,306,21182,1,8,0:0:0:0:
440,80,21332,2,0,P|393:72|354:77,1,80,2|2,0:0|0:0,0:0:0:0:
204,116,21632,1,8,0:0:0:0:
152,228,21782,2,0,P|192:230|237:216,1,80,0|2,0:0|0:0,0:0:0:0:
204,116,22082,5,0,0:0:0:0:
222,309,22232,1,8,0:0:0:0:
204,116,22382,1,8,0:0:0:0:
109,287,22532,2,0,P|115:334|113:379,1,80,2|2,0:0|0:0,0:0:0:0:
222,309,22832,1,8,0:0:0:0:
26,333,22982,1,0,0:0:0:0:
222,309,23132,6,0,P|296:331|365:278,1,160,2|8,0:0|0:0,0:0:0:0:
350,47,23582,2,0,P|334:132|333:210,1,160,8|2,0:0|0:0,0:0:0:0:
246,150,24032,1,8,0:0:0:0:
408,212,24182,1,0,0:0:0:0:
170,279,24332,6,0,P|100:304|45:237,1,160,4|8,0:0|0:0,0:0:0:0:
28,125,24782,1,8,0:0:0:0:
167,93,24932,2,0,P|171:132|173:175,1,80,2|2,0:0|0:0,0:0:0:0:
295,324,25232,2,0,P|291:285|289:242,1,80,8|0,0:0|0:0,0:0:0:0:
397,157,25532,6,0,P|345:93|271:114,2,160,2|8|2,0:0|0:0|0:0,0:0:0:0:
317,260,26282,1,2,0:0:0:0:
397,156,26432,2,0,P|440:150|485:149,1,80,8|0,0:0|0:0,0:0:0:0:
195,36,26732,6,0,P|250:80|255:166,1,160,2|12,0:0|0:0,0:0:0:0:
199,337,27182,1,0,0:0:0:0:
318,260,27332,2,0,L|401:246,1,80,2|2,0:0|0:0,0:0:0:0:
165,160,27632,2,0,L|82:174,1,80,12|0,0:0|0:0,0:0:0:0:
396,246,27932,5,12,0:0:0:0:
86,173,28232,1,12,0:0:0:0:
256,164,28532,5,12,0:0:0:0:
232,256,28682,1,0,0:0:0:0:
240,60,28832,1,12,0:0:0:0:
252,352,28982,1,8,0:0:0:0:
240,60,29132,5,4,0:0:0:0:
363,180,29432,1,8,0:0:0:0:
267,270,29582,1,0,0:0:0:0:
158,148,29732,2,0,P|119:138|69:139,1,80,2|2,0:0|0:0,0:0:0:0:
267,270,30032,2,0,P|319:269|367:255,1,80,8|0,0:0|0:0,0:0:0:0:
331,118,30332,6,0,P|396:137|388:211,1,143.999995605469,4|0,0:0|0:0,0:0:0:0:
347,263,30632,6,0,P|279:215|247:139,1,167.999994873047,8|0,0:0|0:0,0:0:0:0:
385,41,30932,6,0,P|452:88|485:165,1,167.999994873047,4|0,0:0|0:0,0:0:0:0:
347,263,31232,6,0,B|302:296|259:273|259:273|215:298|165:264,1,192,8|0,0:0|0:0,0:0:0:0:
115,188,31532,5,4,0:0:0:0:
442,267,31832,1,8,0:0:0:0:
361,150,31982,1,0,0:0:0:0:
267,270,32132,2,0,P|261:321|268:362,1,80,6|2,0:0|0:0,0:0:0:0:
361,150,32432,2,0,P|360:98|337:25,1,120,8|0,0:0|0:0,0:0:0:0:
340,34,32732,5,4,0:0:0:0:
257,127,32882,1,0,0:0:0:0:
257,127,32957,1,0,0:0:0:0:
257,127,33032,1,8,0:0:0:0:
282,245,33182,1,0,0:0:0:0:
401,88,33332,5,2,0:0:0:0:
397,232,33482,1,2,0:0:0:0:
251,229,33632,1,8,0:0:0:0:
246,86,33782,1,8,0:0:0:0:
323,161,33932,5,12,0:0:0:0:
275,13,34082,1,8,0:0:0:0:
135,128,34232,2,0,P|177:127|217:106,1,80
27,108,34532,5,12,0:0:0:0:
27,108,34682,1,8,0:0:0:0:
108,275,34832,2,0,P|111:236|102:195,1,80
9,243,35132,5,12,0:0:0:0:
189,213,35282,1,8,0:0:0:0:
147,348,35432,2,0,P|108:359|69:350,1,80
249,328,35732,5,12,0:0:0:0:
249,328,35882,1,8,0:0:0:0:
210,215,36032,2,0,P|203:156|215:98,1,120
249,56,36332,6,0,L|263:152,1,80,4|0,0:0|0:0,0:0:0:0:
324,278,36632,2,0,L|340:200,1,80,8|8,0:0|0:0,0:0:0:0:
346,177,36857,1,8,0:0:0:0:
348,153,36932,1,8,0:0:0:0:
352,129,37007,1,8,0:0:0:0:
352,105,37082,1,8,0:0:0:0:
344,82,37157,1,8,0:0:0:0:
331,61,37232,1,8,0:0:0:0:
309,51,37307,1,8,0:0:0:0:
286,41,37382,1,8,0:0:0:0:
261,40,37457,1,8,0:0:0:0:
237,42,37532,5,4,0:0:0:0:
237,212,37732,1,4,0:0:0:0:
91,123,37932,1,4,0:0:0:0:
261,129,38132,1,4,0:0:0:0:
284,128,38432,6,0,B|308:76|296:16|296:16|336:64|328:88,1,180.000006866455,12|0,0:0|0:0,0:0:0:0:
360,144,38732,6,0,P|375:189|376:236,1,80,4|0,0:0|0:0,0:0:0:0:
384,340,39032,1,8,0:0:0:0:
384,340,39182,1,0,0:0:0:0:
451,56,39332,2,0,P|466:101|467:148,1,80,2|2,0:0|0:0,0:0:0:0:
444,256,39632,1,8,0:0:0:0:
444,256,39782,1,0,0:0:0:0:
242,158,39932,6,0,P|283:157|321:153,1,80,2|0,0:0|0:0,0:0:0:0:
191,284,40232,2,0,P|146:283|103:287,1,80,8|0,0:0|0:0,0:0:0:0:
344,220,40532,2,0,P|383:216|424:215,1,80,2|2,0:0|0:0,0:0:0:0:
209,130,40832,1,8,0:0:0:0:
368,96,40982,1,0,0:0:0:0:
209,130,41132,6,0,P|170:118|123:107,1,80,2|0,0:0|0:0,0:0:0:0:
132,107,41357,1,0,0:0:0:0:
132,107,41432,1,8,0:0:0:0:
88,247,41582,1,0,0:0:0:0:
32,160,41732,1,2,0:0:0:0:
72,340,41882,1,2,0:0:0:0:
170,262,42032,2,0,P|221:232|280:258,1,120,8|0,0:0|0:0,0:0:0:0:
304,324,42332,6,0,L|313:236,1,80,2|0,0:0|0:0,0:0:0:0:
396,120,42632,1,8,0:0:0:0:
436,261,42782,1,0,0:0:0:0:
376,27,42932,5,2,0:0:0:0:
511,144,43082,1,2,0:0:0:0:
299,112,43232,1,8,0:0:0:0:
432,224,43382,1,8,0:0:0:0:
432,224,43457,1,0,0:0:0:0:
432,224,43532,6,0,P|440:268|440:308,1,80,4|0,0:0|0:0,0:0:0:0:
360,164,43832,2,0,P|391:132|427:120,1,80,8|0,0:0|0:0,0:0:0:0:
299,234,44132,2,0,P|237:248|173:234,1,120,2|0,0:0|0:0,0:0:0:0:
97,177,44432,2,0,P|102:219|102:259,1,80,8|0,0:0|0:0,0:0:0:0:
161,93,44732,6,0,L|166:8,1,80,2|0,0:0|0:0,0:0:0:0:
295,94,45032,2,0,L|291:189,1,80,8|0,0:0|0:0,0:0:0:0:
252,236,45257,1,0,0:0:0:0:
252,236,45332,2,0,L|258:140,1,80,2|2,0:0|0:0,0:0:0:0:
161,224,45632,1,8,0:0:0:0:
336,152,45782,1,0,0:0:0:0:
277,315,45932,6,0,P|303:337|350:351,1,80,4|0,0:0|0:0,0:0:0:0:
397,128,46232,2,0,L|363:213,1,80,8|0,0:0|0:0,0:0:0:0:
367,202,46457,1,0,0:0:0:0:
367,202,46532,1,8,0:0:0:0:
332,52,46682,1,2,0:0:0:0:
480,120,46832,1,8,0:0:0:0:
457,239,46982,2,0,L|452:279,1,40,2|0,0:0|0:0,0:0:0:0:
391,327,47132,6,0,L|248:336,1,143.999995605469,4|0,0:0|0:0,0:0:0:0:
240,256,47432,6,0,B|211:218|211:218|136:222|136:222|104:188,1,167.999994873047,4|0,0:0|0:0,0:0:0:0:
143,116,47732,6,0,B|202:132|230:90|230:90|279:69|326:96,1,192,4|0,0:0|0:0,0:0:0:0:
335,132,48032,5,4,0:0:0:0:
350,179,48107,1,8,0:0:0:0:
366,226,48182,1,8,0:0:0:0:
382,273,48257,1,8,0:0:0:0:
400,326,48332,6,0,P|354:362|288:350,1,120,4|0,0:0|0:0,0:0:0:0:
261,308,48632,1,8,0:0:0:0:
400,326,48782,1,0,0:0:0:0:
177,360,48932,2,0,P|170:322|177:270,1,80,2|2,0:0|0:0,0:0:0:0:
221,150,49232,1,8,0:0:0:0:
172,281,49382,1,0,0:0:0:0:
63,228,49532,6,0,P|64:176|62:135,1,80,2|0,0:0|0:0,0:0:0:0:
236,208,49832,1,8,0:0:0:0:
63,228,49982,1,0,0:0:0:0:
236,208,50132,2,0,P|236:260|237:301,1,80,2|2,0:0|0:0,0:0:0:0:
133,74,50432,1,8,0:0:0:0:
236,208,50582,1,0,0:0:0:0:
376,87,50732,6,0,L|254:104,1,120,2|0,0:0|0:0,0:0:0:0:
257,103,51032,1,8,0:0:0:0:
331,212,51182,1,0,0:0:0:0:
308,15,51332,2,0,L|186:32,1,120,2|0,0:0|0:0,0:0:0:0:
189,31,51632,1,8,0:0:0:0:
298,146,51782,1,0,0:0:0:0:
133,136,51932,6,0,P|112:191|113:256,1,120,2|0,0:0|0:0,0:0:0:0:
206,158,52232,2,0,P|205:118|189:81,1,80,8|0,0:0|0:0,0:0:0:0:
31,19,52532,1,2,0:0:0:0:
96,169,52682,1,2,0:0:0:0:
136,13,52832,1,8,0:0:0:0:
8,112,52982,1,8,0:0:0:0:
189,105,53132,6,0,P|262:116|326:94,1,120,4|0,0:0|0:0,0:0:0:0:
371,74,53432,2,0,P|364:126|366:167,1,80,8|0,0:0|0:0,0:0:0:0:
302,323,53732,2,0,P|276:265|213:263,1,120,2|0,0:0|0:0,0:0:0:0:
95,274,54032,2,0,P|131:288|171:295,1,80,8|0,0:0|0:0,0:0:0:0:
293,144,54332,5,2,0:0:0:0:
150,214,54482,1,0,0:0:0:0:
358,194,54632,5,8,0:0:0:0:
207,152,54782,1,0,0:0:0:0:
362,273,54932,5,2,0:0:0:0:
148,311,55082,1,2,0:0:0:0:
148,311,55157,1,0,0:0:0:0:
148,311,55232,2,0,P|138:259|137:218,1,80,8|0,0:0|0:0,0:0:0:0:
188,92,55532,5,4,0:0:0:0:
136,231,55682,1,0,0:0:0:0:
188,92,55832,2,0,P|192:50|193:12,1,80,8|0,0:0|0:0,0:0:0:0:
141,158,56132,1,2,0:0:0:0:
283,82,56282,1,2,0:0:0:0:
141,158,56432,1,8,0:0:0:0:
274,246,56582,1,8,0:0:0:0:
274,246,56657,1,8,0:0:0:0:
274,246,56732,6,0,P|316:264|392:211,1,143.999995605469,4|0,0:0|0:0,0:0:0:0:
402,43,57032,6,0,L|315:194,1,167.999994873047,4|0,0:0|0:0,0:0:0:0:
425,150,57332,6,0,L|452:100,1,55.9999982910157,4|0,0:0|0:0,0:0:0:0:
377,50,57482,2,0,L|351:100,1,55.9999982910157,8|8,0:0|0:0,0:0:0:0:
275,170,57632,2,0,L|271:111,1,55.9999982910157,8|8,0:0|0:0,0:0:0:0:
218,30,57782,2,0,L|201:89,1,55.9999982910157,8|8,0:0|0:0,0:0:0:0:
197,185,57932,5,4,0:0:0:0:
110,42,58082,1,0,0:0:0:0:
290,81,58232,2,0,P|339:90|373:86,1,80,8|0,0:0|0:0,0:0:0:0:
334,182,58532,1,2,0:0:0:0:
339,13,58682,1,2,0:0:0:0:
458,103,58832,1,8,0:0:0:0:
290,82,58982,1,0,0:0:0:0:
290,82,59057,1,0,0:0:0:0:
290,82,59132,6,0,P|232:79|202:84,1,80,2|0,0:0|0:0,0:0:0:0:
164,216,59432,1,8,0:0:0:0:
110,69,59582,1,0,0:0:0:0:
62,214,59732,1,2,0:0:0:0:
205,147,59882,1,2,0:0:0:0:
173,329,60032,1,8,0:0:0:0:
173,329,60107,1,8,0:0:0:0:
173,329,60182,1,8,0:0:0:0:
173,329,60257,1,8,0:0:0:0:
173,329,60332,6,0,P|214:323|256:330,1,80,4|0,0:0|0:0,0:0:0:0:
325,245,60632,2,0,P|286:252|242:244,1,80,8|0,0:0|0:0,0:0:0:0:
299,47,60932,2,0,L|283:179,1,120,2|0,0:0|0:0,0:0:0:0:
284,166,61232,1,8,0:0:0:0:
220,35,61382,1,0,0:0:0:0:
404,143,61532,5,2,0:0:0:0:
202,139,61682,1,0,0:0:0:0:
392,42,61832,1,8,0:0:0:0:
392,42,61907,1,8,0:0:0:0:
392,42,61982,1,8,0:0:0:0:
392,42,62057,1,8,0:0:0:0:
392,41,62132,2,0,P|433:40|472:36,1,80,8|0,0:0|0:0,0:0:0:0:
294,144,62432,2,0,P|249:142|210:147,1,80,8|0,0:0|0:0,0:0:0:0:
179,156,62657,1,0,0:0:0:0:
179,156,62732,5,4,0:0:0:0:
152,53,62882,1,0,0:0:0:0:
107,244,63032,5,8,0:0:0:0:
45,165,63182,1,0,0:0:0:0:
279,53,63332,5,2,0:0:0:0:
243,178,63482,1,2,0:0:0:0:
148,89,63632,1,8,0:0:0:0:
189,268,63782,1,0,0:0:0:0:
189,268,63857,1,0,0:0:0:0:
189,268,63932,6,0,P|192:314|191:357,1,80,2|0,0:0|0:0,0:0:0:0:
336,230,64232,2,0,P|333:189|333:151,1,80,8|0,0:0|0:0,0:0:0:0:
335,33,64532,1,2,0:0:0:0:
333,151,64682,1,2,0:0:0:0:
228,87,64832,1,8,0:0:0:0:
434,91,64982,1,8,0:0:0:0:
434,91,65057,1,8,0:0:0:0:
434,91,65132,6,0,P|452:140|456:180,1,80,4|0,0:0|0:0,0:0:0:0:
425,304,65432,1,8,0:0:0:0:
505,241,65582,1,0,0:0:0:0:
322,230,65732,1,4,0:0:0:0:
393,168,65882,1,0,0:0:0:0:
393,168,65957,1,0,0:0:0:0:
393,168,66032,1,8,0:0:0:0:
353,330,66182,6,0,P|268:352|218:302,1,160,4|0,0:0|0:0,0:0:0:0:
220,307,66557,1,0,0:0:0:0:
220,307,66632,1,8,0:0:0:0:
114,303,66782,1,0,0:0:0:0:
121,204,66932,1,8,0:0:0:0:
148,188,67007,1,0,0:0:0:0:
182,183,67082,1,0,0:0:0:0:
218,199,67157,1,0,0:0:0:0:
255,203,67232,2,0,L|305:193,1,40,8|0,0:0|0:0,0:0:0:0:
338,262,67382,2,0,L|395:273,1,40,8|0,0:0|0:0,0:0:0:0:
472,288,67532,6,0,P|469:228|477:168,1,120.000004577637,4|2,0:0|0:0,0:0:0:0:
477,168,68132,1,12,0:0:0:0:
376,194,68282,2,0,P|324:220|270:199,1,120.000004577637,0|0,0:0|0:0,0:0:0:0:
365,71,68732,6,0,L|437:57,1,60.0000022888184,2|0,0:0|0:0,0:0:0:0:
376,193,69032,2,0,L|317:204,1,60.0000022888184,2|0,0:0|0:0,0:0:0:0:
467,126,69332,2,0,P|502:177|486:236,1,120.000004577637,8|0,0:0|0:0,0:0:0:0:
465,263,69707,1,0,0:0:0:0:
422,271,69782,1,8,0:0:0:0:
383,289,69857,1,0,0:0:0:0:
340,307,69932,6,0,P|306:301|265:299,1,60.0000022888184,4|0,0:0|0:0,0:0:0:0:
176,335,70232,1,2,0:0:0:0:
64,210,70532,2,0,P|119:237|185:218,1,120.000004577637,12|0,0:0|0:0,0:0:0:0:
228,117,70982,2,0,P|191:101|132:146,1,120.000004577637,2|2,0:0|0:0,0:0:0:0:
241,211,71432,2,0,L|346:197,1,90.0000034332277,8|0,0:0|0:0,0:0:0:0:
381,182,71732,6,0,L|448:190,1,60.0000022888184,8|0,0:0|0:0,0:0:0:0:
344,49,72032,2,0,L|277:61,1,60.0000022888184,8|0,0:0|0:0,0:0:0:0:
99,189,72332,6,0,L|181:202,1,80,4|0,0:0|0:0,0:0:0:0:
119,296,72632,1,8,0:0:0:0:
148,107,72782,1,0,0:0:0:0:
119,296,72932,1,2,0:0:0:0:
42,120,73082,1,2,0:0:0:0:
233,144,73232,1,8,0:0:0:0:
81,25,73382,1,0,0:0:0:0:
34,236,73532,6,0,P|51:284|53:323,1,80,2|0,0:0|0:0,0:0:0:0:
182,213,73832,1,8,0:0:0:0:
275,331,73982,1,0,0:0:0:0:
275,331,74057,1,0,0:0:0:0:
275,331,74132,2,0,L|179:341,1,80,2|2,0:0|0:0,0:0:0:0:
325,226,74432,2,0,L|421:215,1,80,8|0,0:0|0:0,0:0:0:0:
128,148,74732,5,4,0:0:0:0:
325,226,74882,1,0,0:0:0:0:
249,148,75032,1,8,0:0:0:0:
260,311,75182,1,0,0:0:0:0:
249,148,75332,1,4,0:0:0:0:
146,310,75482,1,2,0:0:0:0:
325,226,75632,1,8,0:0:0:0:
346,196,75707,1,0,0:0:0:0:
358,160,75782,1,0,0:0:0:0:
353,122,75857,1,0,0:0:0:0:
342,80,75932,6,0,P|312:49|274:40,1,80,4|0,0:0|0:0,0:0:0:0:
113,128,76232,2,0,P|152:127|189:111,1,80,8|0,0:0|0:0,0:0:0:0:
49,64,76532,1,4,0:0:0:0:
41,95,76607,1,0,0:0:0:0:
44,131,76682,1,2,0:0:0:0:
58,168,76757,1,0,0:0:0:0:
73,194,76832,2,0,P|77:239|76:278,1,80,8|0,0:0|0:0,0:0:0:0:
244,167,77132,6,0,L|247:87,1,80,4|0,0:0|0:0,0:0:0:0:
282,264,77432,2,0,L|279:344,1,80,8|0,0:0|0:0,0:0:0:0:
165,253,77732,2,0,L|87:274,1,80,4|0,0:0|0:0,0:0:0:0:
357,171,78032,2,0,L|448:146,1,80,8|0,0:0|0:0,0:0:0:0:
165,254,78332,5,4,0:0:0:0:
357,171,78482,1,0,0:0:0:0:
103,147,78632,1,8,0:0:0:0:
424,272,78782,1,4,0:0:0:0:
232,32,79082,5,0,0:0:0:0:
97,54,79232,1,8,0:0:0:0:
70,87,79307,1,0,0:0:0:0:
64,131,79382,1,8,0:0:0:0:
72,182,79457,1,8,0:0:0:0:
85,219,79532,6,0,P|94:264|95:308,1,80,4|0,0:0|0:0,0:0:0:0:
373,183,79832,2,0,P|364:138|363:94,1,80,8|0,0:0|0:0,0:0:0:0:
229,42,80132,2,0,P|184:51|140:52,1,80,4|0,0:0|0:0,0:0:0:0:
265,330,80432,2,0,P|310:321|354:320,1,80,8|0,0:0|0:0,0:0:0:0:
85,218,80732,5,4,0:0:0:0:
373,182,80882,1,0,0:0:0:0:
169,297,81032,1,8,0:0:0:0:
272,112,81182,1,4,0:0:0:0:
224,205,81482,5,0,0:0:0:0:
169,297,81632,2,0,P|130:338|81:300,1,120,8|0,0:0|0:0,0:0:0:0:
60,225,81932,6,0,L|46:347,1,120,4|0,0:0|0:0,0:0:0:0:
97,272,82232,2,0,L|111:180,1,80,8|0,0:0|0:0,0:0:0:0:
268,242,82532,2,0,L|254:364,1,120,4|0,0:0|0:0,0:0:0:0:
303,277,82832,2,0,L|313:186,1,80,8|0,0:0|0:0,0:0:0:0:
481,291,83132,5,4,0:0:0:0:
303,277,83282,1,0,0:0:0:0:
441,168,83432,1,8,0:0:0:0:
400,366,83582,1,4,0:0:0:0:
363,77,83882,6,0,L|405:71,1,40
365,155,84032,2,0,L|282:173,1,80,8|0,0:0|0:0,0:0:0:0:
17,137,84332,6,0,P|95:140|140:104,1,120,4|0,0:0|0:0,0:0:0:0:
167,81,84632,2,0,L|158:173,1,80,8|0,0:0|0:0,0:0:0:0:
437,161,84932,2,0,P|359:158|314:194,1,120,4|0,0:0|0:0,0:0:0:0:
287,217,85232,2,0,L|296:125,1,80,8|0,0:0|0:0,0:0:0:0:
347,300,85532,5,4,0:0:0:0:
217,158,85682,1,0,0:0:0:0:
355,96,85832,1,8,0:0:0:0:
220,357,85982,1,4,0:0:0:0:
217,158,86282,6,0,L|258:113,1,40
325,155,86432,2,0,L|236:253,1,120,8|0,0:0|0:1,0:0:0:0:
190,304,86732,5,4,0:1:0:0:
256,192,86882,12,0,88982,0:0:0:0:
